#VERSION:0.83;
#TITLE:Mambo Caribbean 5;
#SUBTITLE:;
#ARTIST:Mutsuhiko Izumi;
#TITLETRANSLIT:;
#SUBTITLETRANSLIT:;
#ARTISTTRANSLIT:;
#GENRE:;
#CREDIT:;
#MUSIC:Mambo Caribbean 5.ogg;
#BANNER:Mambo Caribbean 5.png;
#BACKGROUND:Mambo Caribbean 5-bg.png;
#CDTITLE:;
#SAMPLESTART:7.999;
#SAMPLELENGTH:15.000;
#SELECTABLE:YES;
#OFFSET:0.000;
#BPMS:0.000=240.000;
#STOPS:;
#SPEEDS:0.000=1.000=0.000=0;
#SCROLLS:0.000=1.000;
#TICKCOUNTS:0.000=4;
#TIMESIGNATURES:0.000=4=4;
#LABELS:0.000=Song Start;
#COMBOS:0.000=1;
#ORIGIN:;
#TAGS:;
#PREVIEWVID:;
#JACKET:Mambo Caribbean 5-jacket.png;
#CDIMAGE:;
#DISCIMAGE:;
#BGCHANGES:;
#FGCHANGES:;

//--------------- dance-single - ----------------
#NOTEDATA:;
#STEPSTYPE:dance-single;
#DESCRIPTION:;
#DIFFICULTY:Beginner;
#METER:2;
#RADARVALUES:0.099615,0.146027,0,0.009056,0,77,77,0,1,0,0,0,0,0,0.099615,0.146027,0,0.009056,0,77,77,0,1,0,0,0,0,0;
#CHARTNAME:;
#CHARTHASH:3331285956;
#BANNER:;
#CHARTSTYLE:;
#METERF:0.000000;
#LASTSECONDHINT:107.500000;
#CREDIT:ZSL;
#NOTES:
0000
0000
0000
0000
,
0000
0000
0000
0000
,
0000
0000
0000
0000
,
0000
0000
0000
0000
,
0001
0000
0000
0000
,
0000
0000
0000
0000
,
1000
0000
0000
0000
,
1000
0000
0000
0000
,
0010
0000
0000
0000
,
0100
0000
0000
0000
,
0001
0000
0000
0000
,
0000
0000
0000
0000
,
0100
0000
0000
0000
,
0010
0000
0000
0000
,
1000
0000
0000
0000
,
0000
0000
0000
0000
,
0001
0000
0000
0000
,
0010
0000
0000
0000
,
0100
0000
0000
0000
,
0000
0000
0000
0000
,
1000
0000
0000
0000
,
0100
0000
0000
0000
,
0010
0000
0000
0000
,
0000
0000
0000
0000
,
0001
0000
0000
0000
,
0001
0000
0000
0000
,
1000
0000
0000
0000
,
1000
0000
0000
0000
,
0010
0000
0000
0000
,
0000
0000
0000
0000
,
0000
0000
0000
0000
,
0000
0000
0000
0000
,
1000
0000
0000
0000
,
1000
0000
0000
0000
,
0001
0000
0000
0000
,
0001
0000
0000
0000
,
0010
0000
0000
0000
,
0000
0000
0000
0000
,
0100
0000
0000
0000
,
0100
0000
0000
0000
,
0010
0000
0000
0000
,
0000
0000
0000
0000
,
0100
0000
0000
0000
,
0000
0000
0000
0000
,
1000
0000
0000
0000
,
0000
0000
0000
0000
,
0001
0000
0000
0000
,
0000
0000
0000
0000
,
0100
0000
0000
0000
,
0000
0000
0000
0000
,
0010
0000
0000
0000
,
0000
0000
0000
0000
,
1000
0000
0000
0000
,
0000
0000
0000
0000
,
0001
0000
0000
0000
,
0001
0000
0000
0000
,
0010
0000
0000
0000
,
0010
0000
0000
0000
,
0001
0000
0000
0000
,
0000
0000
0000
0000
,
1000
0000
0000
0000
,
1000
0000
0000
0000
,
0010
0000
0000
0000
,
0000
0000
0000
0000
,
1000
0000
0000
0000
,
0100
0000
0000
0000
,
0010
0000
0000
0000
,
0000
0000
0000
0000
,
0001
0000
0000
0000
,
0100
0000
0000
0000
,
0010
0000
0000
0000
,
0000
0000
0000
0000
,
0100
0000
0000
0000
,
0001
0000
0000
0000
,
0010
0000
0000
0000
,
0000
0000
0000
0000
,
0100
0000
0000
0000
,
1000
0000
0000
0000
,
0010
0000
0000
0000
,
0000
0000
0000
0000
,
0100
0000
0000
0000
,
0100
0000
0000
0000
,
0001
0000
0000
0000
,
0001
0000
0000
0000
,
0010
0000
0000
0000
,
0000
0000
0000
0000
,
0000
0000
0000
0000
,
0000
0000
0000
0000
,
0100
0000
0000
0000
,
0100
0000
0000
0000
,
1000
0000
0000
0000
,
1000
0000
0000
0000
,
0010
0000
0000
0000
,
0000
0000
0000
0000
,
0100
0000
0000
0000
,
0100
0000
0000
0000
,
0001
0000
0000
0000
,
0010
0000
0000
0000
,
0100
0000
0000
0000
,
0000
0000
0000
0000
,
1000
0000
0000
0000
,
0010
0000
0000
0000
,
0100
0000
0000
0000
,
0100
0000
0000
0000
,
0010
0000
0000
0000
,
0010
0000
0000
0000
,
1000
0000
0000
0000
,
2000
0000
3000
0000
;

//--------------- dance-single - ----------------
#NOTEDATA:;
#STEPSTYPE:dance-single;
#DESCRIPTION:;
#DIFFICULTY:Easy;
#METER:5;
#RADARVALUES:0.203111,0.292053,0.126783,0.018112,0,157,143,14,2,0,0,0,0,0,0.203111,0.292053,0.126783,0.018112,0,157,143,14,2,0,0,0,0,0;
#CHARTNAME:;
#CHARTHASH:2995996905;
#BANNER:;
#CHARTSTYLE:;
#METERF:0.000000;
#LASTSECONDHINT:107.500000;
#CREDIT:ZSL;
#NOTES:
0000
0000
0000
0000
,
0000
0000
0000
0000
,
0000
0000
0000
0000
,
0000
0000
0000
0000
,
0001
0000
0010
0000
,
0001
0000
0000
0000
,
1001
0000
0000
0000
,
1001
0000
0000
0000
,
1000
0000
0010
0000
,
0100
0000
0001
0000
,
1000
0000
0100
0000
,
1000
0000
0000
0000
,
0001
0000
0010
0000
,
0100
0000
1000
0000
,
0001
0000
0001
0000
,
0000
0000
0000
0000
,
0100
0000
0010
0000
,
1000
0000
0001
0000
,
0010
0000
0001
0000
,
1000
0000
0000
0000
,
0100
0000
0010
0000
,
0001
0000
1000
0000
,
0010
0000
0010
0000
,
0000
0000
0000
0000
,
0100
0000
0010
0000
,
0100
0000
0001
0000
,
0100
0000
0010
0000
,
0100
0000
0000
0000
,
0001
0000
0000
0000
0000
0000
0000
1000
,
0000
0000
0000
0000
0000
0000
0000
0001
,
0000
0000
0000
0000
0000
0000
0000
1000
,
0000
0000
0000
0000
,
0100
0000
0010
0000
,
0100
0000
1000
0000
,
0100
0000
0010
0000
,
0100
0000
0000
0000
,
1000
0000
0000
0000
,
0001
0000
0000
0000
,
1000
0000
0010
0000
,
0100
0000
0000
0000
,
0001
0000
0000
0000
,
1000
0000
0000
0000
,
0100
0000
0000
0000
,
0010
0000
0010
0000
,
0001
0000
0000
0000
,
0100
0000
0000
0000
,
0010
0000
0000
0000
,
1000
0000
0001
0000
,
0010
0000
0000
0000
,
0100
0000
0000
0000
,
1000
0000
0000
0000
,
0010
0000
0010
0000
,
0100
0000
0000
0000
,
0001
0000
0000
0000
,
1000
0000
0100
0000
,
0010
0000
0000
0000
,
0110
0000
0000
0000
,
0011
0000
0000
0000
,
1001
0000
0000
0000
,
1000
0000
0000
0000
,
1001
0000
0000
0000
,
1010
0000
0000
0000
,
0110
0000
0000
0000
,
1000
0000
0000
0000
,
0010
0000
1000
0000
,
0100
0000
0000
0000
,
0010
0000
0001
0000
,
0100
0000
0000
0000
,
0010
0000
1000
0000
,
0100
0000
0000
0000
,
0010
0000
0010
0000
,
0000
0000
0000
0000
,
0100
0000
1000
0000
,
0010
0000
0100
0000
,
0001
0000
0010
0000
,
0001
0000
0000
0000
,
0100
0000
0010
0000
,
1000
0000
0100
0000
,
0010
0000
0010
0000
,
0000
0000
0000
0000
,
0001
0000
1000
0000
,
0010
0000
1000
0000
,
0001
0000
1000
0000
,
0100
0000
0000
0000
,
0010
0000
0000
0000
0000
0000
0000
0100
,
0000
0000
0000
0000
0000
0000
0000
0010
,
0000
0000
0000
0000
0000
0000
0000
0100
,
0000
0000
0000
0000
,
1000
0000
0001
0000
,
0010
0000
0001
0000
,
1000
0000
0001
0000
,
0100
0000
0000
0000
,
0010
0000
0000
0000
,
1000
0000
0000
0000
,
1001
0000
0000
0000
,
1100
0000
0000
0000
,
0100
0000
1000
0000
,
0010
0000
0000
0000
,
0100
0000
0001
0000
,
0010
0000
0000
0000
,
0100
0000
1000
0000
,
0010
0000
0000
0000
,
0110
0000
0000
0000
,
0101
0000
0000
0000
,
0001
0000
0000
0000
,
1000
0000
0000
0000
,
1100
0000
0000
0000
,
2002
0000
3003
0000
;

//--------------- dance-single - ----------------
#NOTEDATA:;
#STEPSTYPE:dance-single;
#DESCRIPTION:;
#DIFFICULTY:Medium;
#METER:8;
#RADARVALUES:0.346712,0.389405,0.217342,0.018112,0,268,244,24,2,0,0,0,0,0,0.346712,0.389405,0.217342,0.018112,0,268,244,24,2,0,0,0,0,0;
#CHARTNAME:;
#CHARTHASH:3276801089;
#BANNER:;
#CHARTSTYLE:;
#METERF:0.000000;
#LASTSECONDHINT:107.500000;
#CREDIT:ZSL;
#NOTES:
0000
0000
0000
0000
,
0000
0000
0000
0000
,
0000
0000
0000
0000
,
0000
0000
0000
0000
,
0001
0000
0000
0010
0000
0000
0000
0000
,
0001
0000
0000
1000
0000
0000
0000
0000
,
0010
0000
0000
0100
0000
0000
0001
0000
,
1000
0000
0000
0000
,
0100
0000
0010
0000
0001
0000
0000
1000
,
0000
1000
0000
0000
0010
0000
0000
0000
,
1000
0000
0010
0000
0100
0000
0000
0010
,
0000
0010
0000
0000
1000
0000
0000
0000
,
0100
0000
1000
0000
0001
0000
0000
0100
,
0000
0100
0000
0000
0010
0000
0000
0000
,
1000
0000
0001
0000
0010
0000
0000
0010
,
0000
0001
0000
0000
0001
0000
0000
0000
,
0100
0000
0010
0000
1000
0000
0000
0001
,
0000
0001
0000
0000
0010
0000
0000
0000
,
0001
0000
0010
0000
0100
0000
0000
0010
,
0000
0010
0000
0000
0001
0000
0000
0000
,
0100
0000
0001
0000
1000
0000
0000
0100
,
0000
0100
0000
0000
0010
0000
0000
0000
,
0001
0000
1000
0000
0010
0000
0000
0010
,
0000
1000
0000
0000
1000
0000
0000
0000
,
0001
0000
0000
1001
0000
0000
0000
0000
,
1000
0000
0000
1010
0000
0000
0000
0000
,
0010
0000
0000
0110
0000
0000
0000
0000
,
0100
0000
0000
0101
0000
0000
0000
0000
,
0001
0000
0000
1000
0000
0001
0000
1000
,
0000
0000
0000
0100
0000
0010
0000
0100
,
0000
0000
0000
0100
0000
0000
0000
1000
,
0000
0000
0000
1010
0000
0000
0000
0000
,
1000
0000
0000
1001
0000
0000
0000
0000
,
0001
0000
0000
0011
0000
0000
0000
0000
,
0010
0000
0000
0110
0000
0000
0000
0000
,
0100
0000
0000
1100
0000
0000
0000
0000
,
1000
0001
0000
0100
,
0010
0000
0010
0000
,
1000
1000
0001
0000
,
1001
0000
0000
0000
,
0001
0000
0010
0000
,
0100
0000
0010
0000
,
0001
0000
1000
0000
,
0010
0000
0100
0000
,
0001
0000
1000
0000
,
0100
0000
0020
0000
0000
0000
0000
0130
,
0000
1000
0001
0000
,
0100
0100
0001
0000
,
0100
0000
0010
0000
,
1000
0000
0001
0000
,
0010
0000
0100
0000
,
1000
0000
0001
0000
,
0010
0000
0001
0000
,
0100
0000
0010
0000
,
1000
0000
0000
0001
0000
0000
0000
0000
,
1001
0000
0000
0000
,
0001
0000
0000
0010
0000
0000
0001
0000
,
1000
0000
0000
0010
0000
0000
0100
0000
,
0001
0000
0000
0100
0000
0000
0010
0000
,
1000
0000
0001
0000
,
1000
0000
0000
0010
0000
0000
1000
0000
,
0001
0000
0000
0010
0000
0000
0100
0000
,
1000
0000
0000
0100
0000
0000
0010
0000
,
0001
0000
1000
0000
,
0010
0000
0100
0000
,
0110
0000
0000
0000
,
1000
0000
0001
0000
,
1001
0000
0000
0000
,
0100
0000
0010
0000
,
0110
0000
0000
0000
,
1000
0000
0000
0000
0001
0000
0000
0010
,
0000
0000
0100
0000
,
0010
0000
0001
0000
0100
0000
0000
0010
,
0000
0010
0000
0000
1000
0000
0000
0000
,
0001
0000
0010
0000
0100
0000
0000
1000
,
0000
1000
0000
0000
0001
0000
0000
0000
,
0100
0000
0001
0000
0010
0000
0000
0100
,
0000
0100
0000
0000
1000
0000
0000
0000
,
0010
0000
0100
0000
0001
0000
0000
0001
,
0000
1000
0000
0000
1000
0000
0000
0000
,
0001
0000
0000
0011
0000
0000
0000
0000
,
1000
0000
0000
1010
0000
0000
0000
0000
,
0001
0000
0000
0110
0000
0000
0000
0000
,
1000
0000
0000
0110
0000
0000
0000
0000
,
0001
0000
0000
0010
0000
0100
0000
1000
,
0000
0000
0000
0001
0000
0100
0000
0010
,
0000
0000
0000
0010
0000
0000
0000
1000
,
0000
0000
0000
1100
0000
0000
0000
0000
,
1000
0000
0000
1010
0000
0000
0000
0000
,
0001
0000
0000
0011
0000
0000
0000
0000
,
1000
0000
0000
0110
0000
0000
0000
0000
,
0001
0000
0000
0110
0000
0000
0000
0000
,
1000
0010
0000
0100
,
0001
0000
0010
0000
,
0100
0100
1000
0000
,
1001
0000
0001
0000
,
0100
0000
0000
0001
0000
0000
0000
0000
,
0010
0000
0000
0100
0000
0000
0000
0000
,
0010
0000
0000
0001
0000
0000
0000
0000
,
0100
0000
0000
0010
0000
0000
0000
0000
,
1000
0000
0000
0100
0000
0000
0000
0000
,
1000
0000
0000
0010
0000
0000
0000
0000
,
0100
0000
0000
0010
0000
0000
1000
0000
,
0100
0000
0000
0000
,
1000
0000
0000
0001
0000
0000
0100
0000
,
0001
0000
0000
0000
,
0010
0000
0000
0100
0000
0000
1000
0000
,
0020
0000
1030
0000
;

//--------------- dance-single - ----------------
#NOTEDATA:;
#STEPSTYPE:dance-single;
#DESCRIPTION:;
#DIFFICULTY:Hard;
#METER:12;
#RADARVALUES:0.507132,0.584107,0.226398,0.108671,0,392,367,25,12,0,0,0,0,0,0.507132,0.584107,0.226398,0.108671,0,392,367,25,12,0,0,0,0,0;
#CHARTNAME:;
#CHARTHASH:1254247273;
#BANNER:;
#CHARTSTYLE:;
#METERF:0.000000;
#LASTSECONDHINT:107.500000;
#CREDIT:ZSL;
#NOTES:
0000
0000
0000
0000
,
0000
0000
0000
0000
,
0000
0000
0000
0000
,
0000
0000
0000
0000
,
0001
0000
0000
1000
0000
0010
0000
0000
,
1000
0000
0000
0001
0000
0010
0000
0000
,
0100
0000
0100
0010
0000
0010
0001
0000
,
1000
0000
0010
0000
,
1000
0000
0001
0000
0010
0100
0000
0001
,
0000
0100
0000
1000
0100
0000
1000
0000
,
0001
0000
0100
0000
0010
1000
0000
0001
,
0000
0100
0000
0001
0000
1000
0100
0000
,
1000
0000
0001
0000
0100
0010
0000
0001
,
0000
0010
0000
1000
0010
0000
1000
0000
,
0000
0001
0010
0000
0100
0000
0000
0010
,
0000
0010
0000
0001
1000
0000
0000
0000
,
0001
0000
1000
0000
0010
0100
0000
1000
,
0000
0100
0000
0001
0100
0000
0001
0000
,
1000
0000
0100
0000
0010
0001
0000
1000
,
0000
0100
0000
1000
0000
0001
0100
0000
,
0001
0000
1000
0000
0100
0010
0000
1000
,
0000
0010
0000
0001
0010
0000
0001
0000
,
0000
1000
0010
0000
0100
0000
0000
0010
,
0000
0010
0000
1000
0001
0000
0000
0000
,
0010
0000
0000
0011
0000
0001
0000
0000
,
1000
0000
0000
1010
0000
0010
0000
0000
,
0100
0000
0000
0101
0000
0001
0000
0000
,
1000
0000
0000
1100
0000
0000
1000
0000
,
0001
0100
0000
0010
0000
0100
0000
0101
,
0000
0001
0000
1002
0000
0100
0000
2003
,
0000
0100
0000
3002
0000
0010
0000
2003
,
0000
0010
0000
3001
0000
0000
1000
0000
,
0010
0000
0000
1010
0000
1000
0000
0000
,
0001
0000
0000
0011
0000
0010
0000
0000
,
0100
0000
0000
1100
0000
1000
0000
0000
,
0001
0000
0000
0101
0000
0000
0001
0000
,
1000
0100
0000
0010
,
0110
0000
0110
0000
,
1000
0000
1000
0000
0001
1000
0000
1000
,
0010
0000
0100
0000
,
0001
0000
0000
1000
0000
0000
0100
0000
,
0000
1000
0000
0000
0010
0000
0100
0000
,
0001
1000
0001
0100
,
0010
1000
1000
0000
,
0001
0000
0000
0010
0000
0000
0100
0000
,
0010
0000
0020
0000
0000
0000
0000
0031
,
0000
0001
1000
0000
0010
0000
0100
0000
,
0002
0000
2003
0000
,
3100
0000
0010
0000
0001
0000
0000
1000
,
0000
1000
0000
0000
0010
0000
0000
0000
,
0100
0000
0001
0000
0010
0000
0000
0100
,
0000
0100
0000
1000
0000
0000
0000
0000
,
0001
0000
0100
0010
0000
0010
0100
0000
,
0001
1000
0001
0000
,
0010
0000
0010
0100
0000
0100
0000
1000
,
0001
0000
0100
0000
,
0010
0000
0010
1000
0000
0000
1000
0000
,
0001
0000
0001
0010
0000
0000
0010
0000
,
0100
0000
0100
1000
0000
1000
0001
0000
,
0100
0100
0001
0001
,
0010
0000
0010
0001
0000
0000
0001
0000
,
1000
0000
1000
0010
0000
0000
0010
0000
,
0100
0000
0100
0001
0000
0001
1000
0000
,
0100
0000
0010
0000
,
0100
0000
1000
0000
0001
0000
0000
0100
,
0000
0010
0000
0000
1000
0000
0000
0000
,
0010
0000
1000
0000
0001
0000
0000
0010
,
0000
0001
0000
1000
0000
0000
0010
0000
,
0100
0000
0001
0000
1000
0000
0000
0100
,
0000
0010
0000
0000
0001
0000
0000
0000
,
0000
1000
0010
0000
0100
0000
0000
0001
,
0000
0001
0000
1000
0001
0000
0000
0000
,
0100
0000
0001
0000
1000
0100
0000
0001
,
0000
0100
0000
1000
0001
0000
0100
0000
,
0010
0000
1000
0000
0100
0010
0000
0001
,
0000
1000
0000
0010
0000
0100
0001
0000
,
0010
0000
0001
0000
1000
0010
0000
0001
,
0000
0010
0000
1000
0001
0000
0010
0000
,
0000
0100
1000
0000
0010
0000
0000
0100
,
0000
0100
0000
0001
0010
0000
0000
0000
,
0100
0000
0000
0110
0000
1000
0000
0000
,
0001
0000
0000
0101
0000
1000
0000
0000
,
0100
0000
0000
0011
0000
1000
0000
0000
,
0001
0000
0000
0110
0000
0000
0001
0000
,
1000
0100
0000
0010
0000
0100
0000
1100
,
0000
1000
0000
2001
0000
0001
0000
3020
,
0000
1000
0000
0230
0000
0010
0000
0302
,
0000
1000
0000
0013
0000
0000
0001
0000
,
0100
0000
0000
0110
0000
0001
0000
0000
,
1000
0000
0000
1100
0000
0001
0000
0000
,
0100
0000
0000
1010
0000
0001
0000
0000
,
1000
0000
0000
0110
0000
0000
1000
0000
,
0001
0100
0000
0010
,
0110
0000
1001
0000
,
0001
0000
0001
0000
0010
0100
0000
0100
,
1000
0000
0001
0000
,
0100
0000
0000
0010
0000
1000
0000
0000
,
0010
0000
0000
1000
0000
0001
0000
0000
,
0010
0000
0000
0001
0000
0100
0000
0000
,
0010
0000
0000
1010
0000
0000
0000
0000
,
1000
0000
0000
0100
0000
0010
0000
0000
,
0100
0000
0000
1000
0000
0010
0000
0000
,
0100
0000
0100
0010
0000
0010
1000
0000
,
0001
0000
0010
0000
,
0001
0000
0001
1000
0000
1000
0010
0000
,
0100
0000
0001
0000
,
0010
0000
0010
0001
0000
0001
0100
0000
,
0020
0000
1030
0000
;

//--------------- dance-single - ----------------
#NOTEDATA:;
#STEPSTYPE:dance-single;
#DESCRIPTION:;
#DIFFICULTY:Challenge;
#METER:14;
#RADARVALUES:0.71283,0.778809,0.307901,0.172062,0,551,517,34,19,0,0,0,0,0,0.71283,0.778809,0.307901,0.172062,0,551,517,34,19,0,0,0,0,0;
#CHARTNAME:;
#CHARTHASH:3336495419;
#BANNER:;
#CHARTSTYLE:;
#METERF:0.000000;
#LASTSECONDHINT:107.500000;
#CREDIT:ZSL;
#NOTES:
0000
0000
0000
0000
,
0000
0000
0000
0000
,
0000
0000
0000
0000
,
0000
0000
0000
0000
,
0001
0000
0001
0010
0000
0010
0000
0100
,
1000
0000
1000
0010
0000
0010
0000
0000
,
1000
1000
0001
1000
0000
0001
1000
0001
,
0001
0000
0100
0010
0100
0000
0001
0000
,
1000
0100
0010
0001
0200
0001
0000
0010
,
0000
1000
0000
0310
0100
0000
0001
0000
,
0010
0100
0010
0001
2000
0001
0000
0010
,
0000
0001
0000
3100
1000
0000
0001
0000
,
1000
0010
0100
0001
0020
0001
0000
0100
,
0000
1000
0000
0130
0010
0000
0001
0000
,
1000
0010
0100
0001
0001
0000
1000
1000
,
0000
1000
0000
0001
0001
0000
0100
0000
,
0001
0100
0010
1000
0200
1000
0000
0010
,
0000
0001
0000
0310
0100
0000
1000
0000
,
0010
0100
0010
1000
0002
1000
0000
0010
,
0000
1000
0000
0103
0001
0000
1000
0000
,
0001
0010
0100
1000
0020
1000
0000
0100
,
0000
0001
0000
0130
0010
0000
1000
0000
,
0001
0010
0100
1000
1000
0000
0001
0001
,
0000
0001
0000
1000
1000
0000
0100
0000
,
0010
0000
0100
1000
0000
1001
0000
0000
,
0001
0000
0100
0010
0000
1010
0000
0000
,
1000
0000
0001
0010
0000
0110
0000
0000
,
0100
0000
1000
0001
0000
1000
0100
0010
,
0001
0001
0000
0011
0000
0110
0000
1100
,
0000
1001
0000
0101
0000
1000
1000
0001
,
0000
0001
0100
0010
0000
0010
1000
0001
,
0000
0001
0010
0100
0000
0100
1000
0000
,
0010
0000
0100
0001
0000
1001
0000
0000
,
1000
0000
0100
0010
0000
0011
0000
0000
,
0001
0000
1000
0010
0000
0110
0000
0000
,
0100
0000
0001
1000
0000
0001
0100
0010
,
1000
0000
0001
1000
0000
0000
0100
0000
,
0011
0000
1100
0000
,
1000
1000
0001
0000
0001
0001
0000
1000
,
1001
0000
0001
0100
,
0010
0000
1000
0001
0000
1000
0010
0000
,
1000
0001
0000
0010
0100
0000
1000
0000
,
0100
0000
0010
0000
0001
0010
0001
0000
,
1000
0010
0100
0000
,
0001
0000
0100
0001
0000
1000
0001
0000
,
0010
0000
0200
0000
0000
0000
0000
0310
,
0000
0010
0100
1000
0100
0000
0010
0000
,
0001
1000
0001
1000
0001
0000
1000
0000
,
0010
0000
1000
0000
0010
0100
0000
0001
,
0000
0001
0000
1000
0100
0000
0010
0000
,
0100
0000
1000
0000
0001
0100
0000
0010
,
0000
0010
0000
0100
0001
0000
0000
0000
,
1000
0000
0001
1000
0000
0001
0010
0100
,
1000
0100
0010
0000
,
0001
0001
1000
0010
0000
0010
0000
1000
,
1001
0000
1000
0001
,
1000
1000
0100
0010
0000
0001
0010
0001
,
1000
1000
0001
1000
0000
0001
0100
0000
,
0010
0010
0100
0001
0000
0100
0001
1000
,
0100
0110
0011
1001
,
0001
0001
0100
0010
0000
1000
0010
1000
,
0001
0001
1000
0001
0000
1000
0100
0000
,
0010
0010
0100
1000
0000
0100
1000
0001
,
1001
0000
0001
0100
0010
0000
1000
0000
,
0001
0000
1000
0100
2000
0001
0000
0010
,
0000
0010
0000
3001
1000
0000
0001
0000
,
0100
0000
0010
1000
0002
1000
0000
0100
,
0000
1000
0000
1003
0000
0001
1000
0000
,
0010
0000
0100
0001
0020
0001
0000
0100
,
0000
0100
0000
0031
1000
0000
0001
0000
,
1000
0001
0100
0010
0010
0000
1000
1000
,
0000
1000
0000
0001
0001
0000
0100
0000
,
1000
0100
0010
1000
0200
1000
0000
0010
,
0000
0001
0000
1300
0001
0000
0010
0000
,
0001
1000
0010
1000
0002
0100
0000
1000
,
0000
0010
0000
0103
0000
0001
0010
0000
,
1000
0010
0100
1000
0020
1000
0000
0100
,
0000
0001
0000
1030
0001
0000
0100
0000
,
0010
1000
0001
0010
0010
0000
0100
0100
,
0000
0100
0000
1000
1000
0000
0001
0000
,
1000
0000
0010
0100
0000
1010
0000
0000
,
0010
0000
1000
0100
0000
1001
0000
0000
,
1000
0000
0001
0100
0000
1010
0000
0000
,
0010
0000
1000
0100
0000
0010
0001
1000
,
0010
0010
0000
1001
0000
0110
0000
1001
,
0000
1100
0000
0011
0000
1000
1000
0010
,
0000
0010
0100
0001
0000
0001
0010
0100
,
0000
0100
1000
0010
0000
0010
0100
0000
,
0001
0000
0010
0100
0000
0011
0000
0000
,
0010
0000
0001
0100
0000
1001
0000
0000
,
0001
0000
1000
0100
0000
0011
0000
0000
,
0010
0000
0001
0100
0000
0010
1000
0001
,
0010
0100
0000
1000
,
1010
0000
0101
0000
,
0001
0001
0100
0000
0010
0010
0000
0100
,
0110
0000
0000
0000
0010
1000
0001
0000
,
1000
0000
2000
0100
0000
3001
0000
1000
,
0010
0000
0020
0100
0000
1030
0000
0000
,
0100
0000
0200
0010
0000
1300
0000
0001
,
0100
0000
0100
0010
0000
0000
1000
0000
,
0001
0000
0002
0100
0000
1003
0000
0001
,
0010
0000
0020
0100
0000
0031
0000
0000
,
0100
0100
0010
1000
0000
0001
0010
0100
,
0100
0010
0001
1000
,
0010
0100
0001
1000
0000
0100
0010
0001
,
1000
0000
0100
1000
,
0010
0010
0100
0001
0000
0010
0100
0010
,
0012
0000
1003
0000
;
