#VERSION:0.83;
#TITLE:かむかもしかもにどもかも!;
#SUBTITLE:;
#ARTIST:MONO NO AWARE;
#TITLETRANSLIT:Kamukamo-Shikamo-Nidomokamo!!;
#SUBTITLETRANSLIT:;
#ARTISTTRANSLIT:;
#GENRE:;
#CREDIT:;
#MUSIC:Kamukamo-Shikamo-Nidomokamo!!.ogg;
#BANNER:Kamukamo-Shikamo-Nidomokamo!!.png;
#BACKGROUND:Kamukamo-Shikamo-Nidomokamo!!-bg.png;
#CDTITLE:;
#SAMPLESTART:3.999;
#SAMPLELENGTH:15.000;
#SELECTABLE:YES;
#OFFSET:0.000;
#BPMS:0.000=120.000;
#STOPS:;
#SPEEDS:0.000=1.000=0.000=0;
#SCROLLS:0.000=1.000;
#TICKCOUNTS:0.000=4;
#TIMESIGNATURES:0.000=4=4;
#LABELS:0.000=Song Start;
#COMBOS:0.000=1;
#ORIGIN:;
#TAGS:;
#PREVIEWVID:;
#JACKET:Kamukamo-Shikamo-Nidomokamo!!-jacket.png;
#CDIMAGE:;
#DISCIMAGE:;
#BGCHANGES:;
#FGCHANGES:;

//--------------- dance-single - ----------------
#NOTEDATA:;
#STEPSTYPE:dance-single;
#DESCRIPTION:;
#DIFFICULTY:Beginner;
#METER:2;
#RADARVALUES:0.092384,0.123524,0,0.007266,0,89,89,0,1,0,0,0,0,0,0.092384,0.123524,0,0.007266,0,89,89,0,1,0,0,0,0,0;
#CHARTNAME:;
#CHARTHASH:4182823520;
#BANNER:;
#CHARTSTYLE:;
#METERF:0.000000;
#LASTSECONDHINT:136.003006;
#CREDIT:ZSL;
#NOTES:
0000
0000
0000
0000
,
0000
0000
0000
0000
,
1000
0000
0001
0000
,
1000
0000
0000
0000
,
0010
0000
1000
0000
,
0010
0000
0000
0000
,
1000
0000
0100
0000
,
1000
0000
0000
0000
,
0001
0000
0010
0000
,
0001
0000
0000
0000
,
0001
0000
1000
0000
,
0001
0000
0000
0000
,
0010
0000
0001
0000
,
0010
0000
0000
0000
,
0001
0000
0100
0000
,
0001
0000
0000
0000
,
1000
0000
0010
0000
,
1000
0000
0000
0000
,
0001
0000
0000
0000
,
0010
0000
0000
0000
,
0100
0000
0000
0000
,
1000
0000
0000
0000
,
0001
0000
0100
0000
,
0010
0000
0000
0000
,
1000
0000
0010
0000
,
0100
0000
0000
0000
,
0001
0000
0010
0000
,
0100
0000
0000
0000
,
0010
0000
0100
0000
,
1000
0000
0000
0000
,
1000
0000
0100
0000
,
0010
0000
0000
0000
,
0001
0000
0010
0000
,
0100
0000
0000
0000
,
1000
0000
0010
0000
,
0100
0000
0000
0000
,
0010
0000
0100
0000
,
0001
0000
0000
0000
,
1000
0000
0000
0000
,
0100
0000
0000
0000
,
0010
0000
0000
0000
,
0100
0000
0000
0000
,
1000
0000
1000
0000
,
1000
0000
0000
0000
,
0001
0000
0001
0000
,
0001
0000
0000
0000
,
0100
0000
0100
0000
,
0100
0000
0000
0000
,
0010
0000
0010
0000
,
0010
0000
0000
0000
,
1000
0000
0000
0000
,
0000
0000
0000
0000
,
0001
0000
0000
0000
,
0000
0000
0000
0000
,
1000
0000
0000
0000
,
0000
0000
0000
0000
,
0100
0000
0010
0000
,
0100
0000
0000
0000
,
1000
0000
0010
0000
,
1000
0000
0000
0000
,
0001
0000
0100
0000
,
0001
0000
0000
0000
,
1000
0000
0100
0000
,
0010
0000
0001
0000
,
1000
0000
0000
0000
,
0001
0000
0000
0000
,
0100
0000
0000
0000
,
0010
0000
0020
0000
,
0030
0000
0000
0000
;

//--------------- dance-single - ----------------
#NOTEDATA:;
#STEPSTYPE:dance-single;
#DESCRIPTION:;
#DIFFICULTY:Easy;
#METER:5;
#RADARVALUES:0.206565,0.247048,0.116258,0.007266,0,199,183,16,1,0,0,0,0,0,0.206565,0.247048,0.116258,0.007266,0,199,183,16,1,0,0,0,0,0;
#CHARTNAME:;
#CHARTHASH:2515829394;
#BANNER:;
#CHARTSTYLE:;
#METERF:0.000000;
#LASTSECONDHINT:136.003006;
#CREDIT:ZSL;
#NOTES:
0000
0000
0000
0000
,
0000
0000
0000
0000
,
1000
0100
0010
0100
,
1000
0001
1000
0000
,
0010
0100
0001
0100
,
0010
1000
0001
0000
,
0010
0100
0100
1000
,
0001
0100
0010
0000
,
0100
0001
1000
0001
,
0010
0100
1000
0000
,
0001
0100
0010
0100
,
0001
1000
0001
0000
,
0010
0100
1000
0100
,
0010
0001
1000
0000
,
0010
0100
0100
0001
,
1000
0100
0010
0000
,
0100
1000
0001
1000
,
0010
0100
0001
0000
,
1001
0000
0000
0000
,
1001
0000
0000
0000
,
1100
0000
0001
0000
,
0101
0000
0000
0000
,
0001
0001
0100
0010
,
0010
1000
0100
0000
,
0010
0100
1000
0001
,
0100
0010
1000
0000
,
0001
0001
1000
1000
,
0010
0010
0100
0000
,
0001
1000
0100
1000
,
0001
0100
0001
0000
,
1000
1000
0100
0010
,
0010
0001
0100
0000
,
0010
0100
0001
1000
,
0100
0010
0001
0000
,
1000
1000
0001
0001
,
0010
0010
0100
0000
,
1000
0001
0100
0001
,
1000
0100
1000
0000
,
1001
0000
0000
0000
,
0101
0000
0000
0000
,
0110
0000
1000
0000
,
1001
0000
0000
0000
,
0001
0010
0100
0000
,
1001
0000
0000
0000
,
0001
0100
0010
0000
,
1001
0000
0000
0000
,
1000
0010
0100
0000
,
1001
0000
0000
0000
,
1000
0100
0010
0000
,
1001
0000
0000
0000
,
0001
0000
0000
0000
,
0100
0000
0000
0000
,
0101
0000
0000
0000
,
1001
0000
0000
0000
,
1000
0000
0000
0000
,
0000
0000
0000
0000
,
0100
1000
0010
0100
,
0001
1000
0100
0000
,
0010
0010
0100
0100
,
1000
1000
0001
0000
,
0100
0001
0010
0100
,
0010
0010
0001
0000
,
0100
0010
0100
0001
,
1000
0001
0010
0100
,
0110
0000
0000
1000
,
1001
0000
0000
0001
,
1000
0100
0010
0100
,
1000
0001
2000
0000
,
3000
0000
0000
0000
;

//--------------- dance-single - ----------------
#NOTEDATA:;
#STEPSTYPE:dance-single;
#DESCRIPTION:;
#DIFFICULTY:Medium;
#METER:10;
#RADARVALUES:0.446347,0.419982,0.101726,0.036331,0.003633,430,416,14,5,0,0,0,0,0,0.446347,0.419982,0.101726,0.036331,0.003633,430,416,14,5,0,0,0,0,0;
#CHARTNAME:;
#CHARTHASH:3347223679;
#BANNER:;
#CHARTSTYLE:;
#METERF:0.000000;
#LASTSECONDHINT:136.003006;
#CREDIT:ZSL;
#NOTES:
0000
0000
0000
0000
,
0000
0000
0000
0000
,
1000
0001
0010
0100
1000
0001
0100
0001
,
1000
0100
0010
0001
1000
0010
0200
0000
,
0310
1000
0001
1000
0100
0010
0001
1000
,
0010
0100
0010
1000
0001
0010
0100
0000
,
0010
0001
1000
1000
0010
0100
0001
1000
,
0100
0010
0001
1000
0001
0001
0100
0000
,
0001
1000
0100
0010
0001
0010
0100
1000
,
0001
0100
0001
1000
0100
0010
0010
0000
,
0001
1000
0010
0100
0001
1000
0100
1000
,
0001
0100
0010
1000
0001
0010
0200
0000
,
0310
0001
1000
0001
0100
0010
1000
0001
,
0010
0100
0010
0001
1000
0010
0100
0000
,
0010
1000
0001
0001
0010
0100
1000
0001
,
0100
0010
1000
0001
1000
1000
0100
0000
,
1000
0001
0100
0010
1000
0010
0100
0001
,
1000
0100
1000
0001
0100
0010
0010
0000
,
0100
0001
1000
0100
0000
0000
0000
0100
,
1000
0001
0100
0001
0000
0000
0000
0001
,
1000
0100
0010
0000
0010
0100
1000
0000
,
1000
0001
0100
0001
0000
0000
0000
0000
,
1000
1000
0100
0010
0001
1000
0010
0100
,
0100
0001
1000
0100
0010
0100
1000
0000
,
0010
0010
1000
0000
1000
1000
0100
0000
,
0100
0100
0010
0000
0010
0010
0001
0000
,
1000
0001
0100
0000
0100
0010
1000
0000
,
1000
0001
0010
0000
0010
0001
0100
0000
,
0001
0010
0100
1000
0001
1000
0010
0100
,
0010
1000
0001
0010
0100
1000
1000
0000
,
0001
0001
0100
0010
1000
0001
0010
0100
,
0100
1000
0001
0100
0010
0100
0001
0000
,
0010
0010
0001
0000
0001
0001
0100
0000
,
0100
0100
0010
0000
0010
0010
1000
0000
,
0001
1000
0100
0000
0100
0010
0001
0000
,
0001
1000
0010
0000
0010
1000
0100
0000
,
1000
0010
0100
0001
1000
0001
0010
0100
,
0010
0001
1000
0010
0100
0001
0001
0000
,
0010
0001
1000
0100
0000
0000
0000
0100
,
1000
0001
0100
0010
0000
0000
0000
0010
,
0100
0001
0010
0000
0010
0100
1000
0000
,
1000
0010
0100
0010
0000
0000
0000
0000
,
1000
0010
0100
0001
0010
0100
1000
0000
,
0010
0100
0001
0000
0101
0000
1001
0000
,
1000
0100
0010
0001
0100
0010
0100
0001
,
0010
0100
0010
0000
0011
0000
1001
0000
,
0001
0010
0100
1000
0010
0100
0001
0000
,
0010
0100
1000
0000
1100
0000
1001
0000
,
0001
0100
0010
1000
0100
0010
0100
1000
,
0010
0100
0010
0000
1010
0000
1001
0000
,
0001
0000
0000
1000
0000
0000
0100
0000
,
0010
0000
0000
0001
0000
0000
1000
0000
,
1001
0000
0000
0101
0000
0000
0101
0000
,
0110
0000
0000
1010
0000
0000
1001
2000
,
3000
0000
0000
0000
,
0000
0000
0000
0000
,
0100
1000
0010
1000
0100
0010
0001
0100
,
0001
0010
0100
1000
0010
1000
0100
0000
,
1000
0001
0100
0001
0010
0001
0100
0010
,
1000
1000
0001
0001
0010
0001
0100
0000
,
0010
1000
0001
0010
0100
1000
0010
0100
,
0010
0010
1000
0001
0010
0100
1000
0000
,
0100
0010
0001
0100
0010
0100
0001
0010
,
0100
1000
0010
0100
0001
0010
0100
0000
,
1000
0001
0100
0010
0000
0000
0100
0001
,
1000
0001
1000
0100
0000
0000
0010
0100
,
1000
0001
1000
0010
0100
0010
1000
0000
,
0001
0000
0010
0000
0100
0000
0100
0000
2000
0000
0000
3000
0000
0000
0002
0000
,
0003
0000
0000
0000
;

//--------------- dance-single - ----------------
#NOTEDATA:;
#STEPSTYPE:dance-single;
#DESCRIPTION:;
#DIFFICULTY:Hard;
#METER:13;
#RADARVALUES:0.638381,0.691735,0.123524,0.435967,0.824705,615,598,17,60,0,0,0,0,0,0.638381,0.691735,0.123524,0.435967,0.824705,615,598,17,60,0,0,0,0,0;
#CHARTNAME:;
#CHARTHASH:2500530313;
#BANNER:;
#CHARTSTYLE:;
#METERF:0.000000;
#LASTSECONDHINT:136.003006;
#CREDIT:ZSL;
#NOTES:
0000
0000
0000
0000
,
0000
0000
0000
0000
0000
0000
0000
0000
0000
0000
0000
1000
0001
0000
1000
0000
,
0010
0000
0000
0000
0100
0000
0000
0000
0010
0000
0000
0000
0000
0000
0000
0000
1000
0000
0000
0000
0010
0000
0000
0000
1000
0000
0000
0000
0000
0000
0000
0000
0001
0000
0000
0000
0010
0000
0000
0000
0001
0000
0000
0000
0000
0000
0000
0000
1000
0000
0000
0000
0200
0300
0000
0000
0000
0000
0000
0000
0200
0300
0000
0000
,
0001
0000
0100
0001
1000
0000
0100
0000
0010
0000
0001
0000
2001
0000
0000
0000
,
3010
0000
0100
0001
0100
0000
0001
1000
0001
0000
1000
0100
1000
0000
0100
0000
,
0010
0000
0000
0000
0000
0000
0000
0000
0001
0000
0000
0000
0200
0300
0000
0000
0000
0000
0000
0000
0200
0300
0000
0000
0000
0000
0000
0000
1000
0000
0000
0000
0010
0000
0000
0000
0000
0000
0000
0000
1000
0000
0000
0000
0001
0000
0000
0000
0010
0000
0000
0000
0000
0000
0000
0000
0000
0000
0000
0000
0000
0000
0000
0000
,
0100
0000
0000
0000
0000
0000
0000
0000
1000
0000
0000
0000
0000
0000
0000
0000
0001
0000
0000
0000
0100
0000
0000
0000
0001
0000
0000
0000
0100
0000
0000
0000
0001
0000
0000
0000
0000
0000
0000
0000
1000
0000
0000
0000
0000
0000
0000
0000
0001
0000
0000
0000
0020
0030
0000
0000
0000
0000
0000
0000
0020
0030
0000
0000
,
1000
0000
0010
0000
0100
0000
0001
0000
0010
0100
0010
0100
0010
0000
0000
0000
,
0100
1000
1010
0010
0100
0001
0011
0010
,
0100
0000
0000
0000
0000
0000
0000
0000
1000
0000
0000
0000
0000
0000
0000
0000
0001
0000
0000
0000
0200
0300
0000
0000
0000
0000
0000
0000
0200
0300
0000
0000
1000
0000
0000
0000
0000
0000
0000
0000
0001
0000
0000
0000
0000
0000
0000
0000
1002
0000
0000
0000
0000
0000
0000
0000
0000
0000
0000
0000
0000
0000
0000
0000
,
0013
0000
0000
0000
0100
0000
0000
0000
0010
0000
0000
0000
0000
0000
0000
0000
0001
0000
0000
0000
0010
0000
0000
0000
0001
0000
0000
0000
0000
0000
0000
0000
1000
0000
0000
0000
0010
0000
0000
0000
1000
0000
0000
0000
0000
0000
0000
0000
0001
0000
0000
0000
0200
0300
0000
0000
0000
0000
0000
0000
0200
0300
0000
0000
,
1000
0000
0100
1000
0001
0000
0100
0000
0010
0000
1000
0000
1002
0000
0000
0000
,
0013
0000
0100
1000
0100
0000
1000
0001
1000
0000
0001
0100
0001
0000
0100
0000
,
0010
0000
0000
0000
0000
0000
0000
0000
1000
0000
0000
0000
0200
0300
0000
0000
0000
0000
0000
0000
0200
0300
0000
0000
0000
0000
0000
0000
0001
0000
0000
0000
0010
0000
0000
0000
0000
0000
0000
0000
0001
0000
0000
0000
1000
0000
0000
0000
0010
0000
0000
0000
0000
0000
0000
0000
0000
0000
0000
0000
0000
0000
0000
0000
,
0100
0000
0000
0000
0000
0000
0000
0000
0001
0000
0000
0000
0000
0000
0000
0000
1000
0000
0000
0000
0100
0000
0000
0000
1000
0000
0000
0000
0100
0000
0000
0000
1000
0000
0000
0000
0000
0000
0000
0000
0001
0000
0000
0000
0000
0000
0000
0000
1000
0000
0000
0000
0020
0030
0000
0000
0000
0000
0000
0000
0020
0030
0000
0000
,
0001
0000
0010
0000
0100
0000
1000
0000
0010
0100
0010
0100
0010
0000
0000
0000
,
0100
0001
0011
0010
0100
1000
1010
0010
,
0100
0000
0000
0000
0000
0000
0000
0000
0001
0000
0000
0000
0000
0000
0000
0000
1000
0000
0000
0000
0200
0300
0000
0000
0000
0000
0000
0000
0200
0300
0000
0000
0001
0000
0000
0000
0000
0000
0000
0000
1000
0000
0000
0000
0000
0000
0000
0000
1001
0000
0000
0000
0000
0000
0000
0000
0000
0000
0000
0000
0000
0000
0000
0000
,
0001
0000
0100
0000
0010
1000
0010
0000
0000
0000
0000
0000
0000
0000
1000
0000
,
0100
0000
0010
0000
0001
1000
0001
0000
0000
0000
0000
0000
0000
0000
0100
0001
,
1000
0000
0100
0000
0010
0000
0100
1000
0100
0000
1000
0000
0001
0000
0100
0000
,
0010
0000
0100
0000
0001
1000
0001
0000
0000
0000
0000
0010
0100
0000
1000
0000
,
0001
0000
0000
0000
0100
0000
0000
0000
0001
0000
0000
0000
0000
0000
0000
0000
0001
0000
0000
0000
1000
0000
0000
0000
0200
0300
0000
0000
0000
0000
0000
0000
0200
0300
0000
0000
0001
0000
0000
0000
1000
0000
0000
0000
0000
0000
0000
0000
0100
0000
0000
0000
0000
0000
0000
0000
0010
0000
0000
0000
0100
0000
0000
0000
,
0010
0000
0010
0001
1000
0000
0001
0000
1000
0010
0100
0000
0101
0000
0000
0000
,
0001
0000
1000
0100
0000
0010
0000
0100
1000
0000
0010
0100
0000
0001
1000
0000
,
0100
0010
0000
0001
1000
0000
0010
0000
0100
0000
0001
0010
0001
0000
0000
0000
,
1000
0000
0000
0000
0000
0000
0000
0000
0001
0000
0000
0000
1000
0000
0000
0000
0010
0000
0000
0000
0000
0000
0000
0000
0200
0300
0000
0000
0000
0000
0000
0000
0200
0300
0000
0000
0000
0000
0000
0000
1000
0000
0000
0000
0001
0000
0000
0000
0010
0000
0000
0000
0000
0000
0000
0000
0200
0300
0000
0000
0000
0000
0000
0000
,
0200
0300
0000
0000
0000
0000
0000
0000
0001
0000
0000
0000
1000
0000
0000
0000
0010
0000
0000
0000
0000
0000
0000
0000
0200
0300
0000
0000
0000
0000
0000
0000
0200
0300
0000
0000
1000
0000
0000
0000
0001
0000
0000
0000
0000
0000
0000
0000
0010
0000
0000
0000
0000
0000
0000
0000
0001
0000
0000
0000
1000
0000
0000
0000
,
0010
0100
0010
0100
0001
0100
0001
0100
0010
0000
1000
0000
0001
0010
0001
0000
,
1000
0100
1000
0100
0010
0100
0010
0100
1000
0000
0001
0000
1001
0000
0000
0000
,
1000
0000
0000
0000
0100
0000
0000
0000
1000
0000
0000
0000
0000
0000
0000
0000
1000
0000
0000
0000
0001
0000
0000
0000
0200
0300
0000
0000
0000
0000
0000
0000
0200
0300
0000
0000
1000
0000
0000
0000
0001
0000
0000
0000
0000
0000
0000
0000
0100
0000
0000
0000
0000
0000
0000
0000
0010
0000
0000
0000
0100
0000
0000
0000
,
0010
0000
0010
1000
0001
0000
1000
0000
0001
0010
0100
0000
1100
0000
0000
0000
,
1000
0000
0001
0100
0000
0010
0000
0100
0001
0000
0010
0100
0000
1000
0001
0000
,
0100
0010
0000
1000
0001
0000
0010
0000
0100
0000
1000
0010
1000
0000
0000
0000
,
0001
0000
0000
0000
0000
0000
0000
0000
1000
0000
0000
0000
0001
0000
0000
0000
0010
0000
0000
0000
0000
0000
0000
0000
0200
0300
0000
0000
0000
0000
0000
0000
0200
0300
0000
0000
0000
0000
0000
0000
0001
0000
0000
0000
1000
0000
0000
0000
0010
0000
0000
0000
0000
0000
0000
0000
0200
0300
0000
0000
0000
0000
0000
0000
,
0200
0300
0000
0000
0000
0000
0000
0000
1000
0000
0000
0000
0001
0000
0000
0000
0010
0000
0000
0000
0000
0000
0000
0000
0200
0300
0000
0000
0000
0000
0000
0000
0200
0300
0000
0000
0001
0000
0000
0000
1000
0000
0000
0000
0000
0000
0000
0000
0010
0000
0000
0000
0000
0000
0000
0000
1000
0000
0000
0000
0001
0000
0000
0000
,
0010
0100
0010
0100
1000
0100
1000
0100
0010
0000
0001
0000
1000
0010
1000
0000
,
0001
0100
0001
0100
0010
0100
0010
0100
0001
0000
1000
0000
1100
0000
0000
0000
,
0100
0000
1000
0000
0010
1000
0010
0000
0000
0000
0000
0000
0000
0000
0100
0000
,
0001
0000
1000
0000
0100
1000
0100
0000
0000
0000
0000
0000
0000
0000
0010
0100
,
1000
0000
0001
0000
0100
0000
0010
0100
0010
0000
1000
0000
0001
0000
0010
0000
,
0100
0000
1000
0000
0001
0100
0001
0000
0000
0000
0000
0000
0000
1000
0100
0000
,
0010
0000
0000
0000
0001
0000
0000
0000
1000
0000
0000
0000
0000
0000
0000
0000
0001
0000
0000
0000
0200
0300
0000
0000
0000
0000
0000
0000
0200
0300
0000
0000
0010
0000
0000
0000
0000
0000
0000
0000
0001
0000
0000
0000
1000
0000
0000
0000
0001
0000
0000
0000
0000
0000
0000
0000
0000
0000
0000
0000
1000
0000
0000
0000
,
0020
0030
0000
0000
0000
0000
0000
0000
0020
0030
0000
0000
0100
0000
0000
0000
0000
0000
0000
0000
0100
0000
0000
0000
0000
0000
0000
0000
0000
0000
0000
0000
1000
0000
0000
0000
0000
0000
0000
0000
1000
0000
0000
0000
0000
0000
0000
0000
1000
0000
0000
0000
0000
0000
0000
0000
0001
0000
0000
0000
0000
0000
0000
0000
,
0100
0000
0000
0000
0000
0000
0000
0000
0001
0000
0000
0000
0000
0000
0000
0000
0100
0000
0000
0000
0020
0030
0000
0000
0000
0000
0000
0000
0020
0030
0000
0000
0001
0000
0000
0000
0000
0000
0000
0000
1000
0000
0000
0000
0100
0000
0000
0000
1000
0000
0000
0000
0000
0000
0000
0000
0001
0000
0000
0000
0000
0000
0000
0000
,
0200
0300
0000
0000
0000
0000
0000
0000
0200
0300
0000
0000
0010
0000
0000
0000
0000
0000
0000
0000
0010
0000
0000
0000
0000
0000
0000
0000
0000
0000
0000
0000
0001
0000
0000
0000
0000
0000
0000
0000
0001
0000
0000
0000
0000
0000
0000
0000
0001
0000
0000
0000
0000
0000
0000
0000
1000
0000
0000
0000
0000
0000
0000
0000
,
0010
0000
0000
0000
1000
0000
0000
0000
0001
0000
0000
0000
0000
0000
0000
0000
1000
0000
0000
0000
0200
0300
0000
0000
0000
0000
0000
0000
0200
0300
0000
0000
0010
0000
0000
0000
0000
0000
0000
0000
1000
0000
0000
0000
0001
0000
0000
0000
1000
0000
0000
0000
0000
0000
0000
0000
0000
0000
0000
0000
0001
0000
0000
0000
,
0020
0030
0000
0000
0000
0000
0000
0000
0020
0030
0000
0000
0100
0000
0000
0000
0000
0000
0000
0000
0100
0000
0000
0000
0000
0000
0000
0000
0000
0000
0000
0000
0001
0000
0000
0000
0000
0000
0000
0000
0001
0000
0000
0000
0000
0000
0000
0000
0001
0000
0000
0000
0000
0000
0000
0000
1000
0000
0000
0000
0000
0000
0000
0000
,
0100
0000
0000
0000
0000
0000
0000
0000
1000
0000
0000
0000
0000
0000
0000
0000
0100
0000
0000
0000
0020
0030
0000
0000
0000
0000
0000
0000
0020
0030
0000
0000
1000
0000
0000
0000
0000
0000
0000
0000
0001
0000
0000
0000
0100
0000
0000
0000
0001
0000
0000
0000
0000
0000
0000
0000
1000
0000
0000
0000
0000
0000
0000
0000
,
0200
0300
0000
0000
0000
0000
0000
0000
0200
0300
0000
0000
0010
0000
0000
0000
0000
0000
0000
0000
0010
0000
0000
0000
0000
0000
0000
0000
0000
0000
0000
0000
1000
0000
0000
0000
0000
0000
0000
0000
1000
0000
0000
0000
0000
0000
0000
0000
1000
0000
0000
0000
0000
0000
0000
0000
0002
0000
0000
0000
0000
0000
0000
0000
,
0013
0000
0000
0001
0000
0000
1000
0000
0000
0001
0000
0000
0100
0000
0100
0000
,
0010
0000
0000
0010
0000
0000
1000
0000
0000
0001
0000
0000
0010
0000
0100
0000
,
1100
0000
0000
1000
0000
0000
0001
0000
0000
0100
0000
0000
0001
0000
0001
0000
,
0011
0000
0000
0010
0000
0000
0100
0000
0000
1000
0000
0000
1001
0000
0002
0000
,
0003
0000
0000
0000
,
0000
0000
0000
0000
0000
0000
0000
0000
0000
0000
0000
0100
0010
0000
1000
0000
,
0100
0000
0010
0100
1000
0000
0001
0000
0100
0000
0010
0100
0001
0000
1000
0000
,
0100
0000
0010
0001
1000
0000
0010
0000
0100
0000
0010
1000
0100
0000
0000
0000
,
1000
0000
0000
0000
0200
0300
0000
0000
0000
0000
0000
0000
0200
0300
0000
0000
0001
0000
0000
0000
0020
0030
0000
0000
0000
0000
0000
0000
0020
0030
0000
0000
1000
0000
0000
0000
0001
0000
0000
0000
0000
0000
0000
0000
1000
0000
0000
0000
0001
0000
0000
0000
0000
0000
0000
0000
0010
0000
0000
0000
0000
0000
0000
0000
,
0100
1000
0100
1000
0001
0000
0100
0000
0010
1000
0010
0100
0001
0000
1000
0000
,
0100
0000
0010
0001
1000
0000
0010
0000
0100
0000
0001
0010
0100
0000
1000
0000
,
0200
0300
0000
0000
0000
0000
0000
0000
0200
0300
0000
0000
0001
0000
0000
0000
1000
0000
0000
0000
0000
0000
0000
0000
0010
0000
0000
0000
1000
0000
0000
0000
0001
0000
0000
0000
0000
0000
0000
0000
0010
0000
0000
0000
0000
0000
0000
0000
0110
0000
0000
0000
0000
0000
0000
0000
0000
0000
0000
0000
0000
0000
0000
0000
,
0100
0000
1000
0000
0001
1000
0010
0100
0001
0000
1000
0000
0001
0000
0010
0000
,
0100
0000
0010
0001
0100
0010
1000
0001
0010
0000
0100
0000
1001
0000
0000
0000
,
1000
0000
0001
0000
1000
0100
1000
0000
0000
0000
0000
0000
0100
0000
1000
0000
,
0010
0000
0100
0000
0001
1000
0001
0000
0000
0000
0000
0000
0010
0000
0001
0000
,
0100
0000
0010
1000
0010
0000
1000
0000
0001
0000
0010
0000
0100
1000
0100
0000
,
1000
0001
1000
0000
0010
0000
0100
0000
0001
0000
0000
0001
0000
0000
2000
0000
,
3000
0000
0000
0000
;

//--------------- dance-single - ----------------
#NOTEDATA:;
#STEPSTYPE:dance-single;
#DESCRIPTION:;
#DIFFICULTY:Challenge;
#METER:16;
#RADARVALUES:0.856364,0.988193,0.101726,0.101726,1.362398,825,811,14,14,0,0,0,0,0,0.856364,0.988193,0.101726,0.101726,1.362398,825,811,14,14,0,0,0,0,0;
#CHARTNAME:;
#CHARTHASH:3484369173;
#BANNER:;
#CHARTSTYLE:;
#METERF:0.000000;
#LASTSECONDHINT:136.003006;
#CREDIT:ZSL;
#NOTES:
0000
0000
0000
0000
,
0000
0000
0000
0000
0000
0000
0000
0000
0000
0000
0000
1000
0001
0000
1000
0000
,
0001
0100
0010
1000
0100
0010
0100
1000
0001
0100
0010
1000
0001
0010
0000
0010
,
1000
0000
0010
0100
1000
0001
0100
0001
1000
0000
0010
0000
0002
0000
0000
0000
,
0013
0100
0001
1000
0100
0010
0100
1000
0010
0100
0010
1000
0100
0010
0100
1000
,
0001
0010
0100
0001
0000
0001
0100
1000
0001
0100
0010
1000
0100
0000
0000
0000
,
1000
0000
0010
0000
0001
0010
0001
0010
0100
0001
0100
0010
1000
0001
0000
0001
,
0010
0000
0100
1000
0001
1000
0100
0000
0001
0100
0001
0100
1000
0000
0000
0000
,
0100
1000
0001
0000
0100
0000
0010
1000
0100
0000
0010
0000
0001
0000
1000
0010
,
0100
0000
0010
0000
1000
0100
0000
0100
0010
0000
0001
0000
0101
0000
0000
0000
,
1000
0100
0010
0001
0100
0010
0100
0001
1000
0100
0010
0001
1000
0010
0000
0010
,
0001
0000
0010
0100
0001
1000
0100
1000
0001
0000
0010
0000
2000
0000
0000
0000
,
3010
0100
1000
0001
0100
0010
0100
0001
0010
0100
0010
0001
0100
0010
0100
0001
,
1000
0010
0100
1000
0000
1000
0100
0001
1000
0100
0010
0001
0100
0000
0000
0000
,
0001
0000
0010
0000
1000
0010
1000
0010
0100
1000
0100
0010
0001
1000
0000
1000
,
0010
0000
0100
0001
1000
0001
0100
0000
1000
0100
1000
0100
0001
0000
0000
0000
,
0100
0001
1000
0000
0100
0000
0010
0001
0100
0000
0010
0000
1000
0000
0001
0010
,
0100
0000
0010
0000
0001
0100
0000
0100
0010
0000
1000
0000
1100
0000
0000
0000
,
0001
1000
0001
1000
0100
0010
0002
0000
0003
0000
0000
0000
0000
0000
1000
0010
,
0100
0010
0100
0000
0001
1000
0200
0000
0300
0000
0000
0000
0000
0000
0010
0001
,
1000
0001
0100
0010
1000
0000
0001
0010
0100
0010
0100
1000
0001
0100
0010
1000
,
0100
1000
0001
0100
0010
0100
0002
0000
0003
0000
0000
1000
0001
0000
0010
0000
,
0001
0100
1000
0100
0001
0100
1000
0100
0001
1000
0100
0000
0010
0001
1000
0010
,
0001
0010
1000
0010
0001
0010
0100
0001
0010
0001
1000
0100
0001
0100
0010
0000
,
0001
1000
0010
1000
0001
0010
0000
0010
0001
1000
0010
0001
0010
0100
1000
0100
,
0001
1000
0000
1000
0100
0010
0001
1000
0010
0100
0001
1000
0000
0001
0000
0010
,
0100
0000
0100
0010
1000
0000
1000
0010
0100
0000
0100
1000
0001
0000
0001
0100
,
1000
0000
0000
0000
0000
0000
1000
0000
0000
0100
0000
0000
0001
0000
0000
0000
0000
0000
0001
0000
0000
1000
0000
0000
0100
0000
0000
0010
0000
0000
0001
0000
0000
0000
0000
0000
1000
0000
0000
0000
0000
0000
0001
0000
1000
0000
0001
0000
,
0100
0010
1000
0010
0100
0001
1000
0001
1000
0100
0010
0001
1000
0000
0000
0001
0000
0000
0100
0010
1000
0001
1000
0000
,
0100
0010
0100
1000
0001
1000
0100
0010
0001
1000
0001
1000
0010
0100
0001
1000
0000
0000
0010
0000
0000
0000
0000
0000
,
1000
0100
0001
0100
1000
0100
0001
0100
1000
0001
0100
0000
0010
1000
0001
0010
,
1000
0010
0001
0010
1000
0010
0100
1000
0010
1000
0001
0100
1000
0100
0010
0000
,
1000
0001
0010
0001
1000
0010
0000
0010
1000
0001
0010
1000
0010
0100
0001
0100
,
1000
0001
0000
0001
0100
0010
1000
0001
0010
0100
1000
0001
0000
1000
0000
0010
,
0100
0000
0100
0010
0001
0000
0001
0010
0100
0000
0100
0001
1000
0000
1000
0100
,
0001
0000
0000
0000
0000
0000
0001
0000
0000
0100
0000
0000
1000
0000
0000
0000
0000
0000
1000
0000
0000
0001
0000
0000
0100
0000
0000
0010
0000
0000
1000
0000
0000
0000
0000
0000
0001
0000
0000
0000
0000
0000
1000
0000
0001
0000
1000
0000
,
0100
0010
0001
0010
0100
1000
0001
1000
0001
0100
0010
1000
0001
0000
0000
1000
0000
0000
0100
0010
0001
1000
0001
0000
,
0100
0010
0100
0001
1000
0001
0100
0010
1000
0001
1000
0001
0010
0100
1000
0001
0000
0000
0010
0000
0000
0000
0000
0000
,
0100
0000
1000
0001
0100
0001
0200
0000
0300
0000
0000
0000
0000
0001
0100
0001
,
0010
0100
1000
0000
0001
1000
0200
0000
0300
0000
0000
0000
0000
0000
1000
0001
,
0100
0010
1000
0001
0010
0000
0001
1000
0001
1000
0100
0010
0100
1000
0010
1000
,
0100
0010
0001
1000
0010
0100
0020
0000
1030
0000
0000
0000
0001
0100
0010
1000
,
0100
1000
0001
0100
0001
0010
0100
0001
1000
0010
0001
1000
0100
0000
0000
0001
,
1000
0010
0001
0100
0000
0100
0000
0000
0001
0000
0001
0000
0001
1000
0010
1000
,
0100
0010
0100
1000
0001
0200
0000
1300
0001
0010
0100
0010
1000
0001
0010
1000
,
0001
1000
0010
0001
0000
0001
0000
0000
1000
0000
1000
0000
1000
0100
0010
0001
,
0100
0001
1000
0100
1000
0010
0100
1000
0001
0010
1000
0001
0100
0000
0000
1000
,
0001
0010
1000
0100
0000
0100
0000
0000
1000
0000
1000
0000
1000
0001
0010
0001
,
0100
0010
0100
0001
1000
0200
0000
0301
1000
0010
0100
0010
0001
1000
0010
0001
,
1000
0001
0010
1000
0000
1000
0000
0000
0001
0000
0001
0000
0001
0000
0020
0000
,
0130
0000
0000
1000
0000
0000
0001
0000
0000
1000
0000
0000
0001
0000
0001
0000
,
0100
0000
0000
0100
0000
0000
0010
0000
0000
1000
0000
0000
0001
0000
1000
0000
,
1100
0000
0000
1001
0000
0000
0011
0000
0000
1001
0000
0000
1001
0000
1001
0000
,
0101
0000
0000
1010
0000
0000
1001
0000
0000
0011
0000
0000
0110
0000
2002
0000
,
3003
0000
0000
0000
,
0000
0000
0000
0000
0000
0000
0000
0000
0000
0000
0000
1000
0100
0000
1000
0000
,
0001
0100
0010
0100
0001
1000
0100
0010
1000
0010
0100
1000
0001
0100
0010
0100
,
1000
0100
0010
0001
0010
1000
0001
0010
0100
1000
0001
0010
1000
0000
0000
0000
,
0010
0001
0000
0001
0100
0010
0000
0010
0001
1000
0000
1000
0100
0001
1000
0100
,
0001
0100
0001
0100
1000
0100
1000
0100
0010
0001
1000
0010
0100
0000
0010
0000
,
1000
0001
0100
0001
1000
0100
0010
0001
0100
0010
1000
0001
0010
0001
0100
1000
,
0001
1000
0100
0001
1000
0000
0001
1000
0100
0010
0001
1000
0010
0100
0010
0000
,
1000
0001
0000
0010
0000
0001
0100
0001
1000
0100
0010
0001
1000
0000
0001
0100
0010
0000
1000
0000
0001
0010
0000
0100
,
1000
0000
0001
1000
0010
0100
0001
0010
0001
1000
0100
1000
0010
1000
0000
0001
0000
0000
0010
0000
0000
0000
0000
0000
,
0100
0010
0001
0010
0001
1000
0010
0000
0000
0000
0000
0000
0100
0010
1000
0010
,
0100
0001
1000
0001
0010
0100
1000
0000
0000
0000
0000
0000
0001
1000
0010
1000
,
0100
0010
0001
1000
0010
0100
0010
1000
0001
0010
0001
1000
0010
0100
0001
0000
,
1000
0001
0010
0000
0010
0100
1000
0000
0001
0000
0000
0001
0000
0000
0200
0000
,
0300
0000
0000
0000
;
