#VERSION:0.83;
#TITLE:KILLSWITCH;
#SUBTITLE:;
#ARTIST:mekaloton feat. 重音テト;
#TITLETRANSLIT:;
#SUBTITLETRANSLIT:;
#ARTISTTRANSLIT:mekaloton feat. Kasane Teto;
#GENRE:;
#CREDIT:;
#MUSIC:KILLSWITCH.ogg;
#BANNER:KILLSWITCH.png;
#BACKGROUND:KILLSWITCH-bg.png;
#CDTITLE:;
#SAMPLESTART:44.300;
#SAMPLELENGTH:15.000;
#SELECTABLE:YES;
#OFFSET:0.000;
#BPMS:0.000=130.000;
#STOPS:;
#SPEEDS:0.000=1.000=0.000=0;
#SCROLLS:0.000=1.000;
#TICKCOUNTS:0.000=4;
#TIMESIGNATURES:0.000=4=4;
#LABELS:0.000=Song Start;
#COMBOS:0.000=1;
#ORIGIN:;
#TAGS:;
#PREVIEWVID:;
#JACKET:KILLSWITCH-jacket.png;
#CDIMAGE:;
#DISCIMAGE:;
#BGCHANGES:;
#FGCHANGES:;

//--------------- dance-single - ----------------
#NOTEDATA:;
#STEPSTYPE:dance-single;
#DESCRIPTION:;
#DIFFICULTY:Beginner;
#METER:2;
#RADARVALUES:0.106018,0.13451,0,0.007421,0,100,100,0,1,0,0,0,0,0,0.106018,0.13451,0,0.007421,0,100,100,0,1,0,0,0,0,0;
#CHARTNAME:;
#CHARTHASH:3631360011;
#BANNER:;
#CHARTSTYLE:;
#METERF:0.000000;
#LASTSECONDHINT:133.846146;
#CREDIT:ZSL;
#NOTES:
0000
0000
0000
0000
,
0000
0000
0000
0000
,
0000
0000
0000
0000
,
0000
0000
0000
0000
,
1000
0000
0000
0000
,
0001
0000
0000
0000
,
0010
0000
0000
0000
,
0001
0000
0000
0000
,
1000
0000
0100
0000
,
1000
0000
0000
0000
,
0100
0000
0010
0000
,
0100
0000
0000
0000
,
0010
0000
0001
0000
,
0010
0000
0000
0000
,
0001
0000
1000
0000
,
0001
0000
0000
0000
,
0100
0000
0010
0000
,
1000
0000
0000
0000
,
0010
0000
1000
0000
,
0001
0000
0000
0000
,
0010
0000
0100
0000
,
0010
0000
0000
0000
,
0100
0000
1000
0000
,
0100
0000
0000
0000
,
1000
0000
0001
0000
,
0100
0000
0010
0000
,
1000
0000
0010
0000
,
0100
0000
0000
0000
,
0010
0000
1000
0000
,
0001
0000
1000
0000
,
0100
0000
1000
0000
,
0001
0000
0100
0000
,
0010
0000
0000
0000
,
0000
0000
0000
0000
,
1000
0000
0000
0000
,
0000
0000
0000
0000
,
0001
0000
0000
0000
,
0000
0000
0000
0000
,
1000
0000
0000
0000
,
0000
0000
0000
0000
,
0100
0000
0010
0000
,
0100
0000
0000
0000
,
1000
0000
0001
0000
,
1000
0000
0000
0000
,
0010
0000
1000
0000
,
0010
0000
0000
0000
,
0100
0000
0001
0000
,
0100
0000
0000
0000
,
0001
0000
1000
0000
,
0100
0000
0000
0000
,
1000
0000
0010
0000
,
0100
0000
0000
0000
,
0001
0000
0010
0000
,
0001
0000
0000
0000
,
1000
0000
0100
0000
,
1000
0000
0000
0000
,
0001
0000
1000
0000
,
0100
0000
0010
0000
,
0001
0000
0010
0000
,
0100
0000
0000
0000
,
0010
0000
0001
0000
,
1000
0000
0001
0000
,
0100
0000
0001
0000
,
1000
0000
0100
0000
,
0000
0000
0000
0000
,
0010
0000
0100
0000
,
1000
0000
0010
0000
,
0100
0000
0000
0000
,
0001
0000
1000
0000
,
0010
0000
1000
0000
,
0100
0000
0010
0000
,
0001
0000
0100
0200
,
0000
0000
0300
0000
;

//--------------- dance-single - ----------------
#NOTEDATA:;
#STEPSTYPE:dance-single;
#DESCRIPTION:;
#DIFFICULTY:Easy;
#METER:6;
#RADARVALUES:0.242781,0.269021,0.05937,0.014843,0,229,221,8,2,0,0,0,0,0,0.242781,0.269021,0.05937,0.014843,0,229,221,8,2,0,0,0,0,0;
#CHARTNAME:;
#CHARTHASH:3110611708;
#BANNER:;
#CHARTSTYLE:;
#METERF:0.000000;
#LASTSECONDHINT:133.846146;
#CREDIT:ZSL;
#NOTES:
0000
0000
0000
0000
,
0000
0000
0000
0000
,
0000
0000
0000
0000
,
0000
0000
0000
0000
,
1000
0010
1000
0000
,
0001
0100
0001
0000
,
1000
0100
1000
0000
,
0001
0010
0001
0000
,
1000
0010
0100
0010
,
1000
0001
1000
0000
,
0001
0010
0100
0010
,
0001
1000
0001
0000
,
0100
0010
1000
0010
,
0100
0001
1000
0000
,
0100
0010
0001
0010
,
0100
1000
0001
0000
,
1000
0010
0100
0010
,
0001
0010
0100
0010
,
1000
0001
0010
0100
,
0001
0100
0010
0001
,
1000
0000
0010
0100
,
0001
0000
0010
0100
,
1000
0000
0001
1000
,
0000
0010
0100
0000
,
0010
1000
0100
0010
,
1000
0010
0001
1000
,
0010
0100
0010
0000
,
0110
0100
0001
0010
,
0100
0001
0100
0010
,
0001
1000
0010
0100
,
0010
1000
0000
1100
,
0100
0010
0001
0100
,
0001
0000
0000
1000
,
0000
0010
0000
0100
,
0000
0000
0000
0010
,
0000
1000
0000
0001
,
0000
0000
0000
0010
,
0000
0100
0000
1000
,
0000
0000
0000
0100
,
0000
0000
0000
0010
,
0001
1000
0100
1000
,
0010
0100
0001
0000
,
1000
0001
0100
0001
,
0010
0100
1000
0000
,
0100
0010
0001
0100
,
0010
0100
0001
0000
,
0100
0010
1000
0100
,
0010
0100
1000
0000
,
0001
0100
0010
0001
,
0010
0100
0001
1000
,
0001
0010
0100
0001
,
0100
0010
0001
0100
,
0010
0000
0100
0001
,
1000
0000
0100
1000
,
0010
0000
1000
0001
,
0000
0010
0100
0000
,
0010
0001
0100
0010
,
0001
0010
1000
0001
,
0010
0100
0010
0000
,
0110
0100
1000
0010
,
0100
1000
0100
0010
,
1000
0001
0010
0100
,
0010
0001
0000
0101
,
0100
0010
1000
0100
,
0000
0000
0010
0000
,
1001
0001
0010
0100
,
1000
0010
0100
0000
,
1010
0010
1000
0001
,
0010
1000
0010
0001
,
0100
0010
1000
0100
,
0010
0001
0000
1001
,
1000
0000
0010
0000
0100
0000
0220
0030
,
0000
0000
0300
0000
;

//--------------- dance-single - ----------------
#NOTEDATA:;
#STEPSTYPE:dance-single;
#DESCRIPTION:;
#DIFFICULTY:Medium;
#METER:11;
#RADARVALUES:0.500405,0.484237,0.044528,0.378484,0.23748,472,466,6,51,0,0,0,0,0,0.500405,0.484237,0.044528,0.378484,0.23748,472,466,6,51,0,0,0,0,0;
#CHARTNAME:;
#CHARTHASH:2676218319;
#BANNER:;
#CHARTSTYLE:;
#METERF:0.000000;
#LASTSECONDHINT:133.846146;
#CREDIT:ZSL;
#NOTES:
0000
0000
0000
0000
,
0000
0000
0000
0000
,
0000
0000
0000
0000
,
0000
0000
0000
0000
,
1000
0000
0000
0100
0000
0000
0010
0000
0000
0000
0100
0000
1000
0000
0001
0000
,
0100
0000
0000
0010
0000
0000
1000
0000
0000
0000
0010
0000
0200
0000
0000
0000
,
0301
0000
0000
0100
0000
0000
0010
0000
0000
0000
0100
0000
0001
0000
1000
0000
,
0100
0000
0000
0010
0000
0000
0001
0000
0000
0000
0010
0000
0200
0000
0000
0000
,
0310
0001
1000
0001
0100
0001
1000
0010
,
1000
0001
0010
0001
1000
0010
0100
0010
,
0000
1000
0001
0010
0100
0010
0001
1000
,
0010
0100
0010
1000
0001
0010
0100
0010
,
0000
0100
1000
0001
0100
0010
0100
0000
,
0001
1000
0100
0010
0100
1000
0001
0000
,
0100
0010
1000
0001
0100
0001
0010
0000
,
0100
0010
0001
1000
0100
1000
0010
0000
,
1000
0010
1000
0000
0001
0000
1000
0000
0100
0000
0010
0000
0002
0000
0000
0000
,
0013
0001
0010
0000
0200
0000
0000
0000
1300
0000
0001
0000
0200
0000
0000
0000
,
0310
0100
0010
0000
1000
0000
0001
0000
0010
0000
0100
0000
2000
0000
0000
0000
,
3100
1000
0100
0000
0010
0000
0001
0000
1000
0000
0010
0000
0200
0000
0000
0000
,
0310
0100
0001
1000
0100
0010
0001
0010
,
0100
1000
0001
0100
0010
0100
0001
0000
,
1000
0001
0010
0001
1000
0010
0100
0001
,
0000
1000
0010
1000
0100
0010
0002
0000
,
0103
0000
0010
0200
0000
0000
0010
0000
0301
0000
1000
0000
0100
0000
0010
0000
,
0110
0000
0000
0100
0000
0000
1000
0000
0010
1000
0000
0000
0010
0000
0100
0000
,
0001
0000
1000
0001
0000
0000
0010
0000
0200
0000
0000
0010
0000
1300
0000
0000
,
1100
0000
0000
0001
0000
0000
0200
0000
0010
0000
0302
0000
1000
0000
0013
0000
,
0200
0000
0000
0310
0100
0000
0010
0001
0000
0000
2000
0000
0010
0000
3001
0000
,
1000
0000
0001
0100
0000
0000
0001
0000
0010
0000
0100
0000
0010
0000
0001
0000
,
0200
0000
0000
0310
1000
0000
0010
0100
0000
0100
0000
0000
0001
0000
1000
0000
,
0100
0000
0010
0000
0002
0000
0000
1000
0000
0103
0001
0000
2000
0000
0002
0000
,
3000
0000
0000
0003
0000
0000
0000
0000
0000
0000
0000
0000
0010
0000
0200
0000
,
0000
0000
0310
0002
0000
0000
1003
0020
,
0000
0000
0000
0000
0000
0000
0130
0020
,
0000
0000
0130
0002
0000
0000
1003
0200
,
0000
0000
0000
0000
0000
0000
0310
0002
,
0000
0000
0013
0200
0000
0000
1300
0020
,
0000
0000
0000
0000
0000
0130
0001
0200
,
0000
0000
0000
0000
0000
0302
0000
1003
,
0010
1000
0100
0010
0100
1000
0001
0000
,
0010
0001
0100
0010
0100
0001
1000
0000
,
0001
0100
0010
1000
0100
1000
0010
0000
,
1000
0100
0010
0001
0100
0001
0010
0000
,
0100
0010
0001
1000
0010
1000
0100
0010
,
0001
0100
0001
1000
0100
1000
0010
0100
,
0001
0010
0100
1000
0010
1000
0100
0010
,
0001
0100
0010
1000
0100
1000
0010
0000
,
0100
0010
0100
0000
0001
0000
1000
0000
0100
0000
0010
0000
0002
0000
0000
0000
,
1003
0001
1000
0000
0010
0000
0100
0000
0001
0000
0010
0000
0200
0000
0000
0000
,
0310
0001
0010
0000
0100
0000
1000
0000
0010
0000
0100
0000
0002
0000
0000
0000
,
1003
0010
1000
0000
0001
0000
0010
0000
0100
0000
1000
0000
0020
0000
0000
0000
,
0130
0001
1000
0100
0010
0001
1000
0010
,
0100
0001
1000
0100
0010
0001
0100
0000
,
0001
1000
0100
0010
0100
1000
0010
0100
,
0000
0001
0010
0001
0100
0010
2000
0000
,
3100
0000
0010
0200
0000
0000
0010
0000
1300
0000
0001
0000
0100
0000
0010
0000
,
0110
0000
0000
0100
0000
0000
0001
0000
0010
0001
0000
0000
0010
0000
0100
0000
,
1000
0000
0001
1000
0000
0000
0010
0000
0200
0000
0000
0010
0000
0301
0000
0000
,
0101
0000
0000
1000
0000
0000
0200
0000
0010
0000
2300
0000
0001
0000
3010
0000
,
0200
0000
0000
0310
0100
0000
0010
1000
0000
0000
0002
0000
0010
0000
1003
0000
,
0001
0000
1000
0100
0000
0000
1000
0000
0010
0100
0000
0000
0010
0000
1000
0000
,
0200
0000
0000
0310
0001
0000
0010
0100
0000
0100
0000
0000
1000
0000
0001
0000
,
0100
0000
0010
0000
2000
0000
0000
0001
0000
3100
1000
0000
0001
0000
0000
0100
,
0000
0000
0010
0000
0000
0100
0000
0000
0001
0000
0000
0100
0010
0000
0010
0000
,
0110
0000
0000
1000
0000
0000
0001
0000
0010
0100
0000
0000
1000
0000
0001
0000
,
0100
0000
0010
1000
0000
0000
0100
0000
0010
0200
0000
1000
0000
0310
0000
0000
,
0011
0000
0000
0001
0000
0000
0200
0000
0010
0000
0302
0000
0010
0000
1003
0000
,
0002
0000
0000
1003
0100
0000
0010
0001
0000
0000
2000
0000
0010
0000
3100
0000
,
1000
0000
0001
0100
0000
0000
0001
0000
0010
0100
0000
0000
0010
0000
0001
0000
,
0200
0000
0000
0310
1000
0000
0002
1000
0000
0013
0000
0000
0001
0000
1000
0000
,
0010
0000
0100
0000
0001
2000
0000
0100
0000
3010
1000
0000
0001
0000
0020
0000
,
0000
0000
0030
0000
;

//--------------- dance-single - ----------------
#NOTEDATA:;
#STEPSTYPE:dance-single;
#DESCRIPTION:;
#DIFFICULTY:Hard;
#METER:14;
#RADARVALUES:0.673214,0.64565,0.11874,0.274587,0.64936,635,619,16,37,0,0,0,0,0,0.673214,0.64565,0.11874,0.274587,0.64936,635,619,16,37,0,0,0,0,0;
#CHARTNAME:;
#CHARTHASH:2917180680;
#BANNER:;
#CHARTSTYLE:;
#METERF:0.000000;
#LASTSECONDHINT:133.846146;
#CREDIT:ZSL;
#NOTES:
0000
0000
0000
0000
,
0000
0000
0000
0000
,
0000
0000
0000
0000
,
0000
0000
0000
0000
,
1000
0000
0000
0001
1000
0000
0010
0000
0100
0001
0100
0000
1000
0000
0100
0000
,
0001
0000
0000
1000
0001
0000
0010
0000
0100
0010
0100
0000
2000
0000
0000
0000
,
3001
0000
0000
0100
0001
0000
0010
0000
0100
1000
0100
0000
0001
0000
0100
0000
,
1000
0000
0000
0100
1000
0000
0010
0000
0100
0010
0100
0000
0002
0000
0000
0000
,
0013
0000
0100
0000
1000
0100
1000
0000
0001
0100
0001
0000
0100
0000
0010
0000
,
1000
0000
0001
0010
0001
0000
0010
0001
1000
0001
0100
0010
1000
0000
0001
0000
,
0020
0030
0100
1000
0100
0000
1000
0000
0010
0000
1000
0001
0010
0000
0001
0000
,
1000
0000
0010
0100
0010
0000
0100
0001
1000
0100
1000
0100
0010
0000
0001
0000
,
0200
0300
0010
0000
1000
0000
0001
0000
1000
0010
0100
0000
0001
0000
0000
0000
,
1000
0001
1000
0000
0001
0000
1000
0001
0010
0100
1000
0000
0100
0000
0000
0000
,
0010
0001
0010
0000
0001
0000
1000
0001
0100
0010
0100
0000
0001
0000
0000
0000
,
0100
0001
0100
0000
0010
0000
1000
0001
0010
0100
0010
0000
0100
0000
0000
0000
,
0001
0100
0010
0000
0010
0000
0001
0000
1000
0001
1000
0000
0010
0000
0100
0000
,
1000
0100
0010
0000
0010
0000
1000
0000
0001
0010
0001
0000
1000
0000
0010
0000
,
0001
0010
0100
0000
0100
0000
0001
1000
0100
0000
0010
0000
0001
0000
0010
0000
,
1000
0010
0100
0000
0100
0000
1000
0001
0100
0000
0010
0000
1000
0000
0100
0000
,
0010
0000
0001
1000
0001
0000
1000
0010
0100
0000
0001
0000
0010
0000
0001
0000
,
1000
0100
0010
0100
1000
0000
0001
1000
0010
0000
0100
0010
1000
0000
0001
0000
,
0020
0030
0001
0010
0100
0000
1000
0000
0010
0000
1000
0010
0100
0000
0001
0000
,
0000
0000
1000
0000
0010
0000
1000
0000
0100
0010
0100
0000
1000
0000
0010
0000
,
0100
0000
0001
0100
0010
0000
1000
0000
0001
0010
0100
0010
1000
0000
0010
0000
,
0110
0000
0000
0100
1000
0000
0010
0000
0100
0001
0100
0000
0001
0000
1000
0000
,
0100
0010
0100
1000
0010
0000
0100
0000
0002
0100
0000
1000
0000
0013
0000
0000
,
1100
0000
0000
0001
0100
0000
0010
0000
0100
1000
0100
0000
0001
0000
1000
0000
,
0200
0000
0000
0310
0001
0000
1000
0100
0000
1000
0010
0000
0001
0000
0010
0000
,
1000
0000
0010
0100
0001
0000
1000
0000
0100
0010
0001
0000
0100
0000
0010
0000
,
0200
0000
0000
0310
0001
0010
0200
0001
0000
0310
0000
0000
1010
0000
1000
0000
,
0001
0100
0001
1000
0200
0010
0000
0301
0100
0010
0001
0000
1000
0000
0020
0000
,
0100
0000
0000
0030
0000
0000
0000
0000
0000
0000
0000
0000
0101
0000
0002
0000
,
0000
0000
1003
0200
0000
0300
0110
0020
,
0000
0000
0000
0000
0000
0030
0011
0002
,
0000
0000
1003
0020
0000
0030
0110
0200
,
0000
0000
0000
0000
0000
0300
1001
0002
,
0000
0000
0013
0200
0000
0300
1001
2000
,
0000
0000
0000
0000
0000
3010
0101
2000
,
0000
0000
0000
0000
0000
3001
0110
1000
,
0001
0010
0100
0000
1000
0000
0001
1000
0010
1000
0001
0000
0100
0000
0000
0000
,
0010
1000
0001
0000
1000
0000
0100
0000
0010
0001
1000
0000
0001
0000
0000
0000
,
0100
0010
1000
0000
0100
0000
0010
0001
1000
0000
0001
0000
0100
0000
0000
0000
,
0010
0100
0001
0000
0010
0000
0100
1000
0001
0100
0010
0000
1000
0000
0000
0000
,
0100
0010
0001
0000
1000
0000
0100
1000
0010
0100
0001
0000
0100
0000
0010
0000
,
0100
0001
1000
0000
0100
0000
1000
0010
0100
0000
0001
0010
0100
0000
1000
0000
,
0100
0010
0001
0000
0100
0010
1000
0000
0001
0000
0010
0001
0100
0000
0010
0000
,
0100
0001
1000
0100
0010
0000
0100
1000
0001
0000
0100
0001
1000
0000
0010
0000
,
0001
0010
0100
0000
0100
0000
0001
0000
0010
0100
1000
0000
0200
0000
0000
0000
,
0301
0100
0010
0000
0010
0000
0001
1000
0010
0100
0001
0000
0020
0000
0000
0000
,
1030
0010
0100
0000
0100
0000
1000
0000
0010
0100
0010
0000
0002
0000
0000
0000
,
1003
0100
0010
0000
0010
0000
1000
0001
0010
0100
1000
0001
0200
0000
0000
0000
,
0310
0000
0100
0001
1000
0000
0001
1000
0100
0000
1000
0000
0010
0000
0100
0000
,
0001
1000
0100
0010
0001
0000
1000
0001
0100
0000
0010
1000
0100
0000
1000
0000
,
0020
0030
0100
0001
1000
0000
0001
0000
0010
0000
0100
1000
0001
0000
0100
0000
,
0000
0000
0001
0000
0010
0000
0001
0000
0100
0010
1000
0000
0001
0000
0010
0000
,
0100
0000
1000
0100
0010
0000
0001
0000
1000
0010
0100
0010
0001
0000
0010
0000
,
0110
0000
0000
0100
0001
0000
0010
0000
0100
1000
0100
0000
1000
0000
0001
0000
,
0100
0010
0100
0001
0010
0000
0100
0000
2000
0100
0000
0001
0000
3010
0000
0000
,
0101
0000
0000
1000
0100
0000
0010
0000
0100
0001
0100
0000
1000
0000
0001
0000
,
0200
0000
0000
0310
1000
0000
0001
0100
0000
0001
0010
0000
1000
0000
0010
0000
,
0001
0000
0010
0100
1000
0000
0001
0000
0100
0010
1000
0000
0100
0000
0010
0000
,
0200
0000
0000
0310
1000
0010
0200
1000
0000
0310
0000
0000
0011
0000
0001
0000
,
1000
0100
1000
0001
0200
0010
0000
1300
0100
0010
1000
0000
0001
0000
0010
0100
,
0000
0000
0010
0000
0000
0001
0000
0000
1000
0000
0000
0010
0100
0001
0100
0001
,
0010
0000
0100
1000
0001
0000
0100
0000
0010
1000
0001
0000
0100
0000
0001
0000
,
1000
0100
0010
0001
0100
0000
0001
0000
2000
0010
0000
0100
0000
3001
0000
0000
,
0110
0000
0000
1000
0001
0000
1000
0000
0010
0001
0010
0000
1000
0000
0100
0000
,
0020
0000
0000
0130
1000
0000
0001
0010
0000
0100
0001
0000
1000
0000
0010
0000
,
0001
0000
1000
0010
0100
0000
0001
0000
0010
0100
1000
0000
0001
0000
1000
0000
,
0020
0000
0000
0130
1000
0100
0020
0001
0000
0130
0000
0000
0101
0000
0001
0000
,
1000
0010
0100
0001
0020
0100
0000
1030
0001
0100
1000
0000
0001
0000
0200
0000
,
0000
0000
0300
0000
;
