#VERSION:0.83;
#TITLE:Jack Out KIllER;
#SUBTITLE:;
#ARTIST:MisoilePunch♪ ~タケノコ添え~;
#TITLETRANSLIT:;
#SUBTITLETRANSLIT:;
#ARTISTTRANSLIT:MisoilePunch♪ ~takenoko soe~;
#GENRE:;
#CREDIT:;
#MUSIC:Jack Out KIllER.ogg;
#BANNER:Jack Out KIllER.png;
#BACKGROUND:Jack Out KIllER-bg.png;
#CDTITLE:;
#SAMPLESTART:27.790;
#SAMPLELENGTH:15.000;
#SELECTABLE:YES;
#OFFSET:-0.055;
#BPMS:0.000=173.000;
#STOPS:;
#SPEEDS:0.000=1.000=0.000=0;
#SCROLLS:0.000=1.000;
#TICKCOUNTS:0.000=4;
#TIMESIGNATURES:0.000=4=4;
#LABELS:0.000=Song Start;
#COMBOS:0.000=1;
#ORIGIN:;
#TAGS:;
#PREVIEWVID:;
#JACKET:Jack Out KIllER-jacket.png;
#CDIMAGE:;
#DISCIMAGE:;
#BGCHANGES:;
#FGCHANGES:;

//--------------- dance-single - ----------------
#NOTEDATA:;
#STEPSTYPE:dance-single;
#DESCRIPTION:;
#DIFFICULTY:Beginner;
#METER:6;
#RADARVALUES:0.226063,0.316875,0.167724,0.036462,0.003646,217,194,23,5,0,0,0,0,0,0.226063,0.316875,0.167724,0.036462,0.003646,217,194,23,5,0,0,0,0,0;
#CHARTNAME:;
#CHARTHASH:1085694121;
#BANNER:;
#CHARTSTYLE:;
#METERF:0.000000;
#LASTSECONDHINT:134.014526;
#CREDIT:ZSL;
#NOTES:
0000
0000
0000
0000
,
0000
0000
0000
0000
,
0000
0000
0000
0000
,
1001
0000
0000
0000
,
1010
0000
0000
0000
,
0110
0000
0000
0000
,
0001
0000
0000
0000
,
1001
0000
1000
0000
,
0100
0000
0010
0000
,
0011
0000
0000
0000
,
1001
0000
0000
0000
,
1000
0000
0000
0000
,
0010
0000
0100
0000
,
0010
0000
0000
0000
,
1000
0000
0001
0000
,
0010
0000
0000
0000
,
0100
0000
0010
0000
,
0100
0000
0000
0000
,
1000
0000
0001
0000
,
0100
0000
0000
0000
,
0010
1000
0001
0001
,
0010
0000
0000
0010
,
0100
0100
1000
0000
,
0001
0001
0001
0000
,
0010
0001
1000
1000
,
0010
0000
0000
0010
,
0100
0100
0010
0000
,
1000
0000
0000
0000
,
1001
0000
0000
0001
,
0010
0000
0100
0000
,
1100
0000
0000
1000
,
0001
0000
0100
0000
,
0101
0000
0000
0001
,
0010
0000
0100
0000
,
1000
0000
0001
0000
,
0100
0100
0100
0000
,
0010
1000
0100
0000
,
0010
0001
0100
0000
,
0010
1000
0001
1000
,
0100
0000
0010
0000
,
0100
1000
0001
0100
,
0010
0000
0100
0001
,
1000
0000
1001
0000
,
0001
0001
0001
0000
,
0010
0000
0110
0000
,
1100
0000
1000
0000
,
0100
0100
1000
0000
,
0001
0001
1000
0000
,
0010
0000
0110
0000
,
0101
0000
0100
0100
,
0001
1000
0001
0000
,
1001
0000
0000
1000
,
0200
0000
0000
0000
,
0300
0000
0000
0000
,
0010
0000
0000
0000
,
0000
0000
0000
0000
,
0001
0000
0000
0000
,
1000
0000
0000
0000
,
0010
0000
0100
0000
,
0010
0000
0000
0000
,
1000
1000
1000
0000
,
0001
0010
0001
0000
,
0100
0100
0100
0000
,
0010
0000
0000
0000
,
1000
1000
0001
0001
,
1000
0001
0010
0000
,
0100
0100
1000
1000
,
0001
0000
0100
0000
,
0001
0000
0000
0000
,
1000
0000
0000
0000
,
0001
0000
0000
0000
,
0010
0000
0000
0000
,
0100
0000
1000
0000
,
0001
0000
0000
0000
,
0100
0000
0001
0000
,
1001
0000
0000
1000
,
0000
0100
0100
0000
,
0010
0001
0001
0000
,
1000
1000
0010
0010
,
0100
0000
0000
0001
,
1000
1000
0100
0100
,
0010
0010
0001
0000
,
1001
0000
0000
0000
,
1010
0000
0000
0010
,
0000
0220
0000
0000
,
0000
0330
0100
0001
,
1000
1000
0100
0000
,
0010
0001
0001
0000
,
0100
0100
0010
0010
,
1000
1000
0001
0000
,
1000
0001
0010
0010
,
0100
0000
0000
0000
,
1001
0000
0000
0000
,
0110
0000
0000
1001
,
0000
1002
0000
0000
,
0000
0000
0000
0003
,
0200
0000
0000
0000
0000
0000
0000
0000
0000
0300
0000
0000
0000
0000
0000
0000
;

//--------------- dance-single - ----------------
#NOTEDATA:;
#STEPSTYPE:dance-single;
#DESCRIPTION:;
#DIFFICULTY:Easy;
#METER:10;
#RADARVALUES:0.384411,0.457413,0.116678,0.058339,0.244294,369,353,16,8,0,0,0,0,0,0.384411,0.457413,0.116678,0.058339,0.244294,369,353,16,8,0,0,0,0,0;
#CHARTNAME:;
#CHARTHASH:348713870;
#BANNER:;
#CHARTSTYLE:;
#METERF:0.000000;
#LASTSECONDHINT:133.927826;
#CREDIT:ZSL;
#NOTES:
0000
0000
0000
0000
,
0000
0000
0000
0000
,
0000
0000
0000
0000
,
1000
0000
0000
0001
0000
0000
0010
0000
0000
0000
0000
0000
0000
0000
0000
0000
,
0100
0000
0000
1000
0000
0000
0001
0000
0000
0000
0000
0000
0000
0000
0000
0000
,
0100
0000
0000
0010
0000
0000
0000
0000
0100
0000
0000
0001
0000
0000
0000
0000
,
1000
0000
0000
0100
0000
0000
1000
0000
0000
0000
0001
0000
0100
0000
0000
0000
,
0001
0000
0000
0010
0000
0000
0000
0000
0100
0000
0000
1000
0000
0000
0000
0000
,
0010
0000
0000
0000
0100
0000
0001
0000
1000
0000
0000
0100
0000
0000
0000
0000
,
0010
0000
0000
0100
0000
0000
1000
0000
0000
0010
0000
0000
0100
0000
0010
0000
,
1000
0000
0000
0100
0000
0000
0020
0000
0000
0000
0000
0000
0031
0000
0000
0000
,
1000
0000
0000
0000
,
0010
0100
0001
0100
,
0010
0000
0000
0010
0000
0000
1000
0000
,
0001
0010
0100
0100
,
1000
1000
0001
0000
,
0010
0100
1000
0100
,
0010
0000
0000
0010
0000
0000
0001
0000
,
1000
0010
0100
0100
,
0001
0000
0000
1000
0000
0000
0100
0000
0000
0010
0000
0000
0001
0000
0000
0000
,
0010
0100
1000
0000
0001
1000
0010
0000
,
0100
0000
0000
0100
0000
0000
0001
0000
0000
0000
0000
0000
0100
0000
0000
0000
,
0010
0000
0000
0010
0000
0000
0000
0000
1000
0000
0000
1000
0000
0000
0000
0000
,
1001
0000
0001
1000
0100
0000
1000
0000
,
0010
0100
0001
0000
1000
0001
0010
0000
,
0100
0000
0000
0100
0000
0000
1000
0000
0000
0000
0000
0000
0100
0000
0000
0000
,
0010
0000
0000
0000
0010
0000
0000
0000
0001
0000
0000
0001
0000
0000
0000
0000
,
1001
0000
1000
0010
,
0100
0000
0000
0100
0000
0000
0001
0000
0000
0001
0000
0000
0000
0000
0000
0000
,
0010
0000
0100
0000
,
1000
0000
0000
1000
0000
0000
0001
0000
0000
0001
0000
0000
0000
0000
0000
0000
,
0100
0000
0010
0000
,
1000
0000
0000
1000
0000
0000
0100
0000
0000
0100
0000
0000
0000
0000
0000
0000
,
0010
0000
0000
0010
0000
0000
0001
0000
0000
0000
0000
0000
0000
0000
0000
0000
,
1000
0001
0100
0010
,
1000
0000
0100
0010
0100
0000
1000
0000
,
1001
0000
0000
0001
0000
0000
0100
0000
0000
0100
0000
0000
0000
0000
0000
0000
,
1010
0000
0000
0010
0000
0000
1000
0000
0000
1000
0000
0000
0000
0000
0000
0000
,
1100
0000
0000
0100
0000
0000
0000
0000
1000
0000
0000
0000
0001
0000
0000
0000
,
0010
0010
0001
0001
,
1000
0000
0010
0000
1000
0000
0000
0000
0010
0000
0000
0100
0000
0000
0001
0000
,
1000
0100
0010
0100
,
1000
0000
0001
0000
,
1001
0010
0110
0000
,
1000
0000
1000
0000
0000
0000
0000
0000
0001
0000
0000
0001
0000
0000
0010
0000
,
0100
0000
0000
0010
0000
0000
0000
0000
0001
0000
0000
0000
1000
0000
0000
0000
,
0010
0000
0000
0010
0000
0000
0100
0000
0001
0000
0000
0001
0000
0000
1000
0000
,
0100
0000
0000
0000
0010
0000
0100
0000
1000
0000
0000
1000
0000
0000
0000
0000
,
0001
0000
0001
0000
0000
0000
0000
0000
0100
0000
0000
0100
0000
0000
0010
0000
,
1000
0000
0000
0010
0000
0000
0000
0000
0100
0000
0000
0000
0001
0000
0000
0000
,
0010
0000
0000
0000
0100
0000
0000
0000
1000
0000
0000
0001
0000
0000
0000
0000
,
0101
0000
0000
0100
0000
0000
0010
0000
0000
1000
0000
0000
0100
0000
0000
0000
,
0020
0000
0000
0000
,
0031
0000
0000
0000
,
1000
0000
0000
0000
,
0000
0000
0001
0000
,
0100
0000
0010
0000
,
1000
0000
0010
0000
,
0100
0001
1000
0100
,
0010
0000
0110
0000
,
0100
0000
0000
0010
0000
0000
0001
0000
0000
0100
0000
0000
0010
0000
0000
0000
,
1000
0000
0000
0010
0000
0000
1000
0000
0001
0000
0000
0000
0010
0000
0000
0000
,
0100
0000
0000
1000
0000
0000
0010
0000
0000
0100
0000
0000
0001
0000
0000
0000
,
1000
0000
0000
0100
0000
0000
0010
0000
0000
0000
0100
0000
1000
0000
0000
0000
,
0001
0000
0100
0001
1000
0000
0100
0000
,
0010
0000
0001
1000
0010
0000
0100
0000
,
0001
1000
0100
0000
0100
1000
0001
0000
,
0200
0000
0000
0320
0000
0000
0000
0000
,
1030
0000
0000
0000
,
0001
0000
0000
0000
,
0010
0000
0000
0000
,
0100
0000
0000
0000
,
1000
0000
0001
0000
,
0100
0000
0010
0000
,
0100
0001
0010
0100
,
0110
0000
0000
0010
0000
0000
0001
0000
0000
1000
0000
0000
0010
0000
0000
0000
,
0000
0000
0100
0000
0010
0000
0000
1000
0000
0000
0100
0000
0010
0000
0000
0000
,
0001
0000
0000
0000
1000
0000
0000
1001
0000
0000
0000
0000
0001
0000
0000
0000
,
0100
0000
0001
0100
0010
0000
1000
0000
,
0100
0000
0000
0010
0000
0000
0001
0000
0000
0000
1000
0000
0001
0000
0000
0000
,
1000
0000
0000
0010
0000
0000
1000
0000
0001
0000
0000
0010
0000
0000
0001
0000
,
1000
0000
0000
0010
0000
0100
0000
0000
0001
0000
1000
0000
0001
0000
0000
0000
,
0010
0000
0000
0010
0000
0000
0100
0000
0000
0000
0000
0000
0000
0000
0000
0000
,
1100
0000
0000
1000
0000
0000
0001
0000
0000
0001
0000
0000
0100
0000
0000
0000
,
0000
2020
0000
0000
,
0000
0000
3030
0000
1000
0001
1000
0000
,
0100
0000
0000
0000
0010
0000
0000
0100
0000
0000
0010
0000
0001
0000
0000
0000
,
1000
0000
0010
0100
0010
0000
1000
0000
,
0001
0010
0001
0000
0001
0100
0001
0000
,
1000
0100
0010
0000
0010
0100
1000
0000
,
0010
0000
0100
0000
0001
0001
1000
0000
,
0100
0000
0000
0100
0000
0000
1000
0000
0000
1000
0000
0000
0000
0000
0000
0000
,
0010
0000
0000
0010
0000
0000
0100
0000
0000
0100
0000
0000
0000
0000
0000
0000
,
1001
0000
0000
1000
0000
0000
0100
0000
0000
0010
0000
0000
0001
0000
0000
0100
,
0000
2010
0000
0000
,
0000
0000
0000
3100
,
0220
0000
0000
0000
0000
0000
0000
0000
0000
0330
0000
0000
0000
0000
0000
0000
;

//--------------- dance-single - ----------------
#NOTEDATA:;
#STEPSTYPE:dance-single;
#DESCRIPTION:;
#DIFFICULTY:Medium;
#METER:13;
#RADARVALUES:0.63756,0.703712,0.291694,0.182309,0.408372,612,572,40,25,0,0,0,0,0,0.63756,0.703712,0.291694,0.182309,0.408372,612,572,40,25,0,0,0,0,0;
#CHARTNAME:;
#CHARTHASH:844854705;
#BANNER:;
#CHARTSTYLE:;
#METERF:0.000000;
#LASTSECONDHINT:133.927826;
#CREDIT:ZSL;
#NOTES:
0000
0000
0000
0000
,
0000
0000
0000
0000
,
0000
0000
0000
0000
,
1001
0000
0000
1000
0000
0000
0010
0000
0100
0000
0000
0010
0000
0000
1000
0000
,
1001
0000
0000
0001
0000
0000
0010
0000
0100
0000
0000
0010
0000
0000
0001
0000
,
0101
0000
0000
0100
0000
0000
0010
0000
1000
0000
0000
0001
0000
0000
1000
0000
,
0100
0000
0000
0010
0000
0000
0120
0000
0000
0000
0130
0000
1000
0000
0001
0000
,
0101
0000
0000
0100
0000
0000
0010
0000
1000
0000
0000
0001
0000
0000
0010
0000
,
0100
0000
1000
0000
0010
0000
0100
0000
0001
0000
0000
1000
0000
0000
0100
0000
,
0010
0000
0000
0100
0000
0000
1100
0000
0000
1000
0000
0000
0001
0000
0100
0000
,
0110
0000
0000
0110
0000
0000
0201
0000
0000
0000
0301
0000
1000
0000
0000
0000
,
0010
0000
0000
0000
,
0100
0000
0010
0000
1000
0001
0010
0000
,
0001
0000
0000
0001
0000
0000
1000
0000
0000
0000
0010
0000
0100
0000
0000
0000
,
0010
0000
0000
0000
1000
0000
0001
0000
0010
0000
0000
0010
0000
0000
0100
0000
,
1000
0000
0001
0100
0010
0000
1000
0000
,
0100
0000
0010
0000
0001
1000
0010
0000
,
1000
0000
0000
1000
0000
0000
0001
0000
0000
0000
0010
0000
0100
0000
0000
0000
,
0010
0000
0001
1000
0010
0000
0100
0000
,
0001
0000
0000
0101
0000
0000
0100
0000
0000
0110
0000
0000
2000
0000
0000
0000
,
3001
0010
0100
1000
0010
0100
0001
0100
,
1000
0000
0100
0010
0000
1000
0020
0000
0000
0000
1030
0000
0001
0000
0010
0000
,
0100
0000
0010
0001
0000
0000
1000
0000
0010
0000
1000
0001
0000
0000
0010
0000
,
1000
0010
0100
0100
1000
1000
0002
0000
,
1003
0010
0100
0001
0010
0100
1000
0100
,
0001
0000
0100
0010
0000
0001
0020
0000
0000
0000
0031
0000
1000
0000
0010
0000
,
0100
0000
0100
0000
0001
0000
0001
0000
1000
0010
0000
1000
0000
0100
0000
0000
,
0120
0000
0000
0130
0000
0000
1000
0000
0001
0000
0100
0000
0010
0000
1000
0000
,
0100
0000
0000
0010
0000
0000
0011
0000
0000
0001
0000
0000
1000
0000
0010
0000
,
0100
0010
0000
1000
0000
1000
0000
0002
0000
0000
0013
0000
0002
0000
0000
0000
,
0103
0000
0000
0010
0000
0000
1010
0000
0000
1000
0000
0000
0001
0000
0010
0000
,
0100
1000
0010
1000
0001
0001
2000
0000
,
3001
0000
0000
0010
0000
0000
0110
0000
0000
0100
0000
0000
0010
0000
0001
0000
,
1000
0000
0000
0010
0000
0000
0110
0000
0200
0000
0000
0000
0320
0000
0000
0000
,
1030
0000
1000
0000
0100
0000
0010
0000
0001
2000
0000
0000
3001
0000
0100
0000
,
0020
0000
0130
0010
1000
0001
1000
0100
,
0010
0000
0000
0001
0000
0000
1001
0000
0000
1010
0000
0000
0000
0000
0000
0000
,
0010
0000
0000
1000
0000
0000
1010
0000
0000
1001
0000
0000
0000
0000
0000
0000
,
0101
0000
0000
1001
0000
0000
1000
0000
0100
0000
0010
0000
1000
0000
0010
0000
,
0001
0000
1000
0001
0000
1000
0001
0000
0100
0000
0010
0000
2000
0000
0000
0000
,
3100
0000
0010
0000
0001
0000
1000
0000
0010
0000
1000
0200
0000
0000
1300
0000
,
0001
0000
0001
0000
0100
0000
0010
0000
1000
0000
0001
0020
0000
0000
0031
0000
,
0100
0000
0000
0010
1000
0000
0000
0000
,
0001
0000
0010
0000
0001
0000
0010
0000
0001
0000
0010
0000
0002
0000
0000
0000
0000
0000
1003
0000
0000
0010
0000
0000
,
0100
0000
0100
0000
0001
0000
1000
0000
0100
0000
0000
0010
0000
0000
0001
0000
,
0100
0000
0001
0010
0000
0000
0100
0000
0001
0000
0100
0000
0010
0000
0001
0000
,
0100
0000
0010
1000
0000
0000
0100
0000
0010
0000
0001
0100
0000
0000
0010
0000
,
0100
0000
0010
0000
0001
0000
0010
0000
1000
0000
0001
0010
0000
0000
0100
0000
,
1000
0000
1000
0000
0001
0000
0100
0000
0010
0000
0000
0100
0000
0000
0001
0000
,
0010
0000
0100
0010
0000
0000
0100
0000
0001
0000
0100
0000
1000
0000
0001
0000
,
0100
0000
0100
0000
0010
0000
1000
0000
0100
0000
0010
0001
0000
0000
1000
0000
,
0010
0000
0000
0100
0000
0000
1010
0000
0000
1001
0000
0000
0001
0000
0010
0000
,
0200
0000
0000
0010
,
1300
0000
0000
0000
,
0100
0000
0000
0000
,
0000
0000
1000
0001
,
0100
0000
0010
0000
0100
0000
0000
0000
0010
0000
0000
1000
0000
0000
0000
0000
,
0001
0000
0000
0010
0000
0000
0000
0000
0100
0000
0000
0000
0010
0000
0000
0000
,
0011
0000
0001
0000
1000
0010
1000
0010
,
0100
0000
0000
0001
0000
0000
1000
0000
0001
0000
0000
0000
0010
0000
0000
0000
,
0100
1000
0000
1000
0000
0000
0001
0100
0000
0100
0000
0000
0010
0000
1000
0000
,
0001
0000
0010
0100
0000
0000
0010
0000
0001
0010
0001
0000
1000
0000
0010
0000
,
0100
0000
0010
0100
0000
0000
0001
0000
0100
0001
0000
0000
1000
0000
0100
0000
,
0010
0000
0100
1000
0000
0000
0001
0000
0200
0000
0000
0000
0310
0000
0100
0000
,
0001
0000
0100
0000
0010
0000
1000
0000
0100
0000
0010
0000
0001
1000
0001
0000
,
0010
0000
0100
0000
1000
0000
0010
0000
0100
0000
0001
0000
0100
0010
0100
0000
,
1000
0100
0010
0100
1000
0100
0010
1000
,
0100
1000
0000
0001
0100
0010
0100
0000
,
0001
0000
0100
0000
,
0010
0000
1000
0000
,
0001
0000
1000
0000
,
0100
0000
0010
0000
,
0100
0000
0000
0000
1000
0000
0000
0000
0001
0000
0000
1000
0000
0000
0000
0000
,
0010
0000
0000
0100
0000
0000
0000
0000
0001
0000
1000
0000
0100
0000
0000
0000
,
0010
0010
0100
0100
2000
0000
3002
0000
,
0103
0000
0000
0010
0000
0000
0110
0000
0000
0101
0000
0000
0001
0000
1000
0000
,
0000
0000
0100
0000
0010
0100
0000
0100
0000
0000
1000
0000
0001
0000
0100
0000
,
0010
0000
1000
0000
0100
0000
0010
0001
0000
0000
1000
0000
0010
0000
1000
0000
,
0100
0000
1000
0010
1000
0000
0001
0000
0010
0000
0001
0100
0001
0000
0100
0000
,
0010
0000
1000
0100
0000
1000
0001
0000
0000
0000
0100
0000
0010
0000
0100
0000
,
0001
0000
0010
0100
0000
0000
1000
0000
0010
0000
0100
0001
0000
0000
1000
0000
,
0100
0000
0010
0001
0000
0010
0000
0100
1000
0000
0001
0000
0100
0000
0010
0000
,
1000
0000
0000
1001
0000
0000
0011
0000
0000
0000
0000
0000
0000
0000
0000
0000
,
0110
0000
0000
0100
0000
0000
1000
0000
0000
0001
0000
0000
0100
0000
0010
1000
,
0000
0001
1002
0000
0000
1000
0000
0010
,
0000
1000
0000
0013
0100
0010
0001
0010
,
0100
0000
1000
0000
0001
0000
0100
0010
0000
0000
1000
0000
0100
0000
1000
0000
,
0001
0100
0001
0000
0010
0000
0100
0000
1000
0010
1000
0000
0001
0000
1000
0000
,
0100
0100
0100
0100
0010
0010
0010
0010
,
0001
1000
0001
0010
1000
0010
0100
1000
,
0010
0100
0010
0000
1000
0000
0001
0000
0010
0100
1000
0000
0001
0000
0100
0000
,
0010
0000
0000
0110
0000
0000
0101
0000
0000
1001
0000
0000
0000
0000
0000
0000
,
1100
0000
0000
0110
0000
0000
0011
0000
0000
1001
0000
0000
0000
0000
0000
0000
,
1000
0010
0000
1000
0010
0000
0100
0001
0000
0100
0001
0000
0010
0000
0100
1000
,
0000
1002
0000
0000
,
0000
0000
0000
0103
,
0210
0000
0000
0000
0000
0000
0000
0310
1000
0000
0000
0000
0000
0000
0000
0000
;

//--------------- dance-single - ----------------
#NOTEDATA:;
#STEPSTYPE:dance-single;
#DESCRIPTION:;
#DIFFICULTY:Hard;
#METER:16;
#RADARVALUES:0.835495,0.950626,0.401079,0.204186,0.871436,802,747,55,28,0,0,0,0,0,0.835495,0.950626,0.401079,0.204186,0.871436,802,747,55,28,0,0,0,0,0;
#CHARTNAME:;
#CHARTHASH:3669583893;
#BANNER:;
#CHARTSTYLE:;
#METERF:0.000000;
#LASTSECONDHINT:134.014526;
#CREDIT:ZSL;
#NOTES:
0000
0000
0000
0000
,
0000
0000
0000
0000
,
0000
0000
0000
0000
,
1001
0000
0000
0011
0000
0000
0011
0000
0010
0000
0000
0100
0000
0000
1000
0000
,
0001
1000
0000
1001
0000
0000
0001
0100
0010
0000
0000
1000
0000
0000
0010
0000
,
0100
0001
0000
1001
0000
0000
1000
0100
0010
0000
0000
0001
0000
0000
0010
0000
,
0100
0000
0000
1100
0000
0000
1010
0000
0000
0000
0010
0000
0100
0000
0001
0000
,
1000
0100
0000
1100
0000
0000
1000
0000
0010
0100
0000
0100
0000
0000
0001
0000
,
0010
0100
0010
0000
0001
0000
1000
0001
0100
0010
0000
0010
0000
0000
1000
0000
,
0001
0010
0000
0010
0001
0000
0001
1000
0000
1000
0010
0000
0100
0000
0100
0000
,
0010
1000
0000
1000
0100
0000
1200
0000
0000
0000
1300
0000
0001
0000
0100
0010
,
0100
0000
0000
0000
,
0001
1000
1000
0100
0010
0001
1000
0001
,
0100
0000
0001
0100
0000
0100
0010
0000
0000
0000
1000
0000
0010
0000
1000
0000
,
0100
0000
0010
0000
0001
0000
1000
0000
0010
0000
0100
0001
0000
0001
1000
0000
,
0100
0100
0010
0001
1000
1000
0020
0000
,
1030
0001
0001
0100
0010
1000
0001
1000
,
0100
0000
1000
0100
0000
0100
0010
0000
0000
0000
0001
0000
0010
0000
0001
0000
,
0100
0000
0010
0000
1000
0000
0001
0000
0010
0000
0100
0000
1000
0001
1000
0000
,
0001
0100
0010
0100
0001
0000
1000
0100
0010
0100
1000
0000
0002
0000
0000
0000
,
0103
0000
0010
0000
0010
0000
1000
0000
0100
0010
0001
0000
0001
1000
0010
1000
,
0100
0000
0010
0100
0000
0100
2000
0000
0000
0000
3001
0000
0100
0000
0010
0000
,
1000
0000
0010
0100
0000
0100
0001
0000
0010
0000
0100
1000
0000
1000
0001
0000
,
0100
0000
0100
0000
0001
0100
0001
0000
0001
1000
0001
0000
2000
0000
0000
0000
,
3100
0000
0010
0000
0010
0000
0001
0000
0100
0010
1000
0000
1000
0001
0010
0001
,
0100
0000
0010
0100
0000
0100
0002
0000
0000
0000
1003
0000
0100
0000
0010
0000
,
0001
1000
0010
0000
0010
0100
0001
0000
1000
0100
0000
0010
0000
0010
0000
0000
,
2100
0000
0000
3100
0010
0000
0100
0000
0010
0100
1000
0000
0001
0100
0010
1000
,
0001
0000
0000
1001
0000
0000
1010
0000
0000
0110
0000
0000
0010
0000
0100
0000
,
0001
0010
0000
0100
0000
0100
0000
2000
0000
0000
3001
0000
1000
0010
1000
0010
,
1000
0000
0000
1001
0000
0000
0011
0000
0000
0110
0000
0000
0010
0000
0100
0000
,
1000
0100
0000
0010
0001
0000
1000
0000
0010
0100
0001
1000
0100
0000
0010
0000
,
0100
0000
0000
1100
0000
0000
0110
0000
0000
1001
0000
0000
0001
0000
0100
0000
,
0010
0000
0000
0110
0000
0000
1001
0000
0001
1000
0001
1000
0001
0000
0010
0000
,
0100
0000
0100
0000
1000
0000
0010
0000
1000
0100
0000
0100
0010
0000
0001
0000
,
1000
0010
0100
0010
1000
1000
0001
0001
,
1000
0100
0000
1001
0000
0000
0001
0100
0000
1001
0000
0000
0000
0000
0000
0000
,
1000
0010
0000
1001
0000
0000
0001
0010
0000
1001
0000
0000
0000
0000
0000
0000
,
0101
0000
0000
0110
0000
0000
1000
0000
0100
0010
0001
0010
0100
0000
1000
0000
,
1000
0010
0100
0001
1000
0000
0001
0000
0001
0010
0100
1000
0001
0000
1000
0000
,
0010
0000
0100
0000
0010
0000
1000
0000
0100
0010
0100
2000
0000
0000
3001
0000
,
1000
0001
0100
0000
0100
0001
1000
0000
0100
0010
0001
2000
0000
0000
3001
0000
,
0100
0000
0000
0010
1001
0000
0000
0000
,
0001
0100
0010
1000
0001
0010
0021
0000
0000
0032
0000
0000
,
1003
0000
1000
0000
0010
0100
0001
0100
0010
0000
0000
1000
0000
0000
2100
0000
,
3100
0000
0010
0001
0000
0001
1000
0000
0010
0000
0100
0000
0001
0000
0100
0000
,
0010
0000
1000
0100
0000
0100
1000
0000
0010
0000
0100
0001
0000
0001
0010
0000
,
0100
1000
0100
0000
0100
0010
0100
0000
1000
0100
0010
0002
0000
0000
1003
0000
,
0010
0000
0010
0000
1000
0001
0010
0001
1000
0000
0000
0100
0000
0000
0210
0000
,
0310
0000
0001
0100
0000
0100
0010
0000
1000
0000
0100
0000
0010
0000
0010
0000
,
0001
0010
0100
1000
0000
1000
0001
0000
0100
0000
0010
0100
0000
0100
0010
1000
,
0001
0000
0000
0011
0000
0000
1100
0000
0000
1010
0000
0000
1000
0010
0100
0001
,
2000
0000
0000
0001
,
3100
0000
0000
0000
,
0010
0000
0000
0000
,
0000
0000
0100
1000
,
0001
0000
1000
0000
0001
0000
0000
0000
0100
0000
0000
0010
0000
0000
0100
0000
,
0001
0000
0000
1000
0000
0000
0100
0000
1000
0000
0000
0000
0100
0000
0010
0000
,
0001
0000
0000
0000
0001
0000
1000
0000
0010
0000
0010
0000
0100
0010
0100
0010
,
1000
0000
0000
0001
0000
0000
1002
0000
0000
0000
1003
0000
0010
0000
0100
0000
,
0010
1000
0000
1000
0001
0000
0010
0001
0000
0001
1000
0000
0100
0000
0010
0100
,
1000
0000
1000
0020
0000
0000
0130
0000
0010
0100
0001
1000
0100
0000
0000
0000
,
0010
0100
0000
0100
1000
0000
0001
0100
0000
0100
0010
0000
1000
0000
0001
1000
,
0100
0000
0100
0010
0000
0010
0002
0000
0000
0000
1003
0000
0001
0000
1000
0000
,
0010
0100
0001
0100
0010
0000
0010
1000
0001
1000
0100
0000
0010
0000
0001
0000
,
0100
0001
1000
0001
0010
0000
0010
0001
1000
0001
0100
0000
0010
0000
1000
0000
,
0001
1000
0100
0010
0001
0010
0001
0000
1000
0001
0100
0010
1000
0010
1000
0000
,
0200
0000
0010
0000
0000
0000
1300
0000
0001
0010
0001
0000
1000
0000
0000
0000
,
0100
0000
1000
0000
,
0001
0000
0100
0000
,
0010
0000
1000
0000
,
0100
0000
0010
0000
,
0001
0000
0001
0000
1000
0000
0000
0000
0010
0000
0000
0100
0000
0000
0010
0000
,
1000
0000
0000
0001
0000
0000
0010
0000
0100
0000
1000
0000
0010
0000
1000
0000
,
0001
0000
0001
0000
0100
0000
0100
0000
0010
0000
0010
0000
1000
0001
1000
0001
,
1000
0000
0000
1100
0000
0000
0110
0000
0000
0011
0000
0000
0001
1000
0010
0100
,
0000
0000
0010
0000
1000
0001
0000
1002
0000
0000
1003
0000
0100
0000
1000
0000
,
0010
0000
1000
0000
0100
0010
0001
0200
0000
0000
0310
0000
1000
0000
0010
0000
,
0100
0001
1000
0100
1000
0100
0010
0001
1000
0000
1000
0010
0100
0010
1000
0000
,
0001
0000
0010
0100
0000
0100
2000
0000
0000
0000
3100
0000
0010
0000
0010
0000
,
0001
0010
0100
1000
0001
0000
0001
0000
1000
0100
0010
0001
1000
0000
1000
0000
,
0001
1000
0010
0100
0001
1000
0100
0010
0001
0000
0001
0000
0100
0000
0100
0000
,
0010
0000
0000
1010
0000
0000
1001
0000
0000
0000
0000
0000
0000
0000
0000
0000
,
0011
0000
0000
0110
0000
0000
1100
0000
0000
1001
0000
0000
0001
0100
0010
0100
,
0000
0010
1002
0000
1000
1000
0000
0010
,
0000
0000
0100
0000
0000
0000
0013
0000
0100
1000
0001
0010
0100
1000
0001
0000
,
0100
0010
1000
0000
1000
0100
0010
0002
0000
0000
1003
0000
0010
0000
1000
0000
,
0100
1000
0001
0100
0010
0100
0010
0000
1000
0001
0010
0100
1000
0000
0010
0000
,
1001
0001
0001
0001
0110
0100
0100
0100
,
1001
0000
1000
0000
0001
1000
0001
1000
0010
0000
0010
0000
0100
0000
0100
0000
,
0001
0000
1000
0100
0010
0000
0001
0100
0010
1000
0100
0010
0002
0000
0000
0000
,
1003
0010
0000
1010
0000
0000
1000
0001
0000
1001
0000
0000
0000
0000
0000
0000
,
0001
0010
0000
0110
0000
0000
0100
1000
0000
1010
0000
0000
0000
0000
0000
0000
,
1000
0010
1000
0001
0100
0001
1000
0100
1000
0001
0010
0001
1000
0001
0100
0010
,
0000
2001
0000
0000
,
0000
0000
0000
3100
,
0210
0000
0000
0000
0000
0000
0000
0310
0001
1000
0000
0000
0000
0000
0000
0000
;

//--------------- dance-single - ----------------
#NOTEDATA:;
#STEPSTYPE:dance-single;
#DESCRIPTION:;
#DIFFICULTY:Challenge;
#METER:18;
#RADARVALUES:0.973008,1.161876,0.37191,0.218771,1.279807,934,883,51,30,0,0,0,0,0,0.973008,1.161876,0.37191,0.218771,1.279807,934,883,51,30,0,0,0,0,0;
#CHARTNAME:;
#CHARTHASH:4147173751;
#BANNER:;
#CHARTSTYLE:;
#METERF:0.000000;
#LASTSECONDHINT:134.014526;
#CREDIT:ZSL;
#NOTES:
0000
0000
0000
0000
,
0000
0000
0000
0000
,
0000
0000
0000
0000
,
1001
0000
0000
1100
0000
0000
1001
0000
0001
0000
0100
0010
0100
0000
0001
0000
,
1000
0100
0000
1100
0000
0000
1000
0010
0100
0000
0001
1000
0001
0000
0010
0000
,
0100
0010
0000
0110
0000
0000
0100
1000
0010
0100
0000
0001
0000
0000
1000
0100
,
0010
0000
0000
1100
0000
0000
1001
0000
1000
0000
0010
0000
0100
0000
0001
0000
,
1000
0100
0000
0110
0000
0000
0010
0001
0100
0010
0000
1010
0000
0000
1000
0000
,
0001
0010
0100
0010
0001
1000
0001
1000
0010
0100
0000
0101
0000
0001
0100
0010
,
1000
0100
0000
0100
0010
0000
0010
0001
0000
0001
0100
0000
0101
0000
0001
0000
,
1000
0100
1000
0010
0100
0010
0002
0000
0000
0000
0013
0100
0010
0000
1000
0001
,
0010
0000
0000
0000
,
0001
0000
1000
0000
1000
0000
0001
0000
0100
0010
1000
0001
0100
0000
0001
0000
,
0010
0000
0010
0100
0000
0100
0010
0000
0000
0000
0100
0000
1000
0000
0001
0000
,
0100
0000
0010
0000
1000
0000
0001
0000
0100
0000
0100
0010
0000
0010
1000
0000
,
0001
0001
0010
0100
1000
1000
0020
0000
,
1030
0000
0001
0000
0001
0000
1000
0000
0100
0010
0001
1000
0100
0000
1000
0000
,
0010
0000
0010
0100
0000
0100
0010
0000
0000
0000
0100
0000
0001
0000
1000
0000
,
0100
0000
1000
0000
0010
0000
0100
0000
0001
0000
1000
0000
0100
0010
0001
0000
,
1000
0010
1000
0001
0100
0001
0010
0100
1000
0010
0100
0001
2000
0000
0000
0000
,
3100
0000
0001
0000
0001
0000
0100
0010
1000
0010
0100
1000
0001
1000
0010
0100
,
0001
0000
0001
0100
0000
0100
0020
0000
0000
0000
1030
0000
0100
0000
0010
0000
,
0001
0000
0001
0010
0000
0010
0001
1000
0010
0000
0010
1000
0000
1000
0001
0010
,
1000
0000
1000
0000
0010
0100
0010
0001
1000
0001
0100
0010
2000
0000
3002
0000
,
0103
0000
1000
0000
1000
0000
0100
0010
0001
0010
0100
0001
1000
0001
0010
0100
,
1000
0000
1000
0100
0000
0100
0020
0000
0000
0000
0031
0000
0100
0000
0010
0000
,
1000
0001
0010
0001
1000
0001
0010
0001
1000
0100
0000
0110
0000
0010
0001
0000
,
2001
0000
0000
3001
0100
0001
0100
0010
1000
0001
1000
0100
0010
0001
1000
0001
,
0100
0000
0000
0110
0000
0000
0101
0000
0000
0110
0000
0000
0100
0010
1000
0001
,
0020
0100
0000
0032
0000
1000
0000
0203
0000
0310
1000
0010
0100
0001
1000
0001
,
0010
0000
0000
0110
0000
0000
0011
0000
0000
0110
0000
0000
0010
0100
1000
0001
,
0100
0010
0000
1000
0001
0000
0010
0100
1000
0100
0010
0001
0100
0010
1000
0010
,
0100
0000
0000
1010
0000
0000
1001
0000
0000
0011
0000
0000
0001
0100
0010
1000
,
0001
0000
0000
0110
0000
0000
1001
0000
1000
0100
1000
0001
1000
0010
0100
0001
,
0100
0000
0100
0000
0010
1000
0001
1000
0100
0010
0000
0010
0001
0000
1000
0000
,
1001
0000
0001
0000
0100
0000
0010
0000
1000
0100
1000
0000
0100
0010
0100
0000
,
0010
0100
1000
0001
0100
0001
0010
0100
1000
0001
0000
0000
0000
0000
0000
0000
,
0100
0010
1000
0001
0010
0001
0100
0010
1000
0001
0000
0000
0000
0000
0000
0000
,
0110
0000
0000
1001
0000
0000
1100
0000
0100
0010
0100
0010
0001
1000
0010
1000
,
0001
0100
0001
1000
0100
1000
0001
0010
0001
1000
0001
1000
0010
0100
0001
0100
,
0010
0000
0010
0000
1000
0000
0001
0000
1000
0100
0010
2000
0000
0000
3010
0000
,
0100
1000
0100
1000
0001
0100
0001
0100
0010
1000
0001
0010
0000
0010
0100
1000
,
0001
0000
0000
0000
0000
0000
0000
0000
0000
1000
0001
1000
0001
0000
0000
0000
0000
0000
0000
0000
0000
0000
0000
0000
,
0100
0000
0000
0000
0100
0000
0000
0000
0100
0000
0000
0000
0010
0000
0000
0000
0010
0000
0000
0000
0010
0000
0000
0000
2000
0000
0000
0000
0000
0000
0000
0000
0000
0000
0000
0000
3001
0000
0000
0010
0000
0000
0100
0000
0000
1000
0000
0000
,
0010
0000
0010
0000
1000
0010
0100
0001
0010
0000
0000
0011
0000
0000
0210
0000
,
0301
0000
0001
0100
0000
0100
0010
0000
0001
0000
1000
0000
0010
0100
0001
0100
,
0010
0000
0010
1000
0000
1000
0100
0010
0001
0000
0001
0010
0000
0010
0100
1000
,
0001
1000
0100
1000
0001
1000
0100
1000
0010
0100
0001
2000
0000
3010
0100
0010
,
1000
0000
1000
0000
0010
1000
0001
0010
0100
0000
0000
0110
0000
0000
1002
0000
,
0103
0000
0100
0001
0000
0001
1000
0010
0001
0000
0010
0000
1000
0000
1000
0000
,
0001
0010
0100
1000
0000
1000
0001
0100
0010
0000
0010
0100
0000
0100
0001
1000
,
0100
0000
0000
0011
0000
0000
0101
0000
0000
1010
0000
0000
1000
0010
0100
0001
,
0020
0000
0000
0100
,
0031
0000
0000
0000
,
1000
0000
0000
0000
,
0000
0000
0010
0100
,
0001
0000
0001
0000
0001
0000
0000
0000
1000
0000
0000
0100
0000
0000
1000
0000
,
0010
0000
0000
0100
0000
0000
0001
0000
1000
0000
0000
0000
0001
0000
1000
0000
,
1100
0000
0000
0000
0100
0000
0010
0000
0011
0000
0001
0000
1000
0001
1000
0001
,
0100
0000
0000
0000
0000
0000
0000
0000
0000
0010
0000
0000
0000
0000
0000
0000
0000
0000
0100
0000
0001
0000
0100
0000
0001
0000
0000
0000
0000
0000
1000
0000
0000
0000
0000
0000
0100
0000
0000
0000
0000
0000
0100
0000
0000
0000
0000
0000
,
0010
0001
0000
0001
1000
0000
1000
0010
0000
0010
0100
0000
0010
1000
0001
0010
,
0100
0000
0100
2000
0000
0000
3100
0000
0001
0100
0010
0100
1000
0001
1000
0001
,
0100
0000
0100
0010
0000
0010
1000
0000
1000
0001
0000
0001
0010
0000
0001
1000
,
0100
0000
0100
1000
0000
1000
0020
0000
0000
0000
1030
0000
0001
0000
0100
0000
,
0010
1000
0001
1000
0100
0010
0001
1000
0001
0100
0010
1000
0100
1000
0100
1000
,
0010
0100
0001
1000
0100
0010
0001
1000
0010
0100
0001
1000
0001
0010
0100
1000
,
0010
0100
0001
0100
0010
0100
0001
0100
1000
0100
0010
0100
0001
0100
0001
1000
,
0200
0000
0010
0000
0000
0000
2300
0000
3001
1000
0001
1000
0010
0000
0000
0000
,
1000
0000
0001
0000
,
0010
0000
0100
0000
,
1000
0000
0010
0000
,
0100
0000
0001
0000
,
1000
0000
1000
0000
0010
0000
0000
0000
0100
0000
0000
0001
0000
0000
1000
0000
,
0100
0000
0000
0010
0000
0000
0100
0000
1000
0000
0010
0000
0100
0000
0001
0000
,
1000
0000
1000
0000
0100
0000
0100
0000
0010
0000
0010
0000
0100
1000
0001
0100
,
0010
0000
0010
1000
0000
1000
0100
0000
0100
0020
0000
0000
1030
0010
0100
1000
,
0000
0000
1001
0000
0001
0100
0000
1020
0000
0000
1030
0000
0100
0000
0010
0000
,
0001
0000
0100
0000
1000
0100
0010
0002
0000
0000
0013
0000
0100
0000
0100
0000
,
0001
1000
0010
0100
0001
1000
0010
1000
0100
0010
0100
1000
0001
0010
0100
0010
,
1000
0000
1000
0010
0000
0010
0002
0000
0000
0000
0103
0000
0010
0000
0010
0000
,
1000
0100
0010
0001
1000
0001
1000
0010
0100
0001
0010
0001
0100
0001
1000
0100
,
0010
0100
1000
0010
0100
0001
0010
0001
1000
0000
1010
0000
0101
0000
1001
0000
,
1000
0000
1000
0001
0000
0001
0010
0000
0000
0000
0000
0000
0000
0000
0000
0000
,
0110
0000
0000
1100
0000
0000
1010
0000
0000
0101
0000
0000
1000
0100
0010
0001
,
0000
0000
0000
1000
0001
1000
0020
0000
0000
0000
0000
0000
0100
0000
0000
0001
0000
0000
0000
0000
0000
1000
0000
0000
,
0000
0000
0001
0000
0000
0000
1030
0000
0100
0010
0001
1000
0010
0100
0001
0100
,
0010
1000
0010
0000
1000
0001
0010
0200
0000
0000
1300
0000
0010
0000
0100
0000
,
0001
1000
0100
0010
0001
1000
0010
0100
0010
1000
0100
0010
0001
1000
0001
0000
,
1000
0100
0000
0000
1000
0100
0000
0000
1000
0100
0000
0000
1000
0100
0000
0000
0010
0001
0000
0000
0010
0001
0000
0000
0010
0001
0000
0000
0010
0001
0000
0000
,
1000
0010
1000
0010
0100
0010
0100
0010
0001
0000
0011
0000
1010
0000
1001
0000
,
0001
1000
0010
1000
0100
0010
0001
0010
1000
0010
1000
0010
0200
0000
0000
0000
,
0310
0001
0000
0001
1000
0000
1000
0010
0000
0010
0100
0000
0000
0000
0000
0000
,
1000
0100
0000
0100
0001
0000
0001
0010
0000
0010
0100
0000
0000
0000
0000
0000
,
1000
0010
0100
0001
1000
0100
0001
0100
0010
1000
0010
0100
1000
0001
0100
0010
,
0000
1002
0000
0000
,
0000
0000
0000
0013
,
2100
0000
0000
0000
0000
0000
0000
3100
1000
0010
0000
0000
0000
0000
0000
0000
;
