#VERSION:0.83;
#TITLE:Fatal Sphere;
#SUBTITLE:;
#ARTIST:A. Ki vs. F4LSE;
#TITLETRANSLIT:;
#SUBTITLETRANSLIT:;
#ARTISTTRANSLIT:;
#GENRE:;
#CREDIT:;
#MUSIC:Fatal Sphere.ogg;
#BANNER:Fatal Sphere.png;
#BACKGROUND:Fatal Sphere-bg.png;
#CDTITLE:;
#SAMPLESTART:66.970;
#SAMPLELENGTH:15.000;
#SELECTABLE:YES;
#OFFSET:-0.002;
#BPMS:0.000=86.000
,32.000=172.000
,64.000=86.000
,80.000=172.000
,176.000=86.000
,176.333=344.000
,177.000=172.000
,240.000=86.000
,240.333=344.000
,241.000=172.000
,304.000=86.000
;
#STOPS:;
#SPEEDS:0.000=1.000=0.000=0;
#SCROLLS:0.000=1.000;
#TICKCOUNTS:0.000=4;
#TIMESIGNATURES:0.000=4=4;
#LABELS:0.000=Song Start;
#COMBOS:0.000=1;
#DISPLAYBPM:86.000:172.000;
#ORIGIN:;
#TAGS:;
#PREVIEWVID:;
#JACKET:Fatal Sphere-jacket.png;
#CDIMAGE:;
#DISCIMAGE:;
#BGCHANGES:;
#FGCHANGES:;

//--------------- dance-single - ----------------
#NOTEDATA:;
#STEPSTYPE:dance-single;
#DESCRIPTION:;
#DIFFICULTY:Beginner;
#METER:3;
#RADARVALUES:0.11166,0.147037,0,0.030955,0,101,101,0,4,0,0,0,0,0,0.11166,0.147037,0,0.030955,0,101,101,0,4,0,0,0,0,0;
#DISPLAYBPM:86.000:172.000;
#CHARTNAME:;
#CHARTHASH:3729382733;
#BANNER:;
#CHARTSTYLE:;
#METERF:0.000000;
#LASTSECONDHINT:122.792709;
#CREDIT:ZSL;
#NOTES:
0000
0000
0000
0000
,
0000
0000
0000
0000
,
0000
0000
0000
0000
,
0000
0000
0000
0000
,
0001
0000
0000
0000
,
1000
0000
0000
0000
,
0100
0000
0000
0000
,
0010
0000
0000
0000
,
0100
0000
0000
0000
,
1000
0000
0000
0000
,
0100
0000
0000
0000
,
0010
0000
0000
0000
,
0001
0000
0001
0000
,
0001
0000
0000
0000
,
1000
0000
1000
0000
,
1000
0000
0000
0000
,
0010
0000
0100
0000
,
0010
0000
1000
0000
,
0001
0000
0010
0000
,
0100
0000
0010
0000
,
0001
0000
0000
1000
,
1000
0000
0000
0000
,
0010
0000
0000
0100
,
0100
0000
0010
0000
,
1000
0000
0000
0001
,
0001
0000
0000
0000
,
1000
0000
0000
0000
,
0100
0000
0000
0000
,
1000
0000
0000
0000
,
0001
0000
0000
0000
,
0010
0000
0000
0000
,
0100
0000
0000
0000
,
0010
0000
0010
0000
,
0001
0000
0001
0000
,
1000
0000
0000
0000
,
0010
0000
0000
0000
,
0100
0000
0001
0000
,
0100
0000
0000
0000
,
0010
0000
1000
0000
,
0010
0000
0000
0000
,
1000
0000
0001
0000
,
1000
0000
0000
0000
,
0001
0000
0010
0000
,
0001
0000
0000
0000
,
0020
0030
0000
0000
,
0100
0000
0000
0000
,
1000
0000
0001
0000
,
1000
0000
0000
0000
,
0001
0000
0100
0000
,
0001
0000
0000
0000
,
1000
0000
0100
0000
,
1000
0000
0000
0000
,
0001
0000
0000
0000
,
0100
0000
0000
0000
,
0010
0000
0000
0000
,
1000
0000
0000
0000
,
0001
0000
0000
0000
,
0010
0000
0000
0000
,
0100
0000
0000
0000
,
0010
0000
0000
0000
,
0002
0003
0000
0000
,
1000
0000
0010
0000
,
0100
0000
0000
0000
,
0010
0000
1000
0000
,
0001
0000
0000
0000
,
0010
0000
0001
0000
,
1000
0000
0000
0000
,
0100
0000
1000
0000
,
0002
0003
0000
0000
,
0100
0000
0010
0000
,
1000
1000
0000
0000
,
0001
0001
0000
0000
,
0010
0010
0000
0000
,
0100
0000
0000
0000
,
1000
0000
0000
0001
,
0000
0000
1000
2000
,
3000
0000
0000
0000
;

//--------------- dance-single - ----------------
#NOTEDATA:;
#STEPSTYPE:dance-single;
#DESCRIPTION:;
#DIFFICULTY:Easy;
#METER:6;
#RADARVALUES:0.224425,0.33093,0,0.069649,0,203,203,0,9,0,0,0,0,0,0.224425,0.33093,0,0.069649,0,203,203,0,9,0,0,0,0,0;
#DISPLAYBPM:86.000:172.000;
#CHARTNAME:;
#CHARTHASH:1370658738;
#BANNER:;
#CHARTSTYLE:;
#METERF:0.000000;
#LASTSECONDHINT:127.676430;
#CREDIT:ZSL;
#NOTES:
0000
0000
0000
0000
,
0000
0000
0000
0000
,
0000
0000
0000
0000
,
0000
0000
0000
0000
,
0001
0100
0000
0001
,
0010
0100
0000
0010
,
0100
1000
0000
0100
,
0010
0000
0000
0000
0002
0000
0000
0003
,
1000
0000
0010
0000
,
0100
0000
0001
0000
,
1000
0000
0100
0000
,
0010
0000
0100
0000
,
1000
1000
1000
0000
,
0001
0001
0001
0000
,
0100
0010
0100
0010
,
2000
0000
0000
3000
,
0001
0000
0010
0000
0100
0010
0010
0000
,
0001
0000
1000
0000
0010
0010
0100
0000
,
0001
1000
0100
0010
,
0001
0000
1000
0000
0010
0100
0020
0030
,
1000
0100
1000
0100
,
0000
0010
0001
0001
,
0000
1000
0010
0100
,
0010
0010
0010
0000
,
1000
0010
0100
0010
,
1000
0000
1000
0000
,
0001
0010
0000
0100
,
0020
0000
0230
0000
,
1300
0000
0000
0001
,
0100
0000
0000
0001
,
1000
0000
0000
0100
,
1000
0000
0000
0100
,
0010
0010
0010
0000
,
0001
0001
0001
0000
,
1000
0000
0010
0000
,
0100
0000
0000
0100
,
0010
0000
0000
1000
0000
0000
0010
0000
,
1000
0000
0000
0001
0000
0000
1000
0000
,
0100
0000
0000
0010
0000
0000
0100
0000
,
1000
0000
0000
0001
0000
0000
0010
0000
,
0001
0000
0000
1000
0000
0000
0001
0000
,
0100
0000
0000
0010
0000
0000
1000
0000
,
0010
0000
0000
0100
0000
0000
0001
0000
,
1000
0000
0000
0001
0000
0000
0020
0000
,
0030
0100
0000
0010
,
0001
0000
0000
1000
0000
0000
0001
0000
,
0100
0000
0000
0010
0000
0000
1000
0000
,
0001
0000
0000
1000
0000
0000
0100
0000
,
0010
0000
0000
0001
0000
0000
1000
0000
,
0010
0000
0000
0100
0000
0000
0001
0000
,
0010
0010
0010
0000
,
0100
0100
1000
1000
,
0001
0000
0000
0100
,
0001
0000
0000
1000
,
0100
0000
0000
0010
,
0001
0000
0000
1000
,
0010
0000
0100
0000
,
0010
0000
0000
0000
,
1000
0000
0001
0000
,
0010
0000
0000
0001
0000
0000
2000
0000
,
3000
0010
0000
0100
,
0001
0000
0000
0010
0000
0000
0001
0000
,
0100
0000
0000
0010
0000
0000
1000
0000
,
0100
0000
0000
1000
0000
0000
0010
0000
,
0100
0000
0000
0001
0000
0000
0010
0000
,
0100
0000
0000
0010
0000
0000
0001
0000
,
0100
0100
0100
0000
,
0010
0010
1000
2000
,
3000
0001
0000
0010
,
0100
0000
0000
1000
0000
0000
0010
0000
,
0100
0010
0000
1000
,
0100
0010
0000
0001
,
1000
0010
0000
0100
,
0001
0000
0000
0001
0000
0000
1000
0000
,
0100
0000
0000
0100
0000
0000
1000
0000
,
0000
1000
0000
0000
0010
0000
0100
0000
,
0020
0000
0000
0000
,
0000
0000
0000
0030
;

//--------------- dance-single - ----------------
#NOTEDATA:;
#STEPSTYPE:dance-single;
#DESCRIPTION:;
#DIFFICULTY:Medium;
#METER:10;
#RADARVALUES:0.38694,0.601692,0.092866,0.263119,0.143168,350,338,12,34,0,0,0,0,0,0.38694,0.601692,0.092866,0.263119,0.143168,350,338,12,34,0,0,0,0,0;
#DISPLAYBPM:86.000:172.000;
#CHARTNAME:;
#CHARTHASH:2404314269;
#BANNER:;
#CHARTSTYLE:;
#METERF:0.000000;
#LASTSECONDHINT:127.676430;
#CREDIT:ZSL;
#NOTES:
0000
0000
0000
0000
,
0000
0000
0000
0000
,
0000
0000
0000
0000
,
0000
0000
0000
0000
,
1001
0000
1000
0000
0000
0100
0010
0000
,
0001
0000
1000
0000
0000
0010
0100
0000
,
0001
0000
0010
0000
0000
0100
1000
0000
,
0010
0000
0100
0001
2000
0000
3000
1001
,
0002
0003
0000
0000
1000
0000
0000
0000
0000
0000
0010
0000
0100
0000
0000
0000
,
0001
0000
1000
0000
0000
0100
0010
0000
,
0001
0000
0100
0000
0000
0001
1000
0000
,
0100
0010
0001
1000
,
0010
0100
0010
1000
,
0001
0010
0100
0010
,
0001
1000
0001
0000
1000
0010
1000
0010
,
0200
0000
0300
0110
,
2002
3003
0000
0000
0001
0000
0100
0000
0000
0000
0000
0000
0010
0000
0100
0000
0000
0000
0000
0000
0001
0000
0000
0000
1000
0000
0100
0000
0020
0000
0000
0000
,
0130
0000
1000
0001
0000
0000
0100
0010
1000
0000
1000
0000
0001
0000
0000
0000
,
0010
0000
0100
1000
0000
0000
0001
1000
0010
0000
0000
0010
0000
0000
0000
0000
,
1000
0000
0010
0100
0000
0001
0020
0000
0130
0000
0010
0000
0001
0000
1001
0000
,
2000
3000
0000
0000
0010
0000
1000
0000
0000
0000
1000
0000
0001
0000
1000
0000
,
0000
0000
0100
0000
0010
0001
2000
0000
,
3010
0000
0100
0001
0000
0001
1000
0001
,
0010
0010
0110
0100
,
1000
0000
0001
0100
0000
0100
0010
0100
,
0001
0000
0000
0001
0000
0000
1000
0000
,
0100
0000
0010
0001
0000
0001
2000
0000
,
3001
1000
0001
1000
0200
0000
0000
0000
,
2300
0000
3000
0002
0000
0003
0200
0000
,
0300
0001
0100
0010
,
2000
0000
3000
0002
0000
0003
0020
0000
,
0030
0001
0010
0100
,
1000
0000
0000
1000
0000
0000
0000
0000
0001
0000
0000
0001
0000
0000
0000
0000
,
1000
0000
0000
1000
0000
0000
0000
0000
0010
0000
0000
0010
0000
0000
0000
0000
,
0100
0100
0001
0001
,
2000
0000
3000
1001
,
0001
0000
0100
0001
0100
0000
0010
0000
,
1000
0000
0001
1000
0001
0000
0010
0000
,
0100
0000
1000
0100
1000
0000
0001
0000
,
0100
0000
0010
0100
0010
0000
1000
0000
,
0100
0000
0010
0001
0010
0000
0100
0000
,
1000
0000
0001
0100
0001
0000
0010
0000
,
0100
0000
1000
0010
1000
0000
0010
0000
,
0100
0000
0001
1000
0001
0000
0010
0000
,
0200
0000
1300
0100
0000
0000
1000
0000
,
0001
0000
1000
0010
0100
0000
0001
0000
,
1000
0000
0001
0010
0100
0000
0010
0000
,
0001
0000
0010
0100
1000
0000
0010
0000
,
0100
0000
0001
1000
0010
0000
1000
0000
,
0100
0000
0010
0001
1000
0000
0001
0000
,
0100
0000
0010
1000
0100
0000
0010
0000
,
0100
1000
0100
0000
1000
0001
0100
0001
,
2000
0000
3000
0020
0000
0030
0100
0000
,
0020
0000
0030
2000
0000
3000
0001
0000
,
0020
0000
0030
0200
0000
0300
0010
0000
,
0002
0000
0003
0020
0000
0030
0100
0000
,
1000
0001
0100
0010
,
1000
0000
0010
0200
0000
0300
0010
0000
,
1000
0001
0010
0100
,
2000
0000
0000
0000
3000
0000
0002
0000
0000
0003
0000
0000
0100
0000
0000
0000
,
0020
0000
1030
0001
0000
0000
1000
0000
,
0100
0000
0000
1000
0000
0000
0010
0000
0000
0100
0000
0000
0001
0000
1000
0000
,
0010
0000
0000
1000
0000
0000
0100
0000
0000
0010
0000
0000
0001
0000
0000
0000
,
0100
0000
0000
0001
0000
0000
0010
0000
0000
0001
0000
0000
1000
0000
0100
0000
,
1000
0000
0000
0010
0000
0000
0100
0000
0000
0001
0000
0000
0010
0000
0000
0000
,
0001
0000
0000
1000
0000
0000
0010
0000
0000
1000
0000
0000
0100
0000
1000
0000
,
0001
0100
0001
1000
,
0100
0000
0000
1000
0000
0000
0010
0000
0000
0100
0000
0000
0001
0000
0100
0000
,
0020
0000
0000
0000
1030
0000
0001
0000
0000
0010
0000
0000
0100
0000
0000
0000
,
0010
0000
0000
0001
0000
0000
0100
0000
0000
0010
0000
0000
1000
0000
0000
0000
,
0001
0000
1000
0000
0001
0000
0010
0000
0000
0100
0000
0000
1000
0000
0000
0000
,
0010
0000
0100
0000
0001
0000
1000
0000
0000
0010
0000
0000
1000
0000
0000
0000
,
0100
0000
0010
0000
0001
0000
0100
0000
0000
0010
0000
0000
1000
0000
0000
0000
,
1001
0000
0000
0001
0000
0000
1000
0000
0000
0000
0100
0000
0020
0000
0000
0000
,
0031
0000
0000
1001
0000
0000
1010
0000
,
0000
0110
0000
0000
0101
0000
1000
0000
,
0200
0000
0000
0000
,
0000
0000
0000
0300
;

//--------------- dance-single - ----------------
#NOTEDATA:;
#STEPSTYPE:dance-single;
#DESCRIPTION:;
#DIFFICULTY:Hard;
#METER:15;
#RADARVALUES:0.716392,1.022876,0.177992,0.355985,0.634582,648,625,23,46,0,0,0,0,0,0.716392,1.022876,0.177992,0.355985,0.634582,648,625,23,46,0,0,0,0,0;
#DISPLAYBPM:86.000:172.000;
#CHARTNAME:;
#CHARTHASH:3288666765;
#BANNER:;
#CHARTSTYLE:;
#METERF:0.000000;
#LASTSECONDHINT:127.676430;
#CREDIT:ZSL;
#NOTES:
0000
0000
0000
0000
,
0000
0000
0000
0000
,
0000
0000
0000
0000
,
0000
0000
0000
0000
,
1001
0000
0000
0000
0001
0000
0000
0000
0000
0010
0100
0000
1000
0100
0010
0000
,
0001
0000
0000
0000
1000
0000
0000
0000
0000
0010
0100
0000
0001
0100
0010
0000
,
1000
0000
0000
0000
0100
0000
0000
0000
0000
1000
0010
0000
0100
0001
0010
0000
,
0100
0000
1000
0001
0202
0000
0303
0110
,
2002
3003
0000
0000
0001
0000
0000
0000
0010
0000
0100
0000
1000
0000
0000
0000
,
0010
0000
0100
0000
0001
1000
0100
0000
,
0010
0000
0001
0000
0100
0010
1000
0000
,
0001
0000
0010
0000
0100
0000
1000
0000
0001
0000
0100
0010
0100
0000
0000
0000
,
0001
0100
0010
0100
0001
1000
0100
1000
,
0010
0100
0001
0010
0100
1000
0010
0100
,
0001
0100
0001
0000
1000
0010
1000
0000
0001
0010
0100
1000
0001
0010
0100
1000
,
0002
0000
0003
0110
,
2002
3003
0000
0000
1000
0000
1000
0000
0010
0000
0100
0000
0001
0000
0001
0000
1000
0000
0000
0000
0100
0000
0100
0000
0010
0000
0010
0000
2000
0000
0000
0000
,
3020
0000
0000
0000
0031
0000
0001
0000
1000
0000
0001
0010
0100
0000
0100
0000
1000
0000
0001
0000
0100
0000
1000
0000
0100
0000
0001
0000
1000
0000
0100
1000
,
0002
0000
0000
0000
0103
0000
0100
0000
0001
0000
0010
0000
0100
0000
0100
0000
1100
0000
0000
0110
0000
0000
1100
0000
2000
0000
0000
0000
0000
0000
0000
0000
,
3020
0000
0000
0000
0100
0000
2030
0000
0000
0000
0001
0000
3020
0000
0000
0000
1030
0000
0001
0000
0010
0000
0100
0000
1000
0001
1000
0000
0010
0000
0000
0000
,
0220
0330
0000
0000
0001
0000
0001
0000
1000
0000
0100
0000
0010
0000
0010
0000
,
0100
0000
1000
0000
1100
0000
0100
0000
0110
0000
0010
0001
2000
0000
0000
0000
,
3001
0000
1000
0000
0100
0000
0100
0000
0010
0000
0001
1000
0010
0000
0010
0000
,
0110
0000
0100
0000
0101
0000
0001
0000
1000
0001
1000
0000
0001
0000
0000
0000
,
0010
0100
1000
1000
0010
0100
0001
0001
,
1001
0000
0000
1010
0000
0000
0110
0000
0002
0000
1003
0100
0010
0000
0100
1000
,
0001
0000
1000
0000
0010
0000
0002
0000
0000
0000
0013
0100
0002
0000
0000
0000
,
0103
0010
1000
0001
0010
0100
1000
0001
0100
0010
0100
0001
2000
0000
0000
0000
,
3002
0000
0013
2000
0000
3010
0002
0000
,
0013
0000
0100
0000
1000
0000
0100
0000
0010
0000
0000
0010
0000
0000
0001
0000
,
2000
0000
3010
0002
0000
0013
2000
0000
,
3010
0000
0100
0000
0001
0000
0100
0000
0010
0000
0000
0010
0000
0000
1000
0000
,
0100
0000
0000
0100
1000
0000
0001
0000
0100
0000
0000
0100
0010
0000
0100
0000
,
0001
0000
0000
0001
1000
0000
0100
0000
0010
0000
0000
0010
0001
0000
1000
0000
,
0010
0000
0100
0000
0010
0000
1000
0000
0001
1000
0010
0100
0001
0000
1000
0000
,
1001
0000
0001
0010
0100
0000
0110
0000
,
0011
0000
0000
0001
0010
0000
0100
0000
0010
0001
0010
0000
0100
0000
1000
0000
,
0010
0000
0000
1000
0010
0000
0100
0000
0010
1000
0010
0000
0100
0000
0001
1000
,
0100
0000
0000
0010
0100
0000
1000
0000
0001
0010
0001
0000
1000
0000
0010
0000
,
0100
0000
0000
0010
0100
0000
0001
0000
1000
0010
1000
0001
0010
0000
0100
0000
,
0001
0000
0000
0100
0010
0000
0001
0000
1000
0001
1000
0000
0010
0000
0100
0000
,
1000
0000
0000
0100
0010
0000
1000
0000
0001
1000
0100
0010
0001
0000
0010
0000
,
1000
0000
0000
0010
0001
0000
1000
0000
0010
0100
0010
0000
1000
0000
0010
0000
,
0001
0000
0000
0010
1000
0000
0001
0000
0100
0010
1000
0001
0010
0000
0100
0010
,
0002
0000
0000
0000
1003
0000
0001
0000
1000
0010
0100
0000
0010
0000
1000
0000
,
0100
0000
0000
0010
0001
0000
1000
0000
0001
0010
0100
0000
0010
0000
0001
0100
,
0010
0000
0000
0100
0001
0000
1000
0000
0100
0010
0001
0000
0100
0000
0001
0000
,
0010
0000
0000
0100
1000
0000
0001
0000
0100
0010
1000
0001
0010
0000
0100
0000
,
0001
0000
0000
0100
1000
0000
0001
0000
0100
0010
1000
0000
0010
0000
0100
0000
,
1000
0000
0000
0100
0001
0000
1000
0000
0100
0010
0001
1000
0010
0000
0100
0000
,
0001
0001
1000
1000
0010
0010
0100
0100
,
0001
0100
0001
0100
0010
0000
1000
0001
0010
0100
1000
0001
0100
0000
0010
0000
,
2000
0000
3010
0200
0000
0301
0010
0000
,
0002
0000
0013
0200
0000
1300
0010
1000
,
0002
0000
0103
2000
0000
3100
0001
0000
,
2000
0000
3100
0002
0000
0103
1000
0001
,
0100
0000
0010
0100
0001
1000
0100
0000
,
0010
0000
0001
0100
0010
0100
0001
0000
,
0100
0010
1000
0001
0010
0100
1000
0001
,
2000
0000
0000
3020
0000
0000
0230
0000
0000
0310
1000
0001
0010
0000
0100
0000
,
2000
0000
0000
0000
3001
0000
0100
0000
0001
0010
0100
0000
1000
0000
0001
0000
,
0100
0000
0001
1000
0000
0100
0010
0000
0000
0010
0001
1000
0001
0000
0100
0010
,
0100
0000
0010
1000
0000
0001
0010
0000
0000
0010
0001
1000
0010
0000
1000
0000
,
0100
0000
0010
0001
0000
1000
0010
0000
0000
0010
1000
0001
0010
0000
0100
0000
,
0001
0000
0100
0010
0000
0001
0100
0000
0000
0100
0001
1000
0010
0000
0100
0000
,
1000
0000
0100
0010
0000
1000
0100
0000
0000
0100
1000
0010
0100
0000
0010
0000
,
1000
1000
0001
0001
0010
0010
0100
0100
,
1000
0100
1000
0001
0010
0000
0100
1000
0001
0100
0010
1000
0001
0000
0010
0000
,
0200
0000
0000
0000
1300
0100
0010
0000
0000
0010
0100
0000
0010
0001
1000
0001
,
0100
0000
0010
1000
0000
0001
0010
0000
0000
0010
0001
0000
1000
0010
0100
0010
,
1000
0000
0001
0010
0100
1000
0010
0000
0000
0010
1000
0000
0100
1000
0001
1000
,
0010
0000
0100
0010
1000
0001
1000
0000
0000
1000
0010
0000
0100
0001
1000
0100
,
0010
0000
0100
1000
0010
0100
0001
0000
0000
0001
0100
0010
1000
0000
0001
0000
,
0011
0000
0000
0110
0000
0000
1001
0000
0000
0001
0010
0001
0100
0010
1000
0001
,
0020
0000
0000
0000
0130
1000
0020
0000
0000
0000
0130
0001
0020
0000
0000
0000
,
0130
1000
0020
0000
0000
0000
0130
0010
0001
0000
0010
0000
1000
0000
0000
0000
,
0002
0000
0000
0000
,
0000
0000
0000
0003
;
