#VERSION:0.83;
#TITLE:ドッペルゲンガー;
#SUBTITLE:;
#ARTIST:はるまきごはん feat. 初音ミク;
#TITLETRANSLIT:Doppelgänger;
#SUBTITLETRANSLIT:;
#ARTISTTRANSLIT:Harumaki Gohan feat. Hatsune Miku;
#GENRE:;
#ORIGIN:;
#TAGS:;
#CREDIT:;
#BANNER:Doppelganger.png;
#BACKGROUND:Doppelganger-bg.png;
#PREVIEWVID:;
#JACKET:Doppelganger-jacket.png;
#CDIMAGE:;
#DISCIMAGE:;
#LYRICSPATH:;
#CDTITLE:;
#MUSIC:Doppelganger.ogg;
#OFFSET:0.271000;
#SAMPLESTART:50.599998;
#SAMPLELENGTH:15.000000;
#SELECTABLE:YES;
#BPMS:0.000000=217.000000
;
#STOPS:;
#DELAYS:;
#WARPS:;
#TIMESIGNATURES:0.000000=4=4
;
#TICKCOUNTS:0.000000=4
;
#COMBOS:0.000000=1
;
#SPEEDS:0.000000=1.000000=0.000000=0
;
#SCROLLS:0.000000=1.000000
;
#FAKES:;
#LABELS:0.000000=Song Start
;
#BGCHANGES:;
#KEYSOUNDS:;
#ATTACKS:
;

//---------------dance-single - ----------------
#NOTEDATA:;
#CHARTNAME:;
#CHARTHASH:772511250;
#STEPSTYPE:dance-single;
#BANNER:;
#DESCRIPTION:;
#CHARTSTYLE:;
#DIFFICULTY:Beginner;
#METER:2;
#METERF:0.000000;
#LASTSECONDHINT:137.839600;
#RADARVALUES:0.097989,0.135244,0.000000,0.050542,0.000000,95.000000,95.000000,0.000000,7.000000,0.000000,0.000000,0.000000,0.000000,0.000000,0.097989,0.135244,0.000000,0.050542,0.000000,95.000000,95.000000,0.000000,7.000000,0.000000,0.000000,0.000000,0.000000,0.000000;
#CREDIT:ZSL;
#NOTES:
0000
0000
0000
0000
,
0000
0000
0000
0000
,
0000
0000
0000
0000
,
0000
0000
0000
0000
,
1000
0000
0000
0000
,
0000
0000
0000
0000
,
0010
0000
0000
0000
,
0000
0000
0000
0000
,
0100
0000
0000
0000
,
0000
0000
0000
0000
,
0001
0000
0000
0000
,
0000
0000
0000
0000
,
1000
0000
0000
0000
,
0000
0000
0000
0000
,
0100
0000
0000
0000
,
1000
0000
0000
0000
,
0100
0000
0000
0000
,
0010
0000
0000
0000
,
0001
0000
0000
0000
,
0010
0000
0000
0000
,
0100
0000
0000
0000
,
1000
0000
0000
0000
,
0001
0000
0001
0000
,
0000
0000
0000
0000
,
0100
0000
0100
0000
,
0000
0000
0000
0000
,
0010
0000
0010
0000
,
0000
0000
0000
0000
,
2000
0000
0000
0000
,
0000
0000
3000
0000
,
0001
0000
0000
0000
,
0000
0000
0000
0000
,
1000
0000
0000
0000
,
0000
0000
0000
0000
,
0100
0000
0000
0000
,
0000
0000
0000
0000
,
0010
0000
0000
0000
,
0000
0000
0000
0000
,
0001
0000
0000
0000
,
1000
0000
0000
0000
,
0001
0000
0000
0000
,
0000
0000
0000
0000
,
0100
0000
0000
0000
,
0010
0000
0000
0000
,
0200
0000
0000
0000
,
0300
0000
0000
0000
,
0001
0000
0000
0000
,
1000
0000
0000
0000
,
0010
0000
0000
0000
,
0100
0000
0000
0000
,
0001
0000
0000
0000
,
1000
0000
0000
0000
,
0100
0000
0000
0000
,
1000
0000
0000
0000
,
0001
0000
0000
0000
,
0010
0000
0000
0000
,
0100
0000
0000
0000
,
1000
0000
0000
0000
,
0000
0000
0000
0000
,
0001
0000
0000
0000
,
0100
0000
0000
0000
,
0010
0000
0010
0000
,
0000
0000
1000
0000
,
0000
0000
0001
0000
,
0000
0000
0010
0000
,
0010
0000
0000
0000
,
0000
0000
0000
0000
,
0100
0000
0000
0000
,
1000
0000
0000
0000
,
0001
0000
0000
0000
,
0100
0000
0000
0000
,
0020
0000
0000
0000
,
0000
0000
0000
0000
,
0030
0000
0000
0000
,
0000
0000
0000
0000
,
2000
0000
0000
0000
,
0000
0000
0000
0000
,
3000
0000
0000
0000
,
0000
0000
0000
0000
,
0001
0000
0000
0000
,
0010
0000
0000
0000
,
0100
0000
0000
0000
,
0000
0000
0000
0000
,
1000
0000
0000
0000
,
0010
0000
0000
0000
,
0200
0000
0000
0000
,
0300
0000
0000
0000
,
0010
0000
0000
0000
,
1000
0000
0000
0000
,
0100
0000
0000
0000
,
0010
0000
0000
0000
,
0001
0000
0000
0000
,
1000
0000
0000
0000
,
0010
0000
0000
0000
,
1000
0000
0000
0000
,
0100
0000
0000
0000
,
1000
0000
0000
0000
,
0010
0000
0000
0000
,
0100
0000
0000
0000
,
0001
0000
0000
0000
,
0100
0000
0000
0000
,
0010
0000
0000
0000
,
0100
0000
0000
0000
,
0001
0000
0000
0000
,
0100
0000
0000
0000
,
0001
0000
0000
0000
,
0000
0000
0000
0000
,
1000
0000
0000
0000
,
0100
0000
0000
0000
,
0010
0000
0000
0000
,
0000
0000
0000
0000
,
0001
0000
0000
0000
,
0100
0000
0000
0000
,
0020
0000
0000
0000
,
0000
0000
0000
0000
,
0030
0000
0000
0000
,
0000
0000
0000
0000
,
1000
0000
0000
0000
,
0001
0000
0000
0000
,
0010
0000
0000
0000
,
0100
0000
0000
0000
,
1000
0000
0000
0000
,
0010
0000
0000
0000
,
0100
0000
0000
0000
,
0002
0000
0000
0000
0000
0000
0000
0003
;

//---------------dance-single - ----------------
#NOTEDATA:;
#CHARTNAME:;
#CHARTHASH:2740759978;
#STEPSTYPE:dance-single;
#BANNER:;
#DESCRIPTION:;
#CHARTSTYLE:;
#DIFFICULTY:Easy;
#METER:5;
#METERF:0.000000;
#LASTSECONDHINT:137.839600;
#RADARVALUES:0.182568,0.225406,0.021661,0.093863,0.000000,177.000000,174.000000,3.000000,13.000000,0.000000,0.000000,0.000000,0.000000,0.000000,0.182568,0.225406,0.021661,0.093863,0.000000,177.000000,174.000000,3.000000,13.000000,0.000000,0.000000,0.000000,0.000000,0.000000;
#CREDIT:ZSL;
#NOTES:
0000
0000
0000
0000
,
0000
0000
0000
0000
,
0000
0000
0000
0000
,
0000
0000
0000
0000
,
1000
0000
0000
0000
,
0002
0000
0000
0000
,
0013
0000
0100
0000
,
1000
0000
0000
0000
,
1000
0000
0001
0000
,
0100
0000
0000
0000
,
0010
0000
0100
0000
,
0001
0000
0000
0000
,
0001
0000
1000
0000
,
0001
0000
0000
0000
,
0010
0000
0100
0000
,
1000
0000
0100
0000
,
1000
0000
0001
0000
,
0100
0000
0000
0000
,
0001
0000
1000
0000
,
0010
0000
1000
0000
,
0001
0000
0010
0000
,
0100
0000
0000
0000
,
1000
0000
0000
0000
0100
0000
0000
0010
,
0000
0000
0000
0001
0000
0000
0000
0000
,
1000
0000
0000
0001
0000
0000
0000
0100
,
0000
0000
0010
0000
,
1000
0000
0010
0000
,
0100
0000
0001
0000
,
2000
0000
0000
0000
,
0000
0000
3001
0000
,
1000
0000
0000
0000
,
0100
0000
0000
0000
,
0010
0000
0000
0000
,
0100
0000
0000
0000
,
1000
0000
0000
0000
,
0001
0000
0000
0000
,
0100
0000
0000
0000
,
0001
0000
0000
0000
,
0100
0000
0001
0000
,
1000
0000
0000
0000
,
0010
0000
1000
0000
,
0100
0000
0000
0000
,
1000
0000
0001
0000
,
0100
0000
0010
0000
,
0200
0000
0000
0000
,
0320
0000
0030
0000
,
1000
0000
0001
0000
,
0010
0000
0001
0000
,
1000
0000
0010
0000
,
0100
0000
0001
0000
,
1000
0000
0100
0000
,
0010
0000
0100
0000
,
1000
0000
0001
0000
,
0200
0000
0000
0000
,
0301
0000
1000
0000
,
0010
0000
1000
0000
,
0001
0000
0010
0000
,
0100
0000
1000
0000
,
0001
0000
0000
0000
,
2000
0000
0000
0000
,
3020
0000
0000
0030
,
0100
0000
0100
0000
,
0000
0100
0100
0000
,
0010
0000
0010
0000
,
0000
0010
0010
0000
,
1000
0000
0000
0000
,
0001
0000
0000
0000
,
0010
0000
0100
0000
,
1000
0000
0000
0000
,
0010
0000
0100
0000
,
0001
0000
0000
0000
,
2000
0000
0000
0000
,
0000
0000
0000
0000
,
3000
0000
0000
0000
,
0001
0000
0000
0000
,
0010
0000
0000
0000
,
0000
0000
0000
0000
,
0100
0000
0000
0000
,
1000
0000
0000
0000
,
0100
0000
1000
0000
,
0001
0000
0000
0000
,
0010
0000
0001
0000
,
0100
0000
0000
0000
,
0001
0000
1000
0000
,
0100
0000
0010
0000
,
0200
0000
0000
0000
,
0320
0000
0030
0000
,
0001
0000
0100
0000
,
0010
0000
1000
0000
,
0100
0000
1000
0000
,
0010
0000
0100
0000
,
0001
0000
1000
0000
,
0001
0000
0010
0000
,
0100
0000
1000
0000
,
0002
0000
0000
0000
,
1003
0000
0100
0000
,
0010
0000
0001
0000
,
0100
0000
0001
0000
,
0010
0000
0100
0000
,
1000
0000
0000
0000
,
1001
0000
0000
0000
,
0010
0000
0000
0000
,
0110
0000
0000
0000
,
0001
0000
0000
0000
,
1001
0000
0000
0000
,
1000
0000
0000
0000
,
0001
0000
0000
0000
,
0100
0000
0000
0000
,
0010
0000
0000
0000
,
0100
0000
0000
0000
,
0001
0000
0000
0000
,
1000
0000
0000
0000
,
0100
0000
0010
0000
,
0002
0000
0000
0000
,
0000
0000
0000
0000
,
0003
0000
0000
0000
,
0000
0000
0000
0000
,
0100
0000
0001
0000
,
0010
0000
0100
0000
,
1000
0000
0000
0000
,
0100
0000
0010
0000
,
0001
0000
0000
0000
,
0100
0000
0010
0000
,
1000
0000
0000
0000
,
0001
0000
0000
0000
1000
0000
2000
3000
;

//---------------dance-single - ----------------
#NOTEDATA:;
#CHARTNAME:;
#CHARTHASH:4266217489;
#STEPSTYPE:dance-single;
#BANNER:;
#DESCRIPTION:;
#CHARTSTYLE:;
#DIFFICULTY:Medium;
#METER:9;
#METERF:0.000000;
#LASTSECONDHINT:137.839600;
#RADARVALUES:0.398143,0.495894,0.057762,0.281588,0.010830,386.000000,378.000000,8.000000,39.000000,0.000000,0.000000,0.000000,0.000000,0.000000,0.398143,0.495894,0.057762,0.281588,0.010830,386.000000,378.000000,8.000000,39.000000,0.000000,0.000000,0.000000,0.000000,0.000000;
#CREDIT:ZSL;
#NOTES:
// measure 0
0000
0000
0000
0000
,  // measure 1
0000
0000
0000
0000
,  // measure 2
0000
0000
0000
0000
,  // measure 3
0000
0000
0000
0000
,  // measure 4
1000
0000
0000
0000
,  // measure 5
0002
0003
0000
0000
0020
0030
0000
0000
,  // measure 6
0100
1000
0001
1000
,  // measure 7
0100
0010
0001
1000
,  // measure 8
0001
0100
0010
1000
,  // measure 9
0010
0000
0000
0000
,  // measure 10
0100
0001
1000
0001
,  // measure 11
0100
0010
1000
0001
,  // measure 12
1000
0100
0010
0001
,  // measure 13
0010
0000
0001
1000
,  // measure 14
0020
0000
0000
0000
0130
0000
0001
0100
,  // measure 15
0000
0001
0000
0100
0000
0000
0001
0000
,  // measure 16
1000
0000
0100
1000
0000
0100
1000
0000
,  // measure 17
0001
0000
0010
0100
,  // measure 18
2000
0000
0000
3001
1000
0000
0001
0200
,  // measure 19
0000
0000
0310
0200
0000
0000
0310
0000
,  // measure 20
0100
0000
0001
0200
0000
0000
0301
2000
,  // measure 21
3000
0000
0100
0010
,  // measure 22
0002
0000
0000
0013
0100
0000
1000
0001
,  // measure 23
0000
1000
0000
0020
0000
0000
0130
0000
,  // measure 24
0010
0000
1000
0001
0000
0010
0000
0100
,  // measure 25
0000
0000
0010
0001
,  // measure 26
0200
0000
0310
1000
,  // measure 27
0100
0000
1000
0100
1000
0000
0001
0000
,  // measure 28
0200
0000
0000
0320
0000
0000
2030
0000
,  // measure 29
0000
3002
0000
0000
0013
0000
0000
0000
,  // measure 30
0200
0000
0000
0310
,  // measure 31
0001
0000
2000
0000
,  // measure 32
3020
0000
0000
1030
,  // measure 33
0001
0000
0010
0000
,  // measure 34
0200
0000
0000
0310
,  // measure 35
0001
0000
2000
0000
,  // measure 36
3020
0000
0000
0000
,  // measure 37
0130
0000
0001
0000
,  // measure 38
0010
0100
0010
0001
,  // measure 39
1000
0010
0100
0001
,  // measure 40
1000
0000
0001
1000
0001
0000
0010
0000
,  // measure 41
0100
0000
0010
0001
,  // measure 42
0100
0010
1000
0001
,  // measure 43
0010
0100
1000
0001
,  // measure 44
1002
0000
0000
0000
,  // measure 45
2003
3000
0000
0000
0002
0003
0000
0000
,  // measure 46
0010
0001
1000
0010
,  // measure 47
0100
0000
0010
0100
0001
0000
0000
0000
,  // measure 48
1000
0100
0010
0100
,  // measure 49
1000
0000
0100
1000
0001
0000
0000
0000
,  // measure 50
0200
0000
0000
0310
0100
0000
0001
0000
,  // measure 51
1000
0100
0010
0001
,  // measure 52
1000
0010
0100
0001
,  // measure 53
1000
0000
0001
0010
0001
0000
1000
0000
,  // measure 54
0010
1000
0001
0010
,  // measure 55
0100
0000
0010
0100
1000
0000
0000
0000
,  // measure 56
0001
0100
0010
0100
,  // measure 57
0001
0000
0100
0001
1000
0000
0000
0000
,  // measure 58
0100
0000
0000
0000
,  // measure 59
0020
0000
0230
0000
,  // measure 60
1300
0000
0000
0001
,  // measure 61
0100
0010
1001
1000
,  // measure 62
0000
0100
0011
0001
,  // measure 63
1000
0010
0101
0010
,  // measure 64
0000
1000
1100
0100
,  // measure 65
0010
0000
0100
0000
,  // measure 66
1000
0000
0001
0000
,  // measure 67
0100
0010
0100
0001
,  // measure 68
2001
0000
3001
0010
,  // measure 69
0100
0010
0100
1000
,  // measure 70
2001
0000
3001
0100
,  // measure 71
0020
0000
2030
0000
,  // measure 72
0000
0000
0000
0000
,  // measure 73
3010
0000
0000
0000
,  // measure 74
1000
0000
0001
0000
,  // measure 75
0010
0000
0000
0000
,  // measure 76
0001
0000
0000
0000
,  // measure 77
1000
0000
0000
0000
,  // measure 78
0100
0000
1000
0000
,  // measure 79
0010
0100
0010
1000
,  // measure 80
0001
0010
0100
1000
,  // measure 81
0001
0000
1000
0001
1000
0000
0010
0000
,  // measure 82
0100
0000
0010
1000
,  // measure 83
0100
0010
0001
1000
,  // measure 84
0010
0100
0001
1000
,  // measure 85
2001
0000
0000
0000
,  // measure 86
3002
0003
0000
0000
2000
3000
0000
0000
,  // measure 87
0010
1000
0100
0010
,  // measure 88
0001
0000
1000
0001
0010
0000
0000
0000
,  // measure 89
0100
1000
0010
0100
,  // measure 90
0001
0000
0010
0100
1000
0000
0000
0000
,  // measure 91
0002
0000
0000
0103
0010
0000
1000
0000
,  // measure 92
0001
0010
0100
1000
,  // measure 93
0010
0100
0001
1000
,  // measure 94
0100
0000
1000
0010
0100
0000
0001
0000
,  // measure 95
0010
0001
0100
0010
,  // measure 96
1000
0000
0001
1000
0010
0000
0000
0000
,  // measure 97
0100
0001
0010
0100
,  // measure 98
1000
0000
0010
0100
0001
0000
0000
0000
,  // measure 99
0200
0300
0000
0000
0010
0000
0000
0000
0100
0000
0000
0000
0001
0000
0000
0000
,  // measure 100
1000
0100
0000
0100
1000
0000
0000
0000
,  // measure 101
0200
0300
0000
0000
0010
0000
0000
0000
0100
0000
0000
0000
1000
0000
0000
0000
,  // measure 102
0001
0100
0000
0100
0001
0000
0000
0000
,  // measure 103
0020
0030
0000
0000
0100
0000
0000
0000
0010
0000
0000
0000
0001
0000
0000
0000
,  // measure 104
1000
0010
0000
0010
1000
0000
0001
0000
,  // measure 105
0010
0000
0100
0000
,  // measure 106
0010
0000
0001
0000
,  // measure 107
1000
0000
0010
0100
,  // measure 108
0001
0000
1000
0001
,  // measure 109
0010
0000
0100
1000
,  // measure 110
0010
0000
0100
0000
,  // measure 111
0001
0000
1000
0000
,  // measure 112
0100
0010
0001
0000
,  // measure 113
2000
0000
0000
0000
,  // measure 114
0000
0000
0000
0000
,  // measure 115
3000
0000
0000
0000
,  // measure 116
0000
0000
0000
0010
,  // measure 117
0100
0010
0000
1000
0000
0000
0001
0000
,  // measure 118
0010
0000
0100
0010
0000
0100
0000
1000
,  // measure 119
0000
0000
0000
0001
,  // measure 120
0100
0000
0001
1000
0000
0100
0000
0010
,  // measure 121
0000
0001
0000
0000
0000
0000
1000
0000
,  // measure 122
0010
0000
0100
0010
0000
0100
0000
0001
,  // measure 123
0000
0000
0000
1000
,  // measure 124
0010
0000
1000
0000
0100
0000
0010
0001
;

//---------------dance-single - ----------------
#NOTEDATA:;
#CHARTNAME:;
#CHARTHASH:1304441832;
#STEPSTYPE:dance-single;
#BANNER:;
#DESCRIPTION:;
#CHARTSTYLE:;
#DIFFICULTY:Hard;
#METER:12;
#METERF:0.000000;
#LASTSECONDHINT:137.839600;
#RADARVALUES:0.518824,0.631137,0.115523,0.454874,0.014440,503.000000,487.000000,16.000000,63.000000,0.000000,0.000000,0.000000,0.000000,0.000000,0.518824,0.631137,0.115523,0.454874,0.014440,503.000000,487.000000,16.000000,63.000000,0.000000,0.000000,0.000000,0.000000,0.000000;
#CREDIT:ZSL;
#NOTES:
0000
0000
0000
0000
,
0000
0000
0000
0000
,
0000
0000
0000
0000
,
0000
0000
0000
0000
,
1000
0000
0000
0000
,
0002
0003
0020
0030
0200
0300
2000
3000
,
0010
0000
0100
0010
0100
0000
0001
0000
,
1000
0000
0100
1000
0100
0000
0010
0000
,
0001
0000
1000
0001
1000
0000
0010
0000
,
0100
0010
1000
0001
,
0010
0000
0100
0010
0100
0000
1000
0000
,
0001
0000
0100
0001
0100
0000
0010
0000
,
1000
0000
0001
1000
0001
0000
0010
0000
,
0100
0000
1000
0001
,
1001
0000
1000
0001
0100
0000
0010
1000
,
0000
1000
0001
0010
0000
0000
0100
0000
,
0010
0000
0001
0100
0000
0010
1000
0000
,
0001
1000
0100
0010
,
0011
0000
0001
1000
0010
0000
0100
0002
,
0000
0000
1003
0200
0000
0000
1300
0000
,
0001
0000
0100
0020
0000
0000
0130
0001
,
0010
0100
1000
0001
,
0101
0000
0100
0010
1000
0000
0001
0010
,
0000
0010
0100
1000
0000
0000
0010
0000
,
0100
0000
0010
1000
0000
0001
0000
0110
,
0000
1000
0001
0000
1000
0000
0100
0000
,
0110
0010
0001
0100
,
1000
0000
0100
0010
1000
0000
0001
0000
,
0020
0100
0000
0032
1000
0000
0203
0010
,
0000
0302
1000
0000
1003
0000
0001
0000
,
0020
0000
0000
0130
,
0010
0001
0200
0000
,
0320
0000
0030
1000
,
0001
0100
0001
1000
,
0200
0000
0000
1300
,
0001
1000
0020
0000
,
0230
0000
0000
0000
,
0301
0100
0001
0010
,
0100
0000
1000
0001
0100
0000
0010
0000
,
0001
0010
0100
0001
,
1000
0100
1000
0100
0020
0000
0001
0000
,
0130
0000
1000
0010
,
0100
0010
1000
0001
,
0010
0000
0100
1000
0001
0000
1000
0000
,
2001
0000
0000
0000
,
3002
0003
2000
3000
0002
0003
0000
0000
,
0100
0000
0001
1000
0200
0000
0010
0000
,
0301
0000
0100
0010
0001
0000
0000
0000
,
1000
0000
0001
0100
0020
0000
1000
0000
,
0130
0000
1000
0100
0010
0000
0000
0000
,
0110
0000
0100
0001
1000
0000
0100
1000
,
0100
0000
0010
0000
0100
0000
1000
0001
,
0100
0010
0100
0001
,
0010
0000
0100
0010
0001
0010
0001
1000
,
0100
0000
1000
0001
0200
0000
0010
0000
,
1300
0000
0100
0010
1000
0000
0000
0000
,
0001
0000
1000
0100
0020
0000
0001
0000
,
0130
0000
0001
0100
0010
0000
0000
0000
,
0001
0000
0000
0000
,
2000
0000
0000
0000
3020
0000
0000
0000
0130
0000
0000
0100
0000
0000
0100
0000
,
0002
0000
0000
1003
,
0100
0010
0100
1000
0010
0000
1000
0010
,
0000
0010
0100
0001
1000
0000
0010
0000
,
0100
0010
0100
0001
0010
0000
0001
0010
,
0000
0010
0100
1000
0001
0000
1000
0000
,
0010
0000
1000
0000
,
0001
0010
0100
1000
,
0010
0000
0100
0000
0010
1000
0001
1000
,
0200
0000
1300
0001
,
0010
0000
0100
0000
0010
0001
1000
0001
,
0200
0000
0310
1000
,
0200
0000
0000
1300
0002
0000
0000
0000
,
0000
0000
0000
0000
,
0203
0000
0000
0000
,
0310
0100
0001
1000
,
0200
0000
0000
0000
,
0320
0000
0000
0000
,
0032
0000
0000
0000
,
0013
0100
1000
0001
,
0100
0000
0001
1000
0100
0000
0010
0000
,
1000
0010
0100
1000
,
0001
0100
0001
0100
0020
0000
1000
0000
,
0130
0000
0001
0010
,
0100
0010
0001
1000
,
0010
0000
0100
0001
1000
0000
0001
0000
,
1002
0000
0000
0000
,
2003
3000
0002
0003
2000
3000
0000
0000
,
0100
0000
0010
0001
0200
0000
0010
0000
,
1300
0000
0100
0001
1000
0000
0000
0000
,
0010
0000
0100
0001
0020
0000
0100
0000
,
1030
0000
0001
0100
1000
0000
0000
0000
,
1001
0000
1000
0010
0100
0000
0001
0010
,
0001
0000
1000
0100
0010
0000
0001
0000
,
1001
0001
1000
0100
,
0010
0001
0010
0001
1000
0010
1000
0010
,
0100
0000
0010
1000
0200
0000
0010
0000
,
0301
0000
0100
1000
0001
0000
0000
0000
,
0010
0000
0100
1000
0020
0000
0100
0000
,
0031
0000
1000
0100
0001
0000
0000
0000
,
0020
0030
0000
0000
0100
0000
1000
0000
0001
0000
0000
0000
0100
0000
0001
0000
,
0020
0001
0000
0130
2000
0000
3000
0000
,
0020
0030
0000
0000
0100
0000
0001
0000
1000
0000
0000
0000
0100
0000
1000
0000
,
0020
1000
0000
0130
0020
0000
0030
0000
,
0200
0300
0000
0000
0010
0000
1000
0000
0001
0000
0000
0000
0010
0000
0001
0000
,
0200
0010
0000
0301
2000
0000
3001
1000
,
0100
1000
0001
0010
,
0100
1000
0001
0100
,
0010
0000
0000
0100
0001
0000
2000
0000
,
0100
3002
0100
1003
,
0010
0000
0000
1000
0200
0000
1000
0000
,
0310
0000
0001
1000
,
0010
0000
0100
0000
,
0001
0010
0100
1000
,
0002
0000
0000
0000
,
0000
0000
0000
0000
,
0003
0000
0000
0000
,
0000
0000
0000
2000
,
3010
0100
0000
0100
0001
0000
1000
0000
,
0100
0010
0001
1000
0000
1010
0000
0210
,
0000
0000
0310
1000
,
0001
0010
0100
1000
0000
0100
0000
1001
,
0000
1020
0000
0000
0130
0000
0001
0000
,
0100
0010
1000
0001
0000
0011
0000
0210
,
0000
0000
0310
0001
,
1000
0000
0010
0000
0100
0010
1000
0100
;
