#VERSION:0.83;
#TITLE:Buck's Fizz;
#SUBTITLE:;
#ARTIST:わかどり;
#TITLETRANSLIT:;
#SUBTITLETRANSLIT:;
#ARTISTTRANSLIT:*wakadori;
#GENRE:;
#CREDIT:;
#MUSIC:Buck's Fizz.ogg;
#BANNER:Buck's Fizz.png;
#BACKGROUND:Buck's Fizz-bg.png;
#CDTITLE:;
#SAMPLESTART:96.610;
#SAMPLELENGTH:15.000;
#SELECTABLE:YES;
#OFFSET:-0.258;
#BPMS:0.000=142.000;
#STOPS:;
#SPEEDS:0.000=1.000=0.000=0;
#SCROLLS:0.000=1.000;
#TICKCOUNTS:0.000=4;
#TIMESIGNATURES:0.000=4=4;
#LABELS:0.000=Song Start;
#COMBOS:0.000=1;
#ORIGIN:;
#TAGS:;
#PREVIEWVID:;
#JACKET:Buck's Fizz-jacket.png;
#CDIMAGE:;
#DISCIMAGE:;
#BGCHANGES:;
#FGCHANGES:;

//--------------- dance-single - ----------------
#NOTEDATA:;
#STEPSTYPE:dance-single;
#DESCRIPTION:;
#DIFFICULTY:Beginner;
#METER:4;
#RADARVALUES:0.125898,0.170369,0.075973,0,0.030389,116,106,10,0,0,0,0,0,0,0.125898,0.170369,0.075973,0,0.030389,116,106,10,0,0,0,0,0,0;
#CHARTNAME:;
#CHARTHASH:4175957064;
#BANNER:;
#CHARTSTYLE:;
#METERF:0.000000;
#LASTSECONDHINT:126.619034;
#CREDIT:ZSL;
#NOTES:
0000
0000
0000
0000
,
0000
0000
0000
0000
,
0000
0000
0000
0000
,
0000
0000
0000
0000
,
0001
0000
0000
0000
,
0000
0000
0000
0000
,
1000
0000
0000
0000
,
0000
0000
0000
0000
,
0010
0000
0000
0000
,
0100
0000
0000
0000
,
0001
0000
0000
0000
,
1000
0000
0000
0000
,
0100
0000
0000
0000
,
0010
0000
0000
0000
0000
0000
0000
0000
0000
0000
0000
0000
0000
0000
0000
0001
,
0000
0000
0000
0000
0000
0000
0000
1000
0000
0000
0000
0000
0000
0000
0000
0001
,
0000
0000
0000
0000
,
0100
0100
0000
0010
,
0000
1000
0000
0000
,
0000
0001
0000
0010
,
0000
0100
0000
0000
,
1000
1000
0000
0010
,
0000
0100
0000
0000
,
0000
0001
0000
0010
,
0000
0100
0000
0000
,
1000
1000
0000
0001
,
0000
0010
0000
0000
,
0000
0100
0000
1000
,
0000
0010
0000
0000
,
0100
0100
0000
0001
,
0000
1000
0000
0000
,
0100
0010
0000
0001
,
0000
1000
0000
0000
,
0110
0000
0000
0000
,
0110
0000
0000
0000
,
1001
0000
0000
0000
,
0110
0000
0000
0000
,
0110
0000
0000
0000
,
1001
0000
0000
0000
0000
0000
0000
0000
0000
0000
0000
0000
0000
0000
0000
0001
,
0000
0000
0000
0000
0000
0000
0000
1000
0000
0000
0000
0000
0000
0000
0000
0100
,
0000
0000
0000
0000
,
0010
0000
0000
0000
,
0100
0000
0000
0000
,
0010
0000
0000
0000
,
0001
0000
0000
0000
,
1000
0000
0000
0000
,
0010
0000
0000
0000
,
0100
0000
0000
0000
,
0010
0000
0000
0000
,
0110
0000
0000
0000
,
1001
0000
0000
0000
,
1001
0000
0000
0000
,
0110
0000
0000
0000
,
0001
0000
0000
0000
,
1000
0000
0000
0000
0000
0000
0000
0000
0000
0000
0000
0000
0000
0000
0000
0100
,
0000
0000
0000
0000
0000
0000
0000
0000
0000
0000
0000
0000
0000
0000
0000
0010
,
0000
0000
0000
0000
,
0001
0000
0000
0000
,
1000
0010
0000
0100
,
0000
0010
0000
1000
,
0000
0001
0000
0010
,
0000
0100
0000
1000
,
0001
0010
0000
0100
,
0000
0010
0000
0001
,
0000
1000
0000
0010
,
0000
0100
0000
0010
,
1000
0001
0000
0010
,
0000
0001
0000
0100
,
0000
0010
0000
1000
,
0000
0100
0000
1000
,
0010
0100
0000
0001
,
0000
0010
0000
0100
,
0000
1000
0000
0010
,
0000
0100
0000
0001
,
0000
1000
0000
0001
,
0000
0010
0000
0010
;

//--------------- dance-single - ----------------
#NOTEDATA:;
#STEPSTYPE:dance-single;
#DESCRIPTION:;
#DIFFICULTY:Easy;
#METER:8;
#RADARVALUES:0.307147,0.398193,0.098765,0.015195,0.417851,283,270,13,2,0,0,0,0,0,0.307147,0.398193,0.098765,0.015195,0.417851,283,270,13,2,0,0,0,0,0;
#CHARTNAME:;
#CHARTHASH:3670645311;
#BANNER:;
#CHARTSTYLE:;
#METERF:0.000000;
#LASTSECONDHINT:126.830299;
#CREDIT:ZSL;
#NOTES:
0000
0000
0000
0000
,
0000
0000
0000
0000
,
0000
0000
0000
0000
,
0000
0000
0000
0000
,
0001
0000
0000
0000
1000
0000
0000
0001
0000
0000
0000
0000
1000
0000
0000
0010
,
0000
0000
0000
0000
,
0100
0000
0000
0000
0010
0000
0000
1000
0000
0000
0000
0000
0001
0000
0000
0010
,
0000
0100
0100
1000
,
0010
0000
0000
0000
0100
0000
0000
0001
0000
0000
0000
0000
0100
0000
0000
0010
,
0000
0000
0000
0000
1000
0000
0000
0001
0000
0000
0000
0000
0000
0000
0000
0000
,
0001
0000
0000
0000
0100
0000
0000
0010
0000
0000
0000
0000
1000
0000
0000
0001
,
0000
0000
0000
0000
0010
0000
0000
0100
0000
0000
0000
0000
0000
0000
0000
0000
,
0010
0000
0000
0000
0100
0000
0000
1000
0000
0000
0000
0000
0100
0000
0000
0010
,
0000
0000
0000
0000
0001
0000
0000
0100
0000
0000
0000
0000
0000
0000
0000
0101
,
0000
0000
0000
0000
0000
0000
0000
1001
0000
0000
0000
0000
0000
0000
0000
1100
,
0000
1000
1000
0001
,
0100
0000
0000
0000
0010
0000
0000
0000
1000
0000
0000
0001
0000
0000
0000
0010
,
0000
0000
0000
0000
0100
0000
0000
0000
0010
0000
0000
0001
0000
0000
0000
0000
,
0010
0000
0000
0000
0100
0000
0000
0000
1000
0000
0000
0001
0000
0000
0000
0100
,
0000
0000
0000
0000
0010
0000
0000
0000
1000
0000
0000
1000
0000
0000
0000
0000
,
0001
0000
0000
0000
0010
0000
0000
0000
0100
0000
0000
0010
0000
0000
0000
0001
,
0000
0000
0000
0000
1000
0000
0000
0010
0000
1000
0000
0010
0000
0000
0000
0100
,
0000
0000
0000
0000
0001
0000
0000
1000
0000
0100
0000
1000
0000
0000
0000
0001
,
0000
0000
0000
0000
0100
0000
0000
0010
0000
0100
0000
0010
0000
0000
0000
0000
,
1000
0000
0000
0000
0100
0000
0000
0000
0010
0000
0000
0001
0000
0000
0000
0010
,
0000
0000
0000
0000
0100
0000
0000
0000
1000
0000
0000
0010
0000
0000
0000
0000
,
0100
0000
0000
0000
0010
0000
0000
0000
1000
0000
0000
0001
0000
0000
0000
0010
,
0000
0000
0100
0000
0010
0000
0000
0010
0000
0000
0000
0000
0001
0000
0000
0000
,
0100
0000
0000
0000
0010
0000
0000
0000
1000
0000
0000
0001
0000
0000
0000
0010
,
0000
0000
0000
0000
0100
0000
0000
1000
0000
0001
0000
0100
0000
0000
0000
0010
,
0000
0000
0000
0000
0100
0000
0000
0010
0000
1000
0000
0001
0000
0000
0000
0010
,
0000
0000
0000
0100
0000
1000
0000
0010
0000
0000
0000
0000
0000
0000
0000
0000
,
1010
0000
0000
1000
0000
0000
0000
0000
0000
0000
0001
0000
0000
1000
0000
0100
,
0000
0010
0000
0001
,
0011
0000
0000
0010
0000
0000
0000
0000
0000
0000
0001
0000
0000
1000
0000
0010
,
0000
0100
0000
0010
,
1000
0000
0000
1001
0000
0000
0000
0000
0000
0000
0001
0000
0000
0010
0000
0100
,
0000
0000
0000
0000
0010
0000
0000
0000
0000
0000
0000
0000
0001
0000
0000
0001
,
0000
0000
0000
0000
1000
0000
0000
1000
0000
0000
0000
0000
0010
0000
0000
0010
,
0000
0100
0100
0001
,
1000
0000
0000
0000
0000
0000
0000
0010
0000
0000
0000
0000
0000
0000
0000
0000
,
1000
0000
0000
0000
0000
0000
0000
0001
0000
0000
0000
0000
0000
0000
0000
0000
,
0010
0000
0000
0000
0000
0000
0000
0001
0000
0000
0000
0000
0000
0000
0000
0000
,
0010
0000
0000
0000
0000
0000
0000
0100
0000
0000
0000
0000
0000
0000
0000
0000
,
1000
0000
0000
0000
0000
0000
0000
0001
0000
0000
0000
0000
0000
0000
0000
0000
,
0100
0000
0000
0000
0000
0000
0000
0010
0000
0000
0000
0000
0000
0000
0000
0000
,
1000
0000
0000
0000
0000
0000
0000
0001
0000
0000
0000
0000
0000
0000
0000
0000
,
0010
0000
0000
0000
0000
0000
0000
0100
0000
0000
0000
0000
0000
0000
0000
0000
,
0010
0000
0000
0000
0000
0001
0000
1000
,
0001
0000
0000
0100
0000
0000
0000
0000
0000
0000
0010
0000
0000
0100
0000
0000
,
0001
0000
0100
0000
0000
0000
0000
0000
0000
0000
0010
0000
0000
1000
0000
0000
,
0001
0000
0000
0010
0000
0000
0000
0000
0000
0000
0000
0000
0000
0000
0000
0000
,
0110
0000
0000
0000
,
1000
0000
0000
0000
0000
0000
0000
0000
0000
0000
0000
0000
0000
0000
0000
1001
,
0000
0000
0000
0000
0000
0000
0000
0000
0000
0000
0000
0000
0000
0000
0000
0110
,
0000
0000
0000
0000
,
0001
0000
0000
1000
0000
0000
0000
0010
0000
0000
0000
1000
0000
0000
0000
0000
,
0001
0000
0000
0000
0010
0000
0000
0001
0000
0000
0010
0000
0100
0000
0000
1000
,
0000
0000
0001
0000
1000
0000
0000
0010
0000
0000
0100
0000
0010
0000
0000
2000
,
0000
0000
0000
0000
3001
0000
0000
0010
0000
0000
0100
0000
0010
0000
0000
0001
,
0000
1000
0001
0000
0100
0000
0100
0010
,
1000
0000
0000
0000
0010
0000
0000
1000
0000
0000
0010
0000
0100
0000
0000
0001
,
0000
0000
1000
0000
0001
0000
0000
0010
0000
0000
0100
0000
0010
0000
0000
0000
,
0001
0000
0000
0000
1000
0000
0000
0010
0000
0000
0100
0000
0010
0000
0000
1000
,
0000
0001
1000
0000
0100
0000
0100
0010
,
0001
0000
0000
0000
0100
0000
0000
0010
0000
0000
0100
0000
0001
0000
0000
0010
,
0000
0000
0100
0000
1000
0000
0000
0100
0000
0000
0010
0000
0001
0000
0000
2000
,
0000
0000
0000
0000
3010
0000
0000
0100
0000
0000
0001
0000
1000
0000
0000
0100
,
0000
0010
0100
0000
0010
0000
0010
0001
,
1000
0000
0000
0000
0100
0000
0000
0010
0000
0000
0100
0000
1000
0000
0000
0010
,
0000
0000
0100
0000
0001
0000
0000
1000
0000
0000
0100
0000
0010
0000
0000
0110
,
0000
0000
0000
0000
0001
0000
0000
1001
0000
0000
0000
0000
1000
0000
0000
1000
,
0000
0000
0000
0000
0010
0000
0000
0010
0000
0000
0000
0000
0100
0000
0000
0101
,
0000
0000
0000
0000
0010
0000
0000
1010
0000
0000
0000
0000
1000
0000
0000
1000
,
0000
0000
0001
0000
0001
0000
0010
0010
;

//--------------- dance-single - ----------------
#NOTEDATA:;
#STEPSTYPE:dance-single;
#DESCRIPTION:;
#DIFFICULTY:Medium;
#METER:12;
#RADARVALUES:0.46452,0.511962,0.098765,0,0.668561,428,415,13,0,0,0,0,0,0,0.46452,0.511962,0.098765,0,0.668561,428,415,13,0,0,0,0,0,0;
#CHARTNAME:;
#CHARTHASH:2254665777;
#BANNER:;
#CHARTSTYLE:;
#METERF:0.000000;
#LASTSECONDHINT:126.830299;
#CREDIT:ZSL;
#NOTES:
0000
0000
0000
0000
,
0000
0000
0000
0000
,
0000
0000
0000
0000
,
0000
0000
0000
0000
,
0001
0000
0000
0000
1000
0000
0000
0010
0000
0000
1000
0000
0001
0000
0000
0010
,
0000
0100
0000
0000
0000
0000
0000
0000
,
1000
0000
0000
0000
0100
0000
0000
0010
0000
0000
0001
0000
0010
0000
0000
0100
,
0000
0000
1000
0000
1000
0000
0001
1000
,
0010
0000
0000
0000
0100
0000
0000
0001
0000
0000
1000
0000
0100
0000
0000
0010
,
0000
0000
0100
0000
1000
0000
0000
0001
0000
0000
0000
0000
0000
0000
1000
0000
,
0010
0000
0000
0000
0100
0000
0000
0001
0000
0000
1000
0000
0010
0000
0000
1000
,
0000
0000
0100
0000
0010
0000
0000
0001
0000
0000
0000
0000
0000
0000
0000
0000
,
0010
0000
0000
0000
0100
0000
0000
1000
0000
0000
0001
0000
0100
0000
0000
0010
,
0000
0000
1000
0000
0100
0000
0000
0010
0000
0000
0000
0000
0100
0000
0000
1100
,
0000
0000
0000
0000
1000
0000
0000
1001
0000
0000
0001
0000
0010
0000
0000
0001
,
0000
0100
0010
0000
0010
0000
0100
0100
,
0001
0000
0000
0000
1000
0000
0000
0000
0100
0000
0000
0010
0000
0100
0000
0010
,
0000
0000
0100
0000
1000
0000
0001
0000
0100
0000
0000
0100
0000
0000
0000
0000
,
0010
0000
0000
0000
1000
0000
0000
0000
0100
0000
0000
0010
0000
0001
0000
0010
,
0000
0000
0100
0000
0010
0000
0001
0000
0100
0001
0000
0001
0000
0000
1000
0000
,
0010
0000
0100
0000
0001
0000
1000
0000
0100
0000
0000
1000
0000
0001
0000
0100
,
0000
0000
0010
0000
1000
0000
0000
0001
0000
0010
0000
0100
0000
1000
0000
0010
,
0000
0000
1000
0000
0001
0000
0000
0100
0000
0010
0000
1000
0000
0001
0000
0010
,
0000
0000
0100
0000
1000
0000
0000
0100
0000
0010
0000
0001
0000
0000
0000
0000
,
0100
0000
0000
0000
0010
0000
0100
0000
0001
0000
0000
0100
0000
0010
0000
1000
,
0000
0000
0001
0000
0010
0000
0001
0000
0100
0000
0000
0010
0000
0000
1000
0000
,
0001
0000
0100
0000
0010
0000
1000
0000
0100
0000
0000
1000
0000
0001
0000
0100
,
0000
0000
0001
0000
0010
0000
0000
0100
0000
1000
0000
0010
0000
0000
0100
0000
,
0010
0000
1000
0000
0001
0000
0010
0000
0100
0000
0000
1000
0000
0001
0000
0100
,
0000
0000
0010
0000
1000
0000
0000
0100
0000
0010
0000
0100
0000
1000
0000
0001
,
0000
0000
0100
0000
0010
0000
0000
0100
0000
0001
0000
0010
0000
0100
0000
0100
,
0000
0000
1000
0001
0000
1000
0000
0010
0000
0000
0000
0000
0100
0000
0000
0000
,
1001
0000
0000
1000
0000
0000
0000
0000
0100
0000
0100
0000
0000
0010
0000
0100
,
0000
0000
1000
0000
0001
0000
0000
0000
0100
0000
0000
0010
1000
0000
0000
0000
,
0001
0000
0000
0011
0000
0000
0010
0000
0100
0000
0100
0000
0000
1000
0000
0001
,
0000
0000
0100
0000
0010
0000
0000
0100
0000
0001
0000
1000
0000
0000
0000
0000
,
0100
0000
0000
0110
0000
0000
0000
0000
0010
0000
0010
0000
0000
0001
0000
0100
,
0000
0000
0010
0000
1000
0000
0000
0000
0100
0000
0000
0010
0000
0001
0000
1000
,
0000
0000
0000
0000
0010
0000
0000
1010
0000
0000
0000
0000
1000
0000
0000
1100
,
0000
0100
0010
0000
0010
0000
0100
0100
,
1000
0000
0000
0000
0001
0000
0000
1000
0000
0000
0000
0000
0010
0000
0000
0000
,
0100
0000
0000
0010
0000
0000
0000
1000
0000
0001
0000
1000
0000
0000
0000
0000
,
0100
0000
0000
0000
0010
0000
0000
0001
0000
0000
0000
0000
1000
0000
0000
0000
,
0010
0000
0000
0100
0000
0001
0000
0100
0000
0000
0000
0000
0000
0000
0000
0000
,
0001
0000
0000
0000
1000
0000
0000
0001
0000
0000
0000
0000
0010
0000
0000
0000
,
0100
0000
0000
0010
0000
0000
0000
0001
0000
1000
0000
0001
0000
0000
0000
0000
,
0100
0000
0000
0000
0010
0000
0000
1000
0000
0000
0000
0000
0001
0000
0000
0000
,
0010
0000
0000
0000
0100
0000
0000
1000
0000
0000
0000
0000
0000
0000
0001
0000
,
0001
0000
0000
0000
0100
0000
0000
0010
0000
0000
0100
0000
0001
0000
0000
0000
,
1000
0000
0000
0100
0000
1000
0000
0100
0000
0010
0000
0001
0000
0000
0000
0000
,
0100
0000
0000
0000
0010
0000
0000
1000
0000
0000
0001
0000
0010
0000
0000
0000
,
0100
0000
0000
0010
0000
0001
0000
0100
0000
0010
0000
1000
0000
0000
0000
0000
,
0001
0000
0000
0000
1000
0000
0000
0100
0000
0000
0000
0000
0010
0000
0000
0000
,
0001
0000
0000
1000
0000
0000
0000
0010
0000
0100
0000
0010
0000
0000
0000
0110
,
0000
0000
0000
0000
0000
0000
0000
1001
0000
0000
0000
0000
0000
0000
0000
0110
,
0000
0000
0000
0000
0000
0000
0000
0001
0000
0000
0000
0000
0000
0000
0000
0000
,
1000
0000
0000
0100
0000
0010
0000
0100
0000
1000
0000
0010
0000
0000
0100
0000
,
0001
0000
0000
0000
0100
0000
0010
1000
0000
0000
0010
0000
1000
0000
0001
0010
,
0000
0000
0100
0000
0010
0000
0001
1000
0000
0000
0010
0000
0100
0000
0001
0010
,
0000
0000
0100
0000
1000
0000
0100
0010
0000
0001
0000
1000
0000
1000
0000
0010
,
0000
0000
0100
0000
0001
0100
0000
0010
0000
0000
1000
0000
0001
0000
0000
0000
,
1000
0000
0000
0000
0100
0000
0010
0001
0000
0000
0010
0000
0001
0000
1000
0010
,
0000
0000
0100
0000
0010
0000
1000
0001
0000
0000
0010
0000
0100
0000
1000
0000
,
0010
0000
0100
0000
0001
0000
0100
0010
0000
1000
0000
0001
0000
0001
0000
0010
,
0000
0000
0100
0000
1000
0100
0000
0010
0000
0000
0001
0000
0100
0000
0000
0000
,
0010
0000
0000
0000
1000
0000
0100
0010
0000
0000
0100
0000
1000
0000
0010
0100
,
0000
0000
0001
0000
0010
0000
0100
1000
0000
0000
0100
0000
0010
0000
0001
0100
,
0000
0000
0010
0000
0010
0000
1000
0010
0000
0100
0000
0001
0000
0001
0000
0010
,
0000
0000
0100
0000
1000
0001
0000
0100
0000
0000
0010
0000
1000
0000
0000
0000
,
0100
0000
0000
0000
0010
0000
0100
1000
0000
0000
0010
0000
0010
0100
0000
0100
,
0000
0000
0001
0000
1000
0000
0100
0010
0000
0000
0100
0000
1000
0010
0000
0010
,
0000
0000
0100
0000
0001
0000
0001
1000
0000
1000
0000
0100
0000
0100
0000
0010
,
0000
0000
0100
0000
1000
0100
0000
0010
0000
0000
0001
0000
0100
0010
0000
0110
,
0000
0000
0000
0000
1000
0000
0000
1001
0000
0000
0001
0000
0010
0000
0000
0110
,
0000
0100
0100
0000
1000
1000
0001
0001
;

//--------------- dance-single - ----------------
#NOTEDATA:;
#STEPSTYPE:dance-single;
#DESCRIPTION:;
#DIFFICULTY:Hard;
#METER:14;
#RADARVALUES:0.643598,0.626253,0.136751,0.189932,1.052224,593,575,18,25,0,0,0,0,0,0.643598,0.626253,0.136751,0.189932,1.052224,593,575,18,25,0,0,0,0,0;
#CHARTNAME:;
#CHARTHASH:527602728;
#BANNER:;
#CHARTSTYLE:;
#METERF:0.000000;
#LASTSECONDHINT:126.935936;
#CREDIT:ZSL;
#NOTES:
0000
0000
0000
0000
,
0000
0000
0000
0000
,
0000
0000
0000
0000
,
0000
0000
0000
0000
,
0001
0000
0000
0000
0100
0000
0010
1000
0000
0000
0001
0000
1000
0100
0000
0010
,
0000
0100
0000
0000
0000
0000
0000
0000
,
1000
0000
0000
0000
0001
0000
0100
0010
0000
0000
0100
0000
0001
1000
0000
0002
,
0000
0000
1003
0000
0001
0000
0001
0000
1000
0000
1000
0000
0010
0000
0100
0001
,
1000
0000
0000
0000
0100
0000
0010
0100
0000
0000
1000
0000
0010
1000
0000
0100
,
0000
0000
0010
0000
0001
0100
0000
0010
0000
0100
0000
0010
0000
1000
0001
0000
,
0010
0000
0100
0000
0010
0001
0000
0100
0000
0000
0001
0000
0010
0100
0000
1000
,
0000
0000
0001
0000
0100
0010
0000
0001
0000
0010
0000
0100
0000
0001
1000
0000
,
0100
0000
0000
0000
0010
0000
0100
1000
0000
0000
0010
0000
0100
0001
0000
0010
,
0000
0000
0100
0000
0001
0100
0000
2000
0000
0000
3100
0000
0010
0000
0001
0100
,
0000
0000
0010
0000
0100
0001
0000
0010
0000
0000
0100
0000
1000
0001
0000
0100
,
0000
0000
0010
0000
0100
0000
0100
0000
0010
0000
0010
0000
1000
0000
0010
1000
,
0001
0000
0000
0000
0010
0000
0000
0001
1000
0001
0000
0100
0000
0010
0000
1000
,
0000
0100
0010
0100
1000
0000
0100
0000
0010
0001
0000
0010
0000
0000
0001
0000
,
1000
0000
0000
0000
0010
0000
0000
1000
0001
1000
0000
0100
0000
0010
0000
0001
,
0000
0100
0010
0100
0001
0000
0010
0000
1000
0010
0000
0100
0000
1000
0001
0000
,
0100
0000
0010
0000
0010
0000
1000
0000
0100
1000
0000
0010
0000
0100
0000
0001
,
0000
0100
0010
1000
0001
1000
0000
0100
0000
0010
0000
0010
0000
0001
0000
0100
,
0000
0000
0010
0000
1000
0010
1000
0001
0000
0010
0000
0100
0000
1000
0000
0010
,
0000
0000
0100
0000
0001
0100
0001
1000
0000
0100
0000
0010
0000
0000
0100
0000
,
0110
0000
0000
0000
1000
0000
0010
0000
0100
0010
0000
1000
0000
0001
0000
0010
,
0000
0000
0100
0000
0010
0000
0001
0000
1000
0010
0000
1000
0000
0001
1000
0000
,
0100
0000
0010
0000
0010
0000
0001
0000
0100
0010
0000
0100
0000
0001
0000
0010
,
0000
0000
0100
1000
0100
0010
0000
2000
0000
3010
0100
1000
0000
0001
1000
0000
,
0010
0000
0100
0000
0100
0000
0001
0000
1000
0100
0000
1000
0000
0001
0000
0100
,
0000
0010
0100
0010
1000
0001
0000
0010
0000
0100
0000
0100
0000
1000
0000
0010
,
0000
0000
0100
0000
0001
1000
0001
0010
0000
0100
0000
1000
0000
0010
0000
0002
,
0000
0000
0013
1000
0000
0001
0000
0020
0000
0000
0000
0000
0031
0000
0001
0000
,
1001
0000
0000
1000
0000
0000
0010
0000
0100
0000
0101
0000
0001
1000
0000
0200
,
0000
0000
0310
0000
0001
0000
1000
0000
0010
1000
0000
0001
0100
0000
0001
0000
,
0010
0000
0000
0011
0000
0000
0001
0000
1000
0000
1010
0000
0010
0100
0000
2000
,
0000
0000
3100
0000
0010
1000
0000
0100
0000
0010
0001
0020
0000
0000
0031
0000
,
1000
0000
0000
1100
0000
0000
0100
0000
0010
0000
0011
0000
0001
0100
0000
0020
,
0000
0000
1030
0000
0001
0000
0010
0000
1000
0010
0000
0001
0000
1000
0100
2000
,
0000
0000
0000
0000
3100
0010
0000
0002
0000
0000
0000
0000
1003
0010
0000
0002
,
0000
0013
1000
1000
0001
0001
0100
0010
,
1000
0000
0000
0000
0001
0000
1000
0100
0000
0000
1000
0000
0010
0000
0100
0000
,
0010
0000
0000
1000
0000
0001
0000
0010
0000
0100
0000
1000
0100
0000
0000
0000
,
0010
0000
0000
0000
0001
0000
1000
0010
0000
0000
0100
0000
0010
0000
1000
0000
,
0100
0000
0000
0010
0000
0001
1000
0001
0000
0000
0000
0000
0000
0000
0100
0000
,
0001
0000
0000
0000
1000
0000
0001
0100
0000
0000
0010
0000
1000
0000
0001
0000
,
0010
0000
0100
1000
0000
0001
0000
1000
0000
0010
0000
0100
0001
0000
0000
0000
,
1000
0000
0000
0000
0100
0000
0010
0001
0000
0000
0010
0000
0100
0000
1000
0000
,
0020
0000
0000
0000
0130
0000
0000
0002
0000
0000
0000
0000
0000
0000
1003
0000
,
1100
0000
0000
0000
0100
0000
0010
0100
0000
0010
0001
0000
1000
0000
0010
0000
,
0100
0000
0010
1000
0000
0001
0000
0010
0000
0010
0000
0100
0000
1000
0001
0000
,
0100
0000
0100
0000
0001
0010
0000
0100
0000
0010
0001
0000
1000
0010
0000
0000
,
0100
0000
0010
1000
0000
0001
0000
0010
0000
0100
0000
1000
0001
0000
0000
0000
,
0101
0000
0000
0000
0100
0000
0010
1000
0000
0000
0010
0000
0100
0000
0001
0000
,
1000
0000
0000
0100
0000
0010
0000
0001
0000
1000
0000
0010
0000
0010
0000
0110
,
0000
0000
0000
0000
0100
0000
0000
1001
0000
0000
0000
0000
0010
0000
0000
1002
,
0000
0000
0000
0000
0000
0000
0000
2003
0000
0000
0000
0000
0000
0000
0000
0000
,
3001
0000
0000
0010
0000
0100
0000
0010
0000
0100
0000
1000
0000
0000
0001
0000
,
0101
0000
0000
1000
0100
1000
0000
0020
0000
0000
0130
0000
0010
0100
0001
2000
,
0000
0000
3100
0000
0010
0001
0010
0100
0000
1000
0000
0001
0000
0100
0010
0002
,
0000
0000
0013
0000
1000
0001
1000
0100
0000
0010
0000
0001
1000
0010
0000
0100
,
0000
0000
1000
0100
0000
0010
0000
1000
0000
0000
0001
0000
0010
0000
0100
0000
,
1100
0000
0000
0001
0100
0001
0000
0020
0000
0000
0130
0000
0010
0100
1000
0002
,
0000
0000
0103
0000
0010
1000
0010
0100
0000
0001
0000
1000
0000
0100
0010
0000
,
1000
0000
0010
0000
0001
1000
0010
0100
0000
0000
0001
0000
1000
0001
0000
0010
,
0000
0000
0100
0000
1000
0100
0010
0001
0000
1000
0000
0010
0000
0100
0001
0000
,
0010
0000
0000
0100
1000
0001
0000
0200
0000
0000
0310
0000
1000
0001
0010
0200
,
0000
0000
0310
0000
0100
1000
0001
0100
0000
0010
0000
0100
0000
0001
0100
2000
,
0000
0000
3100
0000
0001
1000
0100
0020
0000
0000
0031
0000
1000
0010
0000
0100
,
0010
0000
1000
0000
0100
0010
0000
0001
0000
0000
1000
0000
0001
0000
0100
0000
,
0110
0000
0000
0010
1000
0100
0000
0010
0000
0100
1000
0000
0010
0100
0000
0101
,
0000
0000
0001
0000
0010
0100
1000
0010
0000
0100
0000
0001
0000
1000
0100
0001
,
0000
0000
0100
0000
0010
0001
1000
0010
0000
0100
0000
0001
0000
0100
0000
0010
,
0000
1000
0100
1000
0010
0100
0000
0001
0000
1000
0000
0001
0100
0010
0000
1010
,
0000
0000
0000
1000
0001
0010
0000
0110
0000
0000
1000
0000
0001
1000
0000
0010
,
0000
0000
0100
0000
0001
0000
0001
0000
1000
0000
1000
0000
0100
0010
0100
0010
;

//--------------- dance-single - ----------------
#NOTEDATA:;
#STEPSTYPE:dance-single;
#DESCRIPTION:;
#DIFFICULTY:Challenge;
#METER:16;
#RADARVALUES:0.7988,0.853982,0.174737,0.091167,1.386504,736,713,23,12,0,0,0,0,0,0.7988,0.853982,0.174737,0.091167,1.386504,736,713,23,12,0,0,0,0,0;
#CHARTNAME:;
#CHARTHASH:1555972652;
#BANNER:;
#CHARTSTYLE:;
#METERF:0.000000;
#LASTSECONDHINT:126.935936;
#CREDIT:ZSL;
#NOTES:
0000
0000
0000
0000
,
0000
0000
0000
0000
,
0000
0000
0000
0000
,
0000
0000
0000
0000
,
0001
0000
0000
0000
0100
0010
1000
0010
0000
0000
0100
0000
0001
1000
0000
0100
,
0000
0010
0100
0000
0000
0000
1000
0000
,
0001
0000
0000
0000
0010
0100
1000
0001
0000
0000
0100
0000
0010
0100
0000
0002
,
0000
0000
1003
0000
0001
0000
0001
0000
0001
0000
0001
0000
1000
0100
0010
0001
,
0100
0000
0000
0010
0100
0001
1000
0010
0000
0000
1000
0000
0100
0010
0000
1000
,
0000
0000
0010
0000
0100
1000
0000
0010
0000
1000
0000
0001
0000
0100
0010
0100
,
0001
0000
1000
0000
0010
0100
0000
1000
0000
0000
0100
0000
0010
1000
0000
0100
,
0000
0000
1000
0000
0001
0010
0000
1000
0000
0010
0000
0100
0000
1000
0001
1000
,
0010
0000
0000
0100
0010
1000
0001
0100
0000
0000
0001
0000
0010
0100
0000
0001
,
0000
0000
0100
0000
1000
0010
0000
0002
0000
0000
0013
0000
0100
0010
1000
0100
,
0000
0000
0010
0000
0100
1000
0000
1001
0000
0000
0001
0000
0100
0010
0000
0110
,
0000
0000
0100
0000
0010
0000
0010
0000
0010
0000
0010
0000
1000
0001
0010
0100
,
1000
0000
0000
0000
1001
0000
0000
1000
0001
0010
0001
1000
0000
0010
0000
0100
,
0000
0010
0100
0001
1000
0000
0100
1000
0010
0100
0000
0001
0000
1000
0100
0000
,
1000
0000
0000
0000
1001
0000
0000
0001
1000
0010
1000
0001
0000
0010
0000
0100
,
0000
0010
0100
1000
0001
1000
0010
0100
1000
0100
0000
0010
0000
1000
0001
0000
,
0010
0000
0100
0000
0010
0000
0001
0010
0100
1000
0001
1000
0000
0001
0000
0100
,
0001
1000
0001
0100
0010
1000
0000
0100
0000
0010
0000
0100
0000
1000
0001
0100
,
0000
0000
0001
1000
0100
0010
0001
0100
0000
0010
0000
1000
0001
0010
0000
0100
,
0000
1000
0010
1000
0001
0010
0100
0001
0000
0100
1000
0001
0000
1000
0010
0000
,
0110
0000
0000
0000
0100
0000
0001
0100
0010
1000
0001
1000
0000
0001
0000
0010
,
0000
0000
0100
0000
1000
0100
0010
0000
0100
1000
0001
0100
0000
0010
0100
0000
,
0010
0000
1000
0000
1000
0000
0100
1000
0001
0010
0000
0100
0000
1000
0000
0001
,
0000
1000
0010
0100
0001
0100
0010
0001
0000
0010
0100
0001
1000
0100
0010
0000
,
0100
0000
0010
0000
0010
0000
0001
1000
0010
0100
0010
1000
0000
0100
0000
0001
,
0000
0100
0010
0001
1000
0001
0000
0100
0000
0010
0000
1000
0000
0100
0000
1000
,
0001
0100
0010
0000
0100
0001
1000
0100
0000
0010
0000
0001
0000
0100
0000
2000
,
0000
0000
3100
0001
0000
0010
0000
2000
0000
0000
3010
0000
0100
0000
0100
0000
,
1001
0000
0000
1001
0000
0000
1000
0000
0010
0000
0110
0000
0100
0001
0000
0010
,
0100
0000
1000
0000
0010
0000
0100
0010
1000
0001
0000
0010
0100
0010
0001
0000
,
1000
0000
0000
1001
0000
0000
0001
0000
0010
0000
0110
0000
0100
0010
0000
2000
,
0000
0000
3010
0000
0100
1000
0001
0100
0000
0010
1000
0001
0000
0010
0001
0000
,
0100
0000
0000
0110
0000
0000
0010
0000
1000
0000
1100
0000
0100
0010
0000
0001
,
0000
0000
1000
0000
0100
0000
0010
0100
0001
0100
0000
0010
0001
1000
0010
0200
,
0000
0000
0310
0000
1000
0001
0000
1001
0000
0000
1000
0000
0100
0010
0000
1001
,
0000
0000
0001
0000
1000
0000
1000
0000
1000
0000
1000
0000
0001
0100
0001
0100
,
0010
0000
0000
0100
0001
0000
1000
0100
0000
0000
1000
0000
0100
0000
0100
0000
,
0010
0000
0001
1000
0000
0001
0000
0100
0000
0010
0000
0100
0001
0000
0001
0000
,
1000
0000
0000
0010
1000
0000
0001
0010
0000
0000
0100
0000
1000
0000
1000
0000
,
0001
0000
0100
0010
0000
0100
0001
1000
0000
0000
0000
0000
0000
0001
1000
0001
,
0010
0000
0000
0100
1000
0000
0001
0100
0000
0000
0010
0000
1000
0000
1000
0000
,
0001
0000
0010
0001
0000
1000
0000
0010
0000
0100
0000
0001
0100
0000
0100
0000
,
0001
0000
0000
1000
0001
0000
0010
0100
0000
0000
1000
0000
0001
0000
0001
0000
,
0020
0000
0000
0000
0031
0000
0000
0200
0000
0000
0000
0000
0310
1000
0010
1000
,
0100
0000
0000
0010
0100
1000
0001
0100
0000
0001
0010
0001
1000
0010
0100
0000
,
0010
0000
1000
0100
0000
1000
0000
0001
0000
0001
0010
0100
0000
1000
0001
0000
,
0100
0000
0100
0001
1000
0010
0000
0100
0000
0001
0010
0000
0100
1000
0001
0000
,
0100
0000
0001
1000
0000
0100
0000
0001
0000
0100
0010
0001
0100
0000
0001
0000
,
1001
0000
0000
1000
0001
0000
1000
0010
0000
0000
0100
0000
0001
0000
1000
0000
,
0100
0000
0010
0100
0000
1000
0000
0010
0000
0100
0000
0001
0000
0001
0000
1001
,
0000
0000
1000
0000
0100
1000
0000
1100
0000
0000
0001
0000
0100
0001
0000
0102
,
0000
0000
0000
0000
0000
0000
0000
2003
0000
0000
0000
0000
0000
0000
0000
0000
,
3010
0000
0000
0100
0000
0010
0000
1000
0000
0100
0000
0010
0001
0000
1000
0000
,
1001
0000
0000
0001
0010
0100
1000
0001
0000
1000
0010
1000
0001
0010
0100
0001
,
0000
0100
0010
0100
1000
0001
0100
0010
0000
0100
0001
0010
0001
1000
0010
0200
,
0000
0000
0000
0000
0000
0000
0301
0000
1000
0000
0001
0000
1000
0000
0000
0100
0000
0000
0010
0000
0000
1000
0000
0000
0000
0000
0000
0010
0000
0000
0100
0000
0000
1000
0000
0000
0001
0000
0000
0100
0000
0000
0000
0000
0000
0010
0000
0000
,
0000
0100
1000
0100
0000
0010
0000
1000
0001
0000
0010
0000
0100
0010
0100
0010
,
0001
0000
0000
1000
0010
0100
0001
1000
0000
0001
0010
0001
1000
0010
0100
1000
,
0000
0100
0010
0100
0001
1000
0100
0010
0000
0100
1000
0010
0100
0001
0010
0100
,
1000
0000
0000
0000
0000
0000
0010
0000
1000
0000
0010
0000
1000
0000
0000
0001
0000
0000
1000
0000
0000
0010
0000
0000
0000
0000
0000
0100
0000
0000
0001
0000
0000
0100
0000
0000
0001
0000
0000
0010
0000
0000
0000
0000
0000
0100
0000
0000
,
0000
1000
0001
0010
0001
1000
0010
1000
0000
0001
0100
0001
0000
0010
0001
1000
,
0010
0000
0000
1000
0100
0010
0001
0100
0000
0001
0100
0010
1000
0001
0010
1000
,
0000
0010
0100
0010
0001
1000
0010
0100
0000
0001
0100
0010
1000
0001
0010
0200
,
0000
0000
0000
0000
0000
0000
0310
0000
0001
0000
0010
0000
0001
0000
0000
1000
0000
0000
0001
0000
0000
0100
0000
0000
0000
0000
0000
1000
0000
0000
0100
0000
0000
0010
0000
0000
1000
0000
0000
0001
0000
0000
0000
0000
0000
0010
0000
0000
,
0000
0001
0100
0010
0100
0001
0000
1000
0000
0001
1000
0100
0010
0100
1000
0001
,
0100
0000
0000
0001
0010
0100
1000
0100
0000
1000
0010
0000
0100
0001
0000
0011
,
0000
0000
0010
0000
0001
0100
0010
0001
0000
0010
0100
0010
0000
0001
0010
1000
,
0000
0000
0000
0000
0000
0000
0100
0000
1000
0000
0100
0000
1000
0000
0000
0100
0000
0000
0010
0000
0000
0001
0000
0000
0000
0000
0000
1000
0000
0000
0001
0000
0000
1000
0000
0000
0010
0000
0000
0100
0000
0000
0000
0000
0000
0101
0000
0000
,
0000
0000
0000
0001
0000
0100
0000
0001
0000
0100
0000
0000
0001
0000
0000
1000
0000
0000
0100
0000
0000
0010
0000
0000
0000
0000
0000
0100
0000
0000
1000
0000
0000
0001
0000
0000
0100
0000
0000
0010
0000
0000
0000
0000
0000
1010
0000
0000
,
0000
0000
0000
0000
0000
0000
1000
0001
1000
0000
0001
0000
0000
0000
0011
0000
0000
0000
0000
0000
0010
0000
0000
0000
0100
0000
1000
0000
0000
0000
0010
0000
,
0000
0000
0100
0000
0001
0000
0001
0000
0001
0000
0001
0000
1000
0100
0001
0100
;
