#VERSION:0.83;
#TITLE:ALL☆NIGHTER!;
#SUBTITLE:;
#ARTIST:Turbo ft. Moon Jelly;
#TITLETRANSLIT:;
#SUBTITLETRANSLIT:;
#ARTISTTRANSLIT:;
#GENRE:;
#CREDIT:;
#MUSIC:ALL NIGHTER!.ogg;
#BANNER:ALL NIGHTER!.png;
#BACKGROUND:ALL NIGHTER!-bg.png;
#CDTITLE:;
#SAMPLESTART:35.130;
#SAMPLELENGTH:15.000;
#SELECTABLE:YES;
#OFFSET:-0.025;
#BPMS:0.000=175.000;
#STOPS:;
#SPEEDS:0.000=1.000=0.000=0;
#SCROLLS:0.000=1.000;
#TICKCOUNTS:0.000=4;
#TIMESIGNATURES:0.000=4=4;
#LABELS:0.000=Song Start;
#COMBOS:0.000=1;
#ORIGIN:;
#TAGS:;
#PREVIEWVID:;
#JACKET:ALL NIGHTER!-jacket.png;
#CDIMAGE:;
#DISCIMAGE:;
#BGCHANGES:;
#FGCHANGES:;

//--------------- dance-single - ----------------
#NOTEDATA:;
#STEPSTYPE:dance-single;
#DESCRIPTION:;
#DIFFICULTY:Beginner;
#METER:4;
#RADARVALUES:0.132592,0.143789,0,0.007308,0,127,127,0,1,0,0,0,0,0,0.132592,0.143789,0,0.007308,0,127,127,0,1,0,0,0,0,0;
#CHARTNAME:;
#CHARTHASH:1903960912;
#BANNER:;
#CHARTSTYLE:;
#METERF:0.000000;
#LASTSECONDHINT:134.939270;
#CREDIT:ZSL;
#NOTES:
0000
0000
0000
0000
,
0000
0000
0000
0000
,
0001
0000
0000
0000
,
0010
0000
0000
0000
,
0100
0000
0000
0000
,
0010
0000
0000
0000
,
0001
0000
0000
0000
,
1000
0000
0000
0000
,
0010
0000
0000
0000
,
1000
0000
0000
0000
,
0001
0000
0001
0000
,
0000
0000
0000
0000
,
1000
0000
1000
0000
,
0000
0000
0000
0000
,
0100
0000
0100
0000
,
0000
0000
0000
0000
,
0010
0000
0010
0000
,
0001
0000
0000
0000
,
1000
0000
0000
0000
,
0001
0000
0000
0000
,
1000
0000
0000
0000
,
0001
0000
0000
0000
,
0100
0000
0000
0000
,
0010
0000
0000
0000
,
1000
0000
0010
0000
,
1000
0000
0000
0000
,
0001
0000
1000
0000
,
0001
0000
0000
0000
,
1000
0000
0100
0000
,
0010
0000
0000
0000
,
0100
0000
0010
0000
,
0001
0000
0000
0000
,
1000
0000
0010
0000
,
0010
0000
0000
0000
,
1000
0000
0001
0000
,
1000
0000
0000
0000
,
0001
0000
0100
0000
,
0010
0000
0000
0000
,
0100
0000
0000
0000
,
0001
0000
0000
0000
,
1000
0000
0001
0000
,
0010
0000
0000
0000
,
0100
0000
0010
0000
,
0010
0000
0000
0000
,
0001
0000
1000
0000
,
1000
0000
0000
0000
,
1000
0000
0010
0000
,
0010
0000
0000
0000
,
0100
0000
0001
0000
,
0001
0000
0000
0000
,
0000
0100
0000
0000
,
0000
0001
0000
0000
,
0000
0010
0000
0000
,
0100
0000
1000
0000
,
0000
0001
0000
0000
,
0000
0100
0000
0000
,
0000
0010
0000
1000
,
0000
0100
0000
0000
,
0000
0100
0000
0000
,
0000
1000
0000
0000
,
0000
0010
0000
0000
,
0100
0000
0001
0000
,
0000
1000
0000
0000
,
0000
0100
0000
0000
,
0000
0010
0000
0001
,
0000
0100
0000
0000
,
0001
0000
0000
0000
,
1000
0000
0000
0000
,
0001
0000
0000
0000
,
1000
0000
0000
0000
,
0100
0000
0000
0000
,
0010
0000
0000
0000
,
0001
0000
0010
0000
,
0001
0000
0000
0000
,
1000
0000
0001
0000
,
0100
0000
0000
0000
,
0010
0000
1000
0000
,
0100
0000
0000
0000
,
0010
0000
0001
0000
,
1000
0000
0000
0000
,
0010
0000
0100
0000
,
0100
0000
0000
0000
,
0001
0000
1000
0000
,
0100
0000
0000
0000
,
0010
0000
0001
0000
,
0100
0000
0000
0000
,
0010
0000
1000
0000
,
0001
0000
0000
0000
,
0100
0000
0001
0000
,
0010
0000
0000
0000
,
0001
0000
0100
0000
,
0100
0000
0000
0000
,
0010
0000
1000
0000
,
1000
0000
0000
0000
,
1000
0000
0100
0000
,
0100
0000
0000
0000
,
0010
0000
0001
0000
,
0001
0000
0000
0000
,
2000
0000
0000
3000
0000
0000
0000
0000
;

//--------------- dance-single - ----------------
#NOTEDATA:;
#STEPSTYPE:dance-single;
#DESCRIPTION:;
#DIFFICULTY:Easy;
#METER:7;
#RADARVALUES:0.319474,0.323526,0.095007,0.014616,0,306,293,13,2,0,0,0,0,0,0.319474,0.323526,0.095007,0.014616,0,306,293,13,2,0,0,0,0,0;
#CHARTNAME:;
#CHARTHASH:1929978274;
#BANNER:;
#CHARTSTYLE:;
#METERF:0.000000;
#LASTSECONDHINT:134.939270;
#CREDIT:ZSL;
#NOTES:
0000
0000
0000
0000
,
0000
0000
0000
0000
,
0001
0010
0001
1000
,
0010
0000
0100
0000
,
0010
1000
0001
0010
,
0100
0000
0010
0000
,
0100
1000
0001
0100
,
0010
0000
0010
0000
,
1000
0001
0010
0001
,
0100
0000
0010
0000
,
1000
0010
1000
0001
,
0010
0000
0100
0000
,
0010
0001
1000
0010
,
0100
0000
0010
0000
,
0100
0001
1000
0100
,
0010
0000
0010
0000
,
0001
1000
0010
1000
,
0100
0000
1000
0000
,
1001
0000
1000
0000
,
0010
0000
0100
0000
,
0001
0000
1000
0000
,
0100
0000
1000
0000
,
1001
0000
0001
0000
,
0100
0000
0010
0000
,
1000
0000
0100
0100
,
0010
0000
0000
0000
,
0100
1000
0010
0100
,
0010
1000
0001
0010
,
0100
0010
0001
0100
,
0010
0000
1010
0000
,
1000
0001
0010
0100
,
1000
0001
0100
0010
,
1000
0000
0001
0000
,
0101
0000
0000
0000
,
0100
0001
0010
0100
,
0010
0001
1000
0010
,
0100
0010
1000
0100
,
0010
0000
0011
0000
,
0001
1000
0010
0100
,
0001
1000
0100
0010
,
0001
0000
1000
0000
,
1001
0000
0000
0000
,
0001
0100
0010
1000
,
1000
0100
0010
0010
,
0001
1000
0010
0010
,
0100
0001
0001
0000
,
1000
0100
0010
0001
,
0001
0100
0010
0010
,
1000
0001
0010
0100
,
1000
0000
0000
0000
,
0001
1000
0010
0000
,
0100
0010
1000
0000
,
0001
0010
0010
0000
,
0100
0100
1000
1000
,
0000
0001
0100
0010
,
0000
1000
0100
0010
,
0000
0100
0100
1000
,
1000
0001
0001
0000
,
1000
0001
0010
0000
,
0100
0010
0001
0000
,
1000
0010
0010
0000
,
0100
0100
0001
0001
,
0000
1000
0100
0010
,
0000
0001
0100
0010
,
0000
0100
0100
0001
,
0001
1000
1000
0000
,
1001
0000
0001
0000
,
0010
0000
0100
0000
,
1000
0000
0001
0000
,
0100
0000
0001
0000
,
1001
0000
1000
0000
,
0100
0000
0010
0000
,
0001
0000
0100
0100
,
0010
0000
0000
0000
,
1000
0100
0010
0001
,
0100
0010
1000
0100
,
1000
0010
0100
0001
,
0010
0000
0110
0000
,
0100
1000
0010
1000
,
0100
0010
0001
0100
,
0010
0010
1000
0000
,
1001
0000
0000
0000
,
0001
0100
0010
1000
,
0100
0010
0001
0100
,
0001
0010
0100
1000
,
0010
0000
0110
0000
,
0100
0001
0010
0001
,
0100
0010
1000
0100
,
0010
0010
0001
0000
,
1001
0000
0000
0000
,
1000
0100
1000
0010
,
0010
1000
0100
0100
,
0010
0001
0100
0100
,
0010
1000
1000
0000
,
0001
0100
0001
0010
,
0010
0001
0100
0100
,
0010
1000
0100
0100
,
0010
0000
0001
0001
,
2002
0000
0000
3003
0000
0000
0000
0000
;

//--------------- dance-single - ----------------
#NOTEDATA:;
#STEPSTYPE:dance-single;
#DESCRIPTION:;
#DIFFICULTY:Medium;
#METER:12;
#RADARVALUES:0.564822,0.53921,0.168089,0.197322,0.208285,541,518,23,27,0,0,0,0,0,0.564822,0.53921,0.168089,0.197322,0.208285,541,518,23,27,0,0,0,0,0;
#CHARTNAME:;
#CHARTHASH:2147483647;
#BANNER:;
#CHARTSTYLE:;
#METERF:0.000000;
#LASTSECONDHINT:134.939270;
#CREDIT:ZSL;
#NOTES:
0000
0000
0000
0000
,
0000
0000
0000
0000
,
0001
0000
1000
0001
0010
0000
0100
2000
,
3000
0000
0100
0000
0000
0000
0100
1000
,
0001
0000
0100
0010
1000
0000
0001
0200
,
0300
0000
0010
0000
0000
0000
0010
0100
,
0001
0000
1000
0001
1000
0000
0100
0020
,
0030
0001
0001
1000
,
0100
0010
0001
0000
1000
0000
0001
0100
,
0010
1000
0010
0100
,
1001
0000
0001
0010
0100
0000
0010
0002
,
0003
0000
1000
0000
0010
0000
0100
0010
,
1000
0000
0010
1000
0001
0000
0010
0200
,
0300
0010
0001
1000
,
0010
0000
0100
0010
1000
0000
0001
0020
,
0030
0100
0100
1000
,
0010
0100
0001
0000
1000
0000
0100
0010
,
0001
0100
0001
1001
,
1000
0000
0001
0000
0010
0000
0000
0000
0100
0000
0000
0000
0010
0000
0000
0001
,
0000
0000
1000
0000
0001
0000
0000
0000
1000
0000
0000
0000
0010
0000
0000
0100
,
0000
0000
0001
0000
0100
0000
0000
0000
0010
0000
0000
0000
1000
0000
0000
0001
,
0000
0000
1000
0000
0001
0000
0000
0000
0100
0000
0000
0000
0001
0000
0000
0010
,
0000
0000
0100
0000
1000
0000
0000
0000
0001
0000
0000
1000
0000
0000
0000
1000
,
0000
0001
0010
0000
0100
0000
1000
0010
,
0100
0000
0100
0000
0001
1000
0001
1000
,
0001
0000
0000
0000
0000
0020
0000
0030
,
0100
1000
0001
1000
0100
0000
0010
0000
,
0001
0000
1000
0000
0010
0000
0000
0100
0000
0000
0010
0000
2000
0000
0000
0001
,
0000
0000
3010
0000
2000
0000
0000
0010
0000
0000
3001
0000
1000
0000
0000
0100
,
0000
0000
0010
0000
0001
0000
1000
0000
0010
0000
0000
0100
0000
0000
0001
0000
,
0000
0100
0001
1000
0000
0100
0000
1100
,
0000
1000
0010
0100
0000
0001
1000
0001
,
0010
0000
0100
0000
1000
0100
1000
0000
,
1001
0001
0100
1010
,
0100
0001
1000
0001
0100
0000
0010
0000
,
1000
0000
0001
0000
0010
0000
0000
0100
0000
0000
0010
0000
0002
0000
0000
1000
,
0000
0000
0013
0000
0002
0000
0000
0010
0000
0000
1003
0000
0001
0000
0000
0100
,
0000
0000
0010
0000
1000
0000
0001
0000
0010
0000
0000
0100
0000
0000
1000
0000
,
0000
0100
1000
0001
0000
0100
0000
0101
,
0000
0001
0010
0100
0000
1000
0001
1000
,
0010
0000
0100
0000
0001
0100
0001
0000
,
1001
1000
0100
0011
,
1000
0000
0100
0000
0010
0000
0001
0000
1000
0000
0000
0000
0010
0000
0000
0010
,
0000
0000
1000
0000
0001
0000
0000
0000
1000
0000
0000
0100
0000
0100
0000
1000
,
0000
0000
0001
0000
0100
0000
0000
0000
0010
0000
1000
0000
0001
0000
0000
0001
,
0000
0000
1000
0000
0001
0000
0010
0000
0100
0000
0000
1000
0000
1000
0000
0001
,
0000
0000
0100
0000
0010
0000
0100
0000
0001
0000
0000
0000
1000
0000
0000
1000
,
0000
0000
0100
0000
0010
0000
0001
0000
1000
0000
0000
0010
0000
0010
0000
0000
,
1000
0100
0010
0000
0100
0010
0100
1000
,
0001
0000
1000
0010
,
1001
0000
0001
0100
0020
0100
0000
1030
,
0000
0000
0010
1000
0001
0010
0000
0010
,
0000
0000
0100
1000
0100
1000
0000
0100
,
0010
0000
0001
0000
0100
0001
0100
0010
,
0000
0000
1000
0001
0200
0010
0000
0301
,
0000
0000
1000
0100
0020
0001
0000
0130
,
0000
1000
0010
1000
0000
0000
0001
0100
,
0000
0000
0010
2000
0000
0000
3100
0000
,
1001
0000
1000
0100
0020
0100
0000
0031
,
0000
0000
0010
0001
1000
0010
0000
0010
,
0000
0000
0100
0001
0100
0001
0000
0100
,
0010
0000
1000
0000
0100
1000
0100
0010
,
0000
0000
0001
1000
0200
0010
0000
1300
,
0000
0000
0001
0100
0020
1000
0000
0130
,
0000
0001
0010
0001
0000
0000
1000
0100
,
0000
0000
0010
0002
0000
0000
1003
0000
,
0001
0000
1000
0000
0010
0000
0000
0000
0100
0000
0000
0000
0010
0000
0000
1000
,
0000
0000
0001
0000
1000
0000
0000
0000
0001
0000
0000
0000
0010
0000
0000
0100
,
0000
0000
1000
0000
0100
0000
0000
0000
0010
0000
0000
0000
0001
0000
0000
1000
,
0000
0000
0001
0000
1000
0000
0000
0000
0100
0000
0000
0000
1000
0000
0000
0010
,
0000
0000
0100
0000
0001
0000
0000
0000
1000
0000
0000
0001
0000
0000
0000
0001
,
0000
1000
0010
0000
0100
0000
0001
0010
,
0100
0000
0100
0000
1000
0001
1000
0001
,
1000
0000
0000
0000
0000
0020
0000
0030
,
0100
0001
0010
0100
1000
0000
0001
0000
,
0010
0000
0001
0000
0100
0000
0000
0010
0000
0000
1000
0000
0002
0000
0000
0010
,
0000
0000
0103
0000
0002
0000
0000
0100
0000
0000
0013
0000
0001
0000
0000
0100
,
0000
0000
0010
0000
1000
0000
0001
0000
0010
0000
0000
0100
0000
0000
1000
0000
,
0000
0001
0100
0010
0000
1000
0000
1100
,
0000
0100
0010
0001
0000
1000
0010
0100
,
0001
0000
0010
0000
0100
1000
0001
0000
,
0110
1000
0100
0011
,
0100
1000
0010
0100
0001
0000
1000
0000
,
0010
0000
1000
0000
0100
0000
0000
0010
0000
0000
0001
0000
2000
0000
0000
0010
,
0000
0000
3100
0000
2000
0000
0000
0100
0000
0000
3010
0000
1000
0000
0000
0100
,
0000
0000
0010
0000
0001
0000
1000
0000
0010
0000
0000
0100
0000
0000
0001
0000
,
0000
1000
0100
0010
0000
0001
0000
0101
,
0000
0100
0010
1000
0000
0001
0010
0100
,
1000
0000
0010
0000
0100
0001
1000
0000
,
0110
0001
0010
1100
,
0001
0000
0100
0000
0010
0000
1000
0000
0200
0000
0000
0000
0010
0000
0000
1300
,
0000
0000
0001
0000
0100
0000
0000
0000
0010
0000
0000
1000
0000
1000
0000
0100
,
0000
0000
1000
0000
0010
0000
0000
0000
0100
0000
0002
0000
0010
0000
0000
1003
,
0000
0000
0100
0000
0010
0000
0001
0000
0100
0000
0000
0010
0000
0010
0000
1000
,
0000
0000
0001
0000
0010
0000
0100
0000
2000
0000
0000
0000
0010
0000
0000
3001
,
0000
0000
0100
0000
0010
0000
1000
0000
0100
0000
0000
0010
0000
0010
0000
0000
,
0001
0100
0010
0000
1000
0010
0100
0001
,
0010
0000
0100
1000
,
0202
0000
0000
0303
0000
0000
0000
0000
;

//--------------- dance-single - ----------------
#NOTEDATA:;
#STEPSTYPE:dance-single;
#DESCRIPTION:;
#DIFFICULTY:Hard;
#METER:15;
#RADARVALUES:0.82061,0.790842,0.065774,0.540809,0.581004,786,777,9,74,0,0,0,0,0,0.82061,0.790842,0.065774,0.540809,0.581004,786,777,9,74,0,0,0,0,0;
#CHARTNAME:;
#CHARTHASH:1711237979;
#BANNER:;
#CHARTSTYLE:;
#METERF:0.000000;
#LASTSECONDHINT:134.939270;
#CREDIT:ZSL;
#NOTES:
0000
0000
0000
0000
,
0000
0000
0000
0000
,
0001
0010
0100
1000
0010
0100
0001
0200
,
0000
0010
0000
0001
0000
0010
0000
0301
,
1000
0010
0100
0001
0010
0100
1000
0200
,
0000
0010
0000
1000
0000
0010
0000
1300
,
0001
0100
0010
1000
0001
0010
0100
2000
,
3000
0000
0110
0000
1001
0000
1000
0100
,
0001
0100
1000
0010
0001
0010
1000
0001
,
1002
0000
0000
0000
2003
0000
0000
0000
3001
1000
0001
1000
0002
0000
0000
0000
,
0013
0100
1000
0100
0001
0100
0010
0002
,
0000
0000
1003
0000
0010
1000
0000
0010
1000
0000
0001
0100
0000
0000
0001
0000
,
0010
0100
1000
0001
0100
0010
1000
0200
,
0000
0000
0310
0000
0001
0010
0000
0001
0010
0000
0001
1000
0002
0000
0000
0000
,
0013
0001
0100
1000
0100
0010
1000
0002
,
0003
0000
1001
0000
0110
0000
0001
0100
,
1000
0100
0001
0010
1000
0010
0001
1000
,
2001
0000
0000
0000
3002
0000
0000
0000
1003
0001
1000
0001
2000
0000
0000
0000
,
3001
0000
0100
0000
0001
0000
0100
0000
0010
0000
1000
0000
0001
0000
0000
0010
,
0000
0000
0001
0000
0010
0000
0100
0000
1000
0000
0001
0000
0100
0000
0001
1000
,
0000
0000
0010
0000
0100
0000
0010
0000
1000
0000
0100
0000
0010
0000
0000
0001
,
0000
0000
1000
0000
0001
0000
1000
0000
0100
0000
0010
0000
0100
1000
0000
1000
,
0010
0000
0100
0000
0010
0000
1000
0000
0001
0000
0000
0010
0000
0100
0000
0100
,
0000
1000
0100
0010
0001
1000
0010
0100
,
0001
0000
1000
0000
0001
0000
0010
0000
0100
0010
0100
0010
0100
0000
1000
0000
,
0001
0000
0000
0000
0000
2000
0000
3010
,
0100
0001
0010
0001
0100
0010
1000
0010
,
0100
0000
0001
0000
1000
0010
1000
0002
0000
0000
0013
0000
0100
0010
0100
2000
,
0000
0000
3001
0000
0010
0100
1000
0200
0000
0000
0310
0000
0001
1000
0010
0200
,
0000
0000
0301
0000
1000
0000
0001
0000
0010
0000
0000
0100
0000
0000
1000
0000
,
0001
0100
0010
0002
0000
0013
0100
2000
,
0000
3100
0001
0020
0000
0130
1000
0010
,
0100
0010
0100
0000
0010
0100
0010
0000
1000
0000
0001
0010
0100
0000
1000
0000
,
0001
0000
0000
0000
0100
0000
0001
0000
1000
0100
1000
0100
0020
0000
0000
0000
,
0130
1000
0010
1000
0100
0010
0001
0010
,
0100
0000
1000
0000
0001
0010
0001
2000
0000
0000
3010
0000
0100
0010
0100
0002
,
0000
0000
1003
0000
0010
0100
0001
0200
0000
0000
0310
0000
1000
0001
0010
0200
,
0000
0000
1300
0000
0001
0000
1000
0000
0010
1000
0010
1000
0000
0000
0001
0000
,
1000
0100
0010
2000
0000
3010
0100
0002
,
0000
0103
1000
0020
0000
0130
0001
0010
,
0100
0010
0100
0000
0010
0100
0010
0000
0001
0000
1000
0010
0100
0000
0001
0000
,
1000
0000
0000
0000
0100
0000
1000
0000
0001
0100
0001
0100
0020
0000
0000
0000
,
1030
0000
0100
1000
0001
0000
0100
0000
0010
1000
0001
0000
1000
0100
0000
0100
,
0000
0000
1000
0000
0100
0000
0010
0000
0001
1000
0000
1000
0000
0010
0000
0010
,
0000
0000
0100
0000
0010
0000
1000
0000
0100
0010
0100
0010
0001
1000
0000
1000
,
0000
0000
0010
0000
0100
0000
0001
0000
1000
0100
0010
0002
0000
1000
0000
0103
,
0010
0000
0100
0001
1000
0000
0100
0000
0010
0001
1000
0000
0001
0100
0000
0100
,
0000
0000
0001
0000
0100
0000
0010
0000
1000
0001
0000
0001
0000
0010
0000
0010
,
0100
1000
0100
0000
1000
0001
0000
0001
0100
0010
0100
0000
0001
0000
1000
0000
,
0200
0000
0000
0000
0000
0000
0000
0000
1300
0001
1000
0001
0200
0000
0000
0000
,
0310
0000
0100
0010
1000
0001
0010
1000
,
0010
0100
1000
0001
0200
1000
0000
0310
,
0200
0000
0001
0320
1000
0130
0001
0020
,
0100
0000
0031
0000
1000
0000
0001
0000
1000
0010
2000
0000
0001
0000
3100
0000
,
0010
0000
0001
0100
0010
1000
0010
0001
,
0010
0100
0001
0010
0100
1000
0100
0001
,
0100
2000
0001
3010
0100
0002
1000
0103
,
0020
0000
0000
0000
1030
0000
0001
0010
0100
0000
1000
0000
0002
0000
0000
0000
,
0013
0000
0100
0010
0001
1000
0010
0001
,
0010
0100
0001
1000
0200
0001
0000
0310
,
0200
0000
1000
0320
0001
0130
1000
0020
,
0100
0000
1030
0000
0001
0000
1000
0000
0001
0010
0002
0000
1000
0000
0103
0000
,
0010
0000
1000
0100
0010
0001
0010
1000
,
0010
0100
1000
0010
0100
0001
0100
1000
,
0100
0002
1000
0013
0100
2000
0001
3100
,
0020
0000
0000
0000
0031
0000
1000
0000
0010
0100
0010
0100
0002
0000
0003
0000
,
1000
0000
0100
0000
1000
0000
0100
0000
0010
0000
0001
0000
1000
0000
0000
0010
,
0000
0000
1000
0000
0010
0000
0100
0000
0001
0000
1000
0000
0100
0000
1000
0001
,
0000
0000
0010
0000
0100
0000
0010
0000
0001
0000
0100
0000
0010
0000
0000
1000
,
0000
0000
0001
0000
1000
0000
0001
0000
0100
0000
0010
0000
0100
0001
0000
0001
,
0010
0000
0100
0000
0010
0000
0001
0000
1000
0000
0000
0010
0000
0100
0000
0100
,
0000
0001
0100
0010
1000
0001
0010
0100
,
1000
0000
0001
0000
1000
0000
0010
0000
0100
0010
0100
0010
0100
0000
0001
0000
,
1000
0000
0000
0000
0000
0002
0000
0013
,
0100
1000
0010
0100
1000
0100
0001
0010
,
1000
0000
0010
0000
0100
1000
0001
0020
0000
0000
0130
0000
1000
0001
0100
0020
,
0000
0000
1030
0000
0010
0100
0001
2000
0000
0000
3100
0000
0010
0100
1000
0020
,
0000
0000
0130
0000
0001
0000
1000
0000
0100
0000
0000
0010
0000
0000
0001
0000
,
0100
0001
0010
2000
0000
3001
0100
2000
,
0000
3001
0100
2000
0000
3001
0010
1000
,
0001
1000
0100
0000
0010
0001
1000
0000
0010
0000
1000
0100
0010
0000
0001
0000
,
0201
0000
0000
0000
0310
0000
1000
0000
0001
0010
0100
1000
0002
0000
0000
0000
,
0103
0001
0010
0100
0001
0100
1000
0010
,
0001
0000
0010
0000
0100
0001
1000
0020
0000
0000
0130
0000
0001
1000
0100
0020
,
0000
0000
0031
0000
0010
0100
1000
0002
0000
0000
0103
0000
0010
0100
0001
0020
,
0000
0000
0130
0000
1000
0000
0001
0000
0100
0010
1000
0001
0000
0000
1000
0000
,
0100
1000
0010
0002
0000
1003
0100
0002
,
0000
1003
0100
0002
0000
1003
0010
0001
,
1000
0001
0100
0000
0010
1000
0001
0000
0010
0000
0001
0100
0010
0000
1000
0000
,
1200
0000
0000
0000
0310
0000
0001
0000
1000
0010
0100
0001
2000
0000
0000
0000
,
3001
0000
0010
0001
0100
0000
0010
0000
1000
0100
0010
0000
0001
1000
0000
1000
,
0000
0000
0010
0000
0100
0000
0001
0000
0010
0100
0000
0100
0000
1000
0000
1000
,
0000
0000
0001
0000
0100
0000
0010
0000
1000
0001
0010
0001
1000
0010
0000
0010
,
0000
0000
0100
0000
0010
0000
1000
0000
0001
0100
0010
2000
0000
0100
0000
3001
,
0100
0000
0010
1000
0100
0000
0010
0000
0001
0100
0010
0000
1000
0001
0000
0001
,
0000
0000
0010
0000
0100
0000
1000
0000
0010
0100
0000
0100
0000
0001
0000
0001
,
1000
0100
0010
0000
0001
1000
0000
1000
0010
0100
0001
0000
1000
0000
0001
0000
,
0020
0000
0000
0000
0000
0000
0000
0000
0130
1000
0001
0010
0100
0000
1000
0000
,
2020
0000
0000
3030
0000
0000
0000
0000
;
