#VERSION:0.83;
#TITLE:monde des songe;
#SUBTITLE:;
#ARTIST:Bikke;
#TITLETRANSLIT:;
#SUBTITLETRANSLIT:;
#ARTISTTRANSLIT:;
#GENRE:;
#CREDIT:;
#MUSIC:monde des songe.ogg;
#BANNER:;
#BACKGROUND:;
#CDTITLE:;
#SAMPLESTART:8.056;
#SAMPLELENGTH:19.997;
#SELECTABLE:YES;
#OFFSET:0.000;
#BPMS:0.000=119.018;
#STOPS:;
#SPEEDS:0.000=1.000=0.000=0;
#SCROLLS:0.000=1.000;
#TICKCOUNTS:0.000=4;
#TIMESIGNATURES:0.000=4=4;
#LABELS:0.000=Song Start;
#COMBOS:0.000=1;
#ORIGIN:;
#TAGS:;
#PREVIEWVID:;
#JACKET:;
#CDIMAGE:;
#DISCIMAGE:;
#BGCHANGES:;
#FGCHANGES:;

//--------------- dance-single - ----------------
#NOTEDATA:;
#STEPSTYPE:dance-single;
#DESCRIPTION:;
#DIFFICULTY:Beginner;
#METER:2;
#RADARVALUES:0.07553,0.094249,0,0.045975,0,46,46,0,4,0,0,0,0,0,0.07553,0.094249,0,0.045975,0,46,46,0,4,0,0,0,0,0;
#CHARTNAME:;
#CHARTHASH:13006698;
#BANNER:;
#CHARTSTYLE:;
#METERF:0.000000;
#LASTSECONDHINT:82.676575;
#CREDIT:ZSL;
#NOTES:
0000
0000
0000
0000
,
0000
0000
0000
0000
,
1000
0000
0000
0000
,
0001
0000
0000
0000
,
0010
0000
0100
0000
,
0010
0000
0000
0000
,
0100
0000
1000
0000
,
0100
0000
0000
0000
,
1000
0000
0001
0000
,
0100
0000
0000
0000
,
0010
0000
0100
0000
,
0001
0000
0000
0000
,
1000
0000
0000
0000
,
0001
0000
0000
0000
,
0010
0000
0000
0000
,
0001
0000
0000
0000
,
0200
0000
0000
0000
,
0000
0000
0300
0000
,
0010
0000
0000
0000
,
0000
0000
0000
0000
,
2000
0000
3000
0000
,
0002
0000
0003
0000
,
0010
0000
0100
0000
,
1000
0000
0000
0000
,
0100
0000
0010
0000
,
0001
0000
0000
0000
,
1000
0000
0010
0000
,
0100
0000
0000
0000
,
0001
0000
0000
0000
,
1000
0000
0000
0000
,
0100
0000
0000
0000
,
0010
0000
0000
0000
,
0001
0000
0000
0000
,
0100
0000
0001
0000
,
1000
0000
0000
0000
,
0100
0000
1000
0000
,
0010
0000
0000
0000
,
0100
0000
0001
0000
,
0010
0000
0000
0000
,
0200
0000
0000
0000
,
0000
0000
0000
0000
,
0300
0000
0000
0000
;

//--------------- dance-single - ----------------
#NOTEDATA:;
#STEPSTYPE:dance-single;
#DESCRIPTION:;
#DIFFICULTY:Easy;
#METER:4;
#RADARVALUES:0.149418,0.188497,0.011494,0.022987,0,91,90,1,2,0,0,0,0,0,0.149418,0.188497,0.011494,0.022987,0,91,90,1,2,0,0,0,0,0;
#CHARTNAME:;
#CHARTHASH:2147483647;
#BANNER:;
#CHARTSTYLE:;
#METERF:0.000000;
#LASTSECONDHINT:82.676575;
#CREDIT:ZSL;
#NOTES:
0000
0000
0000
0000
,
0000
0000
0000
0000
,
1000
0000
0001
0000
,
1000
0000
0100
0000
,
0010
0001
0010
0000
,
0001
1000
0001
0000
,
0100
0010
0100
0000
,
0001
0010
0001
0000
,
1000
0100
0010
0001
,
1000
0000
0001
0000
,
1000
0010
0100
0000
,
0001
0000
1001
0000
,
1000
0001
0000
0010
,
0100
1000
0001
0000
,
0100
0010
0000
0100
,
0001
1000
0100
0000
,
0020
0000
0000
0000
,
0001
0000
0030
0000
,
0010
0000
0000
0000
,
0100
0000
0000
0000
,
1000
0000
0001
0000
,
0100
0000
0010
0000
,
1000
0000
0100
0000
,
0010
0000
0000
0000
,
0001
1000
0100
0000
,
0010
0001
1000
0000
,
0100
1000
0010
0000
,
0100
0000
0001
0000
,
1000
0000
0000
0000
,
0001
0000
0100
0000
,
0010
0000
1000
0000
,
0100
0010
0001
0000
,
1000
0000
0010
0000
,
0100
0010
1000
0000
,
0100
0000
0010
0000
,
0001
0010
0001
1000
,
0010
0000
0100
0000
,
0010
1000
0001
0010
,
0100
0000
1000
0001
,
0200
0000
0000
0000
,
0000
0000
0000
0000
,
0300
0000
0000
0000
;

//--------------- dance-single - ----------------
#NOTEDATA:;
#STEPSTYPE:dance-single;
#DESCRIPTION:;
#DIFFICULTY:Medium;
#METER:7;
#RADARVALUES:0.274207,0.306308,0.034481,0.09195,0,167,164,3,8,0,0,0,0,0,0.274207,0.306308,0.034481,0.09195,0,167,164,3,8,0,0,0,0,0;
#CHARTNAME:;
#CHARTHASH:2147483647;
#BANNER:;
#CHARTSTYLE:;
#METERF:0.000000;
#LASTSECONDHINT:82.676575;
#CREDIT:ZSL;
#NOTES:
0000
0000
0000
0000
,
0000
0000
0000
0000
,
1000
0010
1000
0001
,
0010
0100
0010
0001
,
0100
0010
0100
0000
0001
0000
1000
0000
,
0100
0000
0010
0000
0001
1000
0001
0000
,
0010
0100
0010
0000
0100
0000
1000
0000
,
0001
0000
0100
0000
0010
1000
0001
0000
,
1001
0000
1000
0000
0100
0010
0100
0010
,
0001
1000
0010
0100
,
0101
0000
0001
0000
0010
0100
0000
1000
,
0100
0000
0010
0000
0001
0100
0010
0000
,
1000
0000
2000
0000
0000
3001
0100
0010
,
0200
0000
0301
1000
0000
0100
0010
0000
,
0001
0000
0002
0000
0000
0013
0100
1000
,
0001
0000
0100
0000
0010
1000
0001
0010
,
0200
0000
2300
0000
,
3200
0000
0310
0000
,
0001
0000
1000
0010
,
0100
0001
0000
0000
,
0010
0000
0100
0000
1000
0100
0010
0000
,
0100
0000
1000
0000
0001
0100
0010
0000
,
0100
0001
1000
0100
,
0110
0000
0000
0000
,
0010
0000
0001
1000
0010
0000
1000
0000
,
0001
0000
0010
0001
0100
0000
0010
0000
,
1000
0000
0001
0010
0100
0000
0010
0000
,
0001
1000
0010
0100
,
0001
0000
0000
0000
,
1000
0100
0010
0100
,
1000
0001
0100
0010
,
0100
0000
0001
0000
1000
0100
1000
0000
,
0100
0000
0010
0000
0001
1000
0010
0000
,
1000
0000
0100
0000
0010
0100
1000
0000
,
0001
0000
0100
0000
0001
1000
0100
0000
,
0010
0000
0001
0000
0100
0000
0010
0100
,
0001
2000
0000
3100
0010
0000
0100
0000
,
1000
0000
0001
0000
0100
0010
1000
0001
,
1000
0000
0100
0000
0010
0001
1000
0010
,
0200
0000
0000
0000
,
0000
0000
0000
0000
,
0300
0000
0000
0000
;

//--------------- dance-single - ----------------
#NOTEDATA:;
#STEPSTYPE:dance-single;
#DESCRIPTION:;
#DIFFICULTY:Hard;
#METER:9;
#RADARVALUES:0.35138,0.400556,0.114937,0.126431,0.005747,214,204,10,11,0,0,0,0,0,0.35138,0.400556,0.114937,0.126431,0.005747,214,204,10,11,0,0,0,0,0;
#CHARTNAME:;
#CHARTHASH:2147483647;
#BANNER:;
#CHARTSTYLE:;
#METERF:0.000000;
#LASTSECONDHINT:82.676575;
#CREDIT:ZSL;
#NOTES:
0000
0000
0000
0000
,
0000
0000
0000
0000
,
1000
0010
1000
0000
0100
0000
0010
0000
,
0001
0010
0001
0000
0100
0000
0010
0000
,
1000
0001
0100
0010
1000
0010
1000
0000
,
0100
0010
0001
0010
0100
1000
0001
0000
,
1000
0001
0010
0100
1000
0100
1000
0000
,
0010
0100
1000
0100
0010
1000
0001
0000
,
0011
0000
0110
0000
1000
0100
0001
0100
,
1000
0000
0001
0100
0010
0100
0001
0000
,
0101
0000
0110
0010
1000
0100
0000
0010
,
0011
0000
1001
0000
0010
0100
0110
0000
,
1000
0001
0020
0000
0000
0130
1000
0100
,
0010
0000
0001
0000
1000
0000
0020
0030
0000
0000
0100
0000
0001
0000
0000
0000
,
0100
0010
2000
0000
0000
3001
0010
0100
,
2000
0000
3001
0100
1000
0100
0001
1000
,
0200
0320
0032
0023
,
0230
2300
3001
0100
,
0010
0000
0000
1000
0001
1000
0010
1000
,
0100
0010
0001
0000
0000
0000
0000
0000
,
1000
0000
0001
0000
0100
0001
0010
0000
,
0100
0000
1000
0000
0010
1000
0100
0000
,
0010
0000
0001
0000
1000
0000
0010
0000
0100
0000
0000
0010
0000
0000
0100
0000
,
1001
0000
0000
0000
0000
0001
0002
0000
,
1003
0000
0010
0100
0001
0000
1000
0100
,
0010
0000
0001
0010
1000
0000
0010
0001
,
1000
0000
0010
0100
0001
0000
0010
0100
,
1000
0001
0100
0010
,
1000
0000
0000
0000
0000
1000
2000
0000
,
3100
0000
0010
0100
1000
0000
0001
0000
,
0100
0000
0001
0100
0010
0000
1000
0000
,
0100
0000
0010
0001
1000
0010
1000
0000
,
0001
0000
0010
0000
0100
1000
0001
0000
,
1000
0000
0001
0100
0001
0010
1000
0000
,
0010
0000
0100
0000
1000
0001
0100
0000
,
0010
0000
0110
0000
0101
0000
0100
0001
,
1000
0200
0000
0310
0100
1000
0010
0000
,
0100
0001
0100
0010
0001
0010
0100
0001
,
0010
0100
1000
0001
0100
0010
1000
0100
,
0002
0000
0000
0000
,
0000
0000
0000
0000
,
0003
0000
0000
0000
;

//--------------- dance-single - ----------------
#NOTEDATA:;
#STEPSTYPE:dance-single;
#DESCRIPTION:;
#DIFFICULTY:Challenge;
#METER:14;
#RADARVALUES:0.56976,0.683302,0.287343,0.287343,0.482736,347,322,25,25,0,0,0,0,0,0.56976,0.683302,0.287343,0.287343,0.482736,347,322,25,25,0,0,0,0,0;
#CHARTNAME:;
#CHARTHASH:86461622;
#BANNER:;
#CHARTSTYLE:;
#METERF:0.000000;
#LASTSECONDHINT:82.676575;
#CREDIT:ZSL;
#NOTES:
0000
0000
0000
0000
,
0000
0000
0000
0000
,
1000
0001
0010
0100
1000
0001
1000
0010
,
0100
0010
1000
0100
0010
0001
0010
0100
,
1000
0000
0001
0000
0100
0000
0010
0000
0100
0001
0100
0001
1000
0000
0100
0010
,
0001
0000
0010
0000
0100
1000
0001
1000
0010
0100
0001
1000
0010
0000
0000
0000
,
1000
0000
0001
0000
0010
0000
0100
0000
0010
0001
0010
0001
1000
0000
0010
0100
,
0001
0000
0100
0000
1000
0100
0010
0100
0001
1000
0100
0010
0001
0000
0000
0000
,
0012
1003
2010
3001
1001
1100
1001
0101
,
0100
0010
1000
0000
0100
0000
0010
0000
0001
0010
0100
1000
0100
0000
0000
0000
,
2100
3001
0102
1003
1100
1020
0000
0130
,
0001
0010
0100
0000
1000
0000
0001
0100
0010
1000
0010
0100
0002
0000
0003
0000
,
1000
0000
0100
0000
0020
0000
0000
0000
0000
0130
0010
0001
1000
0001
1000
0001
,
0100
0000
0010
1000
0100
0000
0002
0003
0000
0100
0010
0001
1000
0000
0000
0000
,
0001
0000
0100
0010
2000
0000
0000
0000
0000
3100
0010
0100
1000
0001
0100
0001
,
0020
0000
0031
0100
1000
0100
0110
0110
,
1002
0010
0100
1000
,
0100
0000
0000
0000
0010
0000
0000
0000
1003
0000
0000
0000
0001
1000
0000
0000
,
1001
0000
0000
0000
0000
0000
0001
1000
0010
0000
1000
0001
0010
0000
0100
1000
,
0010
0100
0001
0000
0000
0000
0000
0000
,
0020
0000
0000
0000
0230
0000
0000
1300
0100
0010
0100
1000
0001
0000
0000
0000
,
0200
0000
0000
0000
0320
0000
0000
1030
0010
0100
0010
1000
0001
0000
1000
0000
,
0100
0000
0010
0000
0001
0000
0010
0000
1000
0010
0000
0001
0000
1000
0010
0000
,
0110
0000
0000
0000
0000
0010
0020
0000
,
1030
0000
0001
0000
0010
0100
1000
0001
0200
0000
0000
0310
0100
0001
1000
0100
,
0020
0000
0030
0000
0000
0001
0100
0010
0002
0000
0000
0013
1000
0001
0010
0100
,
2000
0000
3000
0000
0000
0001
1000
0010
0200
0000
0000
0310
1000
0100
0010
0001
,
0200
0000
0302
0000
0103
0010
1000
0001
,
0010
0000
0000
0000
0000
0010
0020
0000
,
0130
1000
0001
1000
0010
0100
0001
1000
,
0100
0010
0001
0010
0100
1000
0010
0100
,
0001
1000
0010
0000
1000
0010
0100
0001
1000
0000
0001
0000
0010
0000
0001
0000
,
1000
0000
0100
0000
0010
0000
0100
0000
1000
0001
0100
0010
1000
0000
0000
0000
,
0100
1000
0001
0000
0100
0010
1000
0001
0010
0000
0100
0000
0001
0000
0100
0000
,
0010
0000
0001
0000
1000
0010
0100
0001
1000
0100
0010
0001
1000
0000
0000
0000
,
2100
3010
0102
0013
0210
1300
0110
0011
,
1001
0000
1001
0000
1000
0000
1010
0000
0110
0000
0101
0000
0001
1000
0100
0010
,
0001
0000
1000
0000
0001
0000
0100
0000
1000
0100
0010
1000
0001
0000
1000
0100
,
0010
0000
0001
0000
0100
0001
0010
0100
0010
0001
1000
0010
0100
0001
1000
0100
,
0002
0000
0000
0000
,
0000
0000
0000
0000
,
0003
0000
0000
0000
;
