#VERSION:0.83;
#TITLE:月詠に鳴る;
#SUBTITLE:;
#ARTIST:Feryquitous feat.藍月なくる;
#TITLETRANSLIT:Tsukuyomi ni naru;
#SUBTITLETRANSLIT:;
#ARTISTTRANSLIT:Feryquitous feat.Nakuru Aitsuki;
#GENRE:;
#CREDIT:;
#MUSIC:Tsukuyomi ni naru.ogg;
#BANNER:;
#BACKGROUND:;
#CDTITLE:;
#SAMPLESTART:76.700;
#SAMPLELENGTH:20.000;
#SELECTABLE:YES;
#OFFSET:-0.218;
#BPMS:0.000=180.000;
#STOPS:;
#SPEEDS:0.000=1.000=0.000=0;
#SCROLLS:0.000=1.000;
#TICKCOUNTS:0.000=4;
#TIMESIGNATURES:0.000=4=4;
#LABELS:0.000=Song Start;
#COMBOS:0.000=1;
#ORIGIN:;
#TAGS:;
#PREVIEWVID:;
#JACKET:;
#CDIMAGE:;
#DISCIMAGE:;
#BGCHANGES:;
#FGCHANGES:;

//--------------- dance-single - ----------------
#NOTEDATA:;
#STEPSTYPE:dance-single;
#DESCRIPTION:;
#DIFFICULTY:Beginner;
#METER:4;
#RADARVALUES:0.16237,0.218265,0,0.05943,0.003714,153,153,0,8,0,0,0,0,0,0.16237,0.218265,0,0.05943,0.003714,153,153,0,8,0,0,0,0,0;
#CHARTNAME:;
#CHARTHASH:4239257996;
#BANNER:;
#CHARTSTYLE:;
#METERF:0.000000;
#LASTSECONDHINT:130.801331;
#CREDIT:ZSL;
#NOTES:
0000
0000
0000
0000
,
0000
0000
0000
0000
,
0000
0000
0000
0000
,
0000
0000
0000
0000
,
2000
0000
0000
0000
,
0000
0000
3000
0000
,
0002
0000
0000
0000
,
1003
0000
0000
0000
,
0010
0000
0000
0100
,
0000
0000
0000
0000
,
0001
0000
0000
1000
,
0000
0000
0000
0000
,
0100
0000
0000
0010
,
0000
0000
0000
0000
,
0100
0000
0000
1000
,
0000
0000
0000
0000
,
0001
0000
0000
0000
,
0100
0000
0000
0000
,
0010
0000
1000
0000
,
0001
0000
0000
0000
,
0010
0000
0100
0000
,
1000
0000
0000
0000
,
0010
0000
0000
0000
,
0100
0000
0000
0000
,
0001
0000
1000
0000
,
0010
0000
0000
0000
,
1000
0000
0100
0000
,
0010
0000
0000
0000
,
0001
0000
1000
0000
,
0010
0000
0000
0000
,
0100
0000
0001
0000
,
1000
0000
0000
0000
,
0100
0000
0010
0000
,
0100
0000
1000
0000
,
0001
0000
0100
0000
,
0010
0000
0000
0000
,
1000
0000
0001
0000
,
0010
0000
0100
0000
,
1000
0000
0010
0000
,
0100
0000
0001
0000
,
2000
0000
0000
0000
,
0000
0000
3000
0000
,
1000
0000
0100
0000
,
0000
0010
0010
0000
,
0100
0000
0000
1000
,
0000
0010
0010
0000
,
0100
0000
0001
0000
,
0000
1000
1000
0000
,
0100
0000
0000
0010
,
0000
0001
0001
0000
,
1000
0000
0010
0000
,
0000
0100
0100
0000
,
0001
0000
0000
0010
,
0000
0100
0100
0000
,
1000
0000
0001
0000
,
0000
0100
0100
0000
,
0010
0000
0000
1000
,
0000
0000
0000
0000
,
0010
0000
1000
0000
,
0001
0000
0000
0010
,
0010
0000
0100
0000
,
1000
0000
0000
0000
,
0010
0000
0100
0000
,
0001
0000
0000
1000
,
1000
0000
0100
0000
,
0010
0000
0000
0000
,
0001
0000
1000
0000
,
0010
0000
0100
0000
,
0001
0000
0010
0000
,
0100
0000
0000
0000
,
1000
0000
0001
0000
,
0100
0000
0010
0000
,
1000
0000
0100
0000
,
0010
0000
0000
0000
,
0001
0000
1000
0000
,
0010
0000
1000
1000
,
0100
0000
0010
0000
,
0001
0000
1000
0001
,
0100
0000
0010
0000
,
1000
0000
0100
0100
,
0010
0000
0001
0000
,
0100
0000
0010
1000
,
0000
0000
0100
0000
,
0010
0000
0001
0001
,
0100
0000
0010
0000
,
1000
0000
0001
1000
,
0100
0000
0010
0000
,
0001
0000
0100
0100
,
0010
0000
1000
0000
,
0100
0000
1000
0010
,
0200
0000
0000
0000
,
0000
0000
0300
0000
,
0002
0000
0000
0000
,
0000
0000
1003
0000
,
0200
0000
0000
0000
,
0000
0000
0300
0000
,
0020
0000
0000
0000
,
0130
0000
0000
0000
0000
0000
0000
0000
0000
0000
0000
0000
2000
0000
0000
3000
;

//--------------- dance-single - ----------------
#NOTEDATA:;
#STEPSTYPE:dance-single;
#DESCRIPTION:;
#DIFFICULTY:Easy;
#METER:7;
#RADARVALUES:0.315189,0.327188,0,0.156003,0.074287,297,297,0,21,0,0,0,0,0,0.315189,0.327188,0,0.156003,0.074287,297,297,0,21,0,0,0,0,0;
#CHARTNAME:;
#CHARTHASH:3672370468;
#BANNER:;
#CHARTSTYLE:;
#METERF:0.000000;
#LASTSECONDHINT:130.718002;
#CREDIT:ZSL;
#NOTES:
0000
0000
0000
0000
,
0000
0000
0000
0000
,
0000
0000
0000
0000
,
0000
0000
0000
0000
,
2000
0000
0000
0001
,
0000
0000
3000
2000
,
3200
0000
0000
0010
,
0310
0000
0001
1000
,
0001
0000
0100
0000
0010
0000
0000
2000
,
0000
0000
3000
0001
0000
1000
0000
0000
,
0200
0000
0000
0000
0000
0300
0010
0100
,
0000
0000
1000
0100
,
0010
0000
0001
0000
1000
0000
0000
0020
,
0000
0000
0130
0010
0000
0000
0100
0000
,
0001
0000
0000
0010
0000
0100
0000
1000
,
0000
0000
0000
0001
0000
1000
0000
0000
,
0010
0100
0000
0001
,
1000
0100
0000
0010
,
0001
1000
0000
0010
,
0100
0001
0000
0100
,
0010
1000
0000
0100
,
0010
0001
0000
0100
,
0010
1000
0000
0010
,
0100
0000
0000
0002
0000
0000
1003
0000
,
0100
0000
0000
0000
0010
0000
0000
0000
0002
0000
0000
0000
0000
0003
0000
0000
,
0100
0000
0010
0100
0000
0000
0010
0000
,
1000
0001
0010
0100
,
0010
0000
0001
1000
,
0010
0000
0100
0000
0001
0000
1000
0100
,
0000
0000
0010
0100
,
1000
0000
0001
0000
0100
0000
0010
1000
,
0000
0000
0001
0010
,
0100
0000
0000
0000
0100
0000
1000
0000
0000
0000
1000
0000
,
0001
0000
0000
0000
0001
0000
0100
0000
0000
0000
0100
0000
,
0010
0000
0000
0000
0010
0000
1000
0000
0000
0000
1000
0000
,
0001
0000
0010
0000
,
0100
0000
0000
0000
0100
0000
0010
0000
0000
0000
0010
0000
,
0001
0000
0000
0000
0001
0000
0100
0000
0000
0000
0100
0000
,
0010
0000
0000
0000
0010
0000
1000
0000
0000
0000
1000
0000
,
0100
0000
0010
0000
,
0002
0000
0000
0000
,
0000
0000
0003
0000
,
1000
0000
0001
0000
1000
0000
0000
0010
,
0000
0100
0001
0010
,
0200
0000
0000
0310
0000
0000
0001
0000
,
0000
1000
0001
0100
,
0001
0000
1000
0000
0010
0000
0000
1000
,
0000
0100
0010
0001
,
2000
0000
0000
3001
0000
0000
0010
0000
,
0000
0100
0010
0001
,
0100
0000
0010
1000
,
0001
0010
0100
1000
,
0002
0000
0000
1003
0000
0000
0100
0000
,
0000
1000
0001
0100
,
0010
0000
0100
0000
0001
0000
1000
0100
,
0000
0010
0100
1000
,
0020
0000
0000
0130
0000
0000
0001
0000
,
1000
0000
0001
0100
,
0010
0100
0010
1000
,
0001
0000
1000
0000
,
0100
0010
0100
1000
,
0001
0000
0100
0000
,
0010
1000
0100
0010
,
0001
0000
0010
0000
,
0100
1000
0010
0100
,
0001
0000
1000
0001
,
0010
0000
0000
0000
0010
0000
0100
0000
0000
0000
0100
0000
,
1000
0000
0000
0000
1000
0000
0001
0000
0000
0000
0001
0000
,
0100
0000
0000
0000
0100
0000
0010
0000
0000
0000
0010
0000
,
1000
0000
0000
0000
1000
0000
0001
0000
0000
0000
0000
0000
,
0010
0001
1000
0010
,
1000
0001
0010
0000
,
0100
1000
0001
0100
,
0020
0000
0000
0230
0000
0000
0301
0000
,
1000
0000
0000
0000
0001
1000
0000
0000
,
0001
0100
0000
0000
0010
0000
1000
0000
,
0001
0010
0000
0000
0100
0010
0000
0000
,
0001
0010
0000
0000
0001
0000
1000
0000
,
0010
1000
0000
0000
0010
0100
0000
0000
,
0010
1000
0000
0000
0001
0000
1000
0000
,
0100
0010
0100
1000
,
0001
0001
1000
0100
,
0000
0000
0000
0000
0010
0100
0000
0000
,
1000
0100
0000
0000
0010
0000
0001
0000
,
1000
0010
0000
0000
0100
0010
0000
0000
,
1000
0010
0000
0000
1000
0000
0001
0000
,
0010
0001
0000
0000
0010
0100
0000
0000
,
0010
0001
0000
0000
1000
0000
0001
0000
,
0100
0010
0100
0001
,
1000
1000
0100
0010
,
0002
0000
0000
1000
,
0000
0000
0003
0002
,
0203
0000
0000
0010
,
0000
0000
0310
1000
,
0200
0000
0000
0010
,
0000
0000
0300
0200
,
2300
0000
0000
3001
,
0100
0000
0000
0010
0000
0000
0100
0010
;

//--------------- dance-single - ----------------
#NOTEDATA:;
#STEPSTYPE:dance-single;
#DESCRIPTION:;
#DIFFICULTY:Medium;
#METER:12;
#RADARVALUES:0.540173,0.618022,0.05943,0.185718,0.211718,509,501,8,25,0,0,0,0,0,0.540173,0.618022,0.05943,0.185718,0.211718,509,501,8,25,0,0,0,0,0;
#CHARTNAME:;
#CHARTHASH:1870521665;
#BANNER:;
#CHARTSTYLE:;
#METERF:0.000000;
#LASTSECONDHINT:130.718002;
#CREDIT:ZSL;
#NOTES:
0000
0000
0000
0000
,
0000
0000
0000
0000
,
0000
0000
0000
0000
,
0000
0000
0000
0000
,
2000
0000
0000
0001
0000
0000
0100
0000
,
0000
0000
3000
0200
,
2300
0000
0000
0010
0000
0000
3001
0000
,
1000
0001
0000
0001
0010
0100
1000
0001
,
0100
0000
0010
0000
1000
0000
0100
0020
,
0000
0000
0130
1000
0000
0001
0000
1000
,
0020
0000
0000
0100
0000
1030
0001
0010
,
0100
0000
0000
0000
1000
0001
0100
0010
,
1000
0000
0100
0000
0010
0000
0001
2000
,
0000
0000
3010
0100
0000
0000
0010
0000
,
1000
0000
0001
0010
0000
0100
0000
1000
,
0000
0001
0000
0100
0000
0010
1000
0100
,
0010
0000
0100
1000
0000
0001
0100
0010
,
1000
0000
0001
0010
0000
0100
0000
0010
,
0001
0000
1000
0010
0100
0010
0000
1000
,
0100
0000
1000
0001
0000
0010
0100
0010
,
0001
0000
1000
0010
0100
0000
0001
1000
,
0100
0000
0010
0200
0000
1300
0001
0100
,
0010
0000
0100
0001
0000
0100
0010
1000
,
0001
1000
0000
0200
0000
0000
0310
0000
,
0100
0000
0000
0000
1000
0000
0001
0000
0200
0000
0000
0000
0000
0310
0000
0000
,
1000
0000
0100
0010
0100
0000
1000
0000
,
0001
0000
0100
0000
0010
1000
0010
1000
,
0100
0000
0000
0010
0001
0000
1000
0000
,
0010
0100
0001
0100
0010
0000
1000
0001
,
0010
0000
0000
0100
1000
0010
1000
0000
,
0001
0100
0001
0100
0010
1000
0001
0010
,
0000
0000
0000
0100
1000
0000
0001
0000
,
0100
0000
0010
0000
0100
0000
0001
0000
1000
0000
0001
0000
,
0010
0000
0100
0000
1000
0000
0010
0000
0100
0000
0001
0000
,
1000
0000
0100
0000
0010
0000
0100
0000
1000
0000
0010
0000
,
0100
0000
0001
0000
0100
0000
0001
0000
1000
0000
0100
0000
,
0110
0000
0010
0000
0001
0000
1000
0000
0010
0000
0100
0000
,
0101
0000
0001
0000
1000
0000
0100
0000
0010
0000
0100
0000
,
1100
0000
1000
0000
0001
0000
0101
0000
0100
0000
0010
0000
,
1010
0000
1000
0000
0001
0000
0011
0000
0010
0000
0100
0000
,
2000
0000
0000
0000
,
0000
0000
0000
0000
3000
0000
0000
0001
,
0100
0001
1000
0000
0100
0000
0010
0100
,
1000
0000
0001
0100
0010
0100
0010
1000
,
0002
0000
0000
1003
0000
0100
0010
0001
,
0000
0000
1000
0010
0100
0010
1000
0100
,
0010
0000
0001
0000
1000
0000
0010
0100
,
0001
0000
1000
0100
0010
0100
0010
0001
,
2000
0000
0000
3001
0000
0100
0010
1000
,
0000
0000
0001
0010
0100
0010
0001
0100
,
0010
1000
0001
0010
,
0100
0000
1000
0001
0100
0001
1000
0100
,
0010
0000
0100
0000
1000
0000
0001
0100
,
0010
0000
1000
0100
0010
0001
1000
0010
,
0100
0000
0001
0000
1000
0000
0100
1000
,
0001
0000
1000
0001
0010
0001
1000
0010
,
0100
0000
0010
0000
1000
0000
0010
1000
,
0001
0000
0000
0001
1000
0001
0100
0001
,
2000
0000
0010
0000
0001
0000
3100
0010
,
0001
0000
1000
0000
0001
0000
1000
0010
,
0200
0000
0001
0000
0010
0000
0301
1000
,
0100
0000
1000
0001
0010
0100
1000
0010
,
2000
0000
0100
0000
0001
0000
3010
0100
,
0001
1000
0100
1000
,
0020
0000
0100
0000
1000
0000
0130
0001
,
0010
0000
0001
0010
0100
1000
0100
0010
,
0001
0000
1000
0000
0010
0000
0100
0000
0001
0000
1000
0000
,
0200
0000
0000
0000
0310
0000
0100
0000
1000
0000
0001
0000
,
0101
0000
0100
0000
0010
0000
1000
0000
0100
0000
0010
0000
,
0110
0000
0100
0000
1000
0000
0001
0000
0000
0000
0000
0000
,
1000
0000
1000
0100
0000
0100
0010
0000
0010
0001
0000
0001
,
1000
0000
1000
0010
0000
0010
0100
0000
0100
0001
0000
0000
,
0100
0000
0100
0010
0000
0010
1000
0000
1000
0100
0000
0100
,
0020
0000
0000
0031
1000
0010
1000
0010
,
0100
0000
0001
1000
0100
0010
0000
0100
,
1000
0010
0000
0100
0010
1000
0001
0010
,
0001
0100
0000
0010
1000
0001
0000
0010
,
0100
1000
0000
0010
0100
0010
1000
0100
,
0010
0001
0000
0100
0010
1000
0000
0100
,
0010
0001
0000
0010
0001
0000
1000
0000
,
0010
0100
0001
1000
0100
0010
0100
0010
,
0001
1000
0010
0100
0001
1000
0001
1000
,
0000
0000
0000
0000
0100
0100
0000
1000
,
0001
0010
0000
0100
0010
0001
1000
0010
,
1000
0100
0000
0010
0001
1000
0000
0010
,
0100
0001
0000
0010
0100
0010
0001
0100
,
0010
1000
0000
0100
0010
0001
0000
0100
,
0010
1000
0000
0010
1000
0000
0001
0000
,
0010
0100
1000
0001
0100
0010
0100
0010
,
1000
0001
0010
0100
1000
0010
0100
0001
,
0200
0000
0000
0001
0000
0000
0010
0000
,
0000
0000
0300
0200
,
0302
0000
0000
0010
0000
0000
1000
0000
,
0000
0023
0000
0000
0031
0000
1000
0000
,
0002
0000
0000
0010
0000
0000
1000
0000
,
0000
0000
0003
0002
,
2003
0000
0000
0100
0000
0000
3001
0000
,
0100
0010
0000
0010
0000
0010
0100
0100
;

//--------------- dance-single - ----------------
#NOTEDATA:;
#STEPSTYPE:dance-single;
#DESCRIPTION:;
#DIFFICULTY:Hard;
#METER:15;
#RADARVALUES:0.713155,0.836681,0.23029,0.23029,0.482866,672,641,31,31,0,0,0,0,0,0.713155,0.836681,0.23029,0.23029,0.482866,672,641,31,31,0,0,0,0,0;
#CHARTNAME:;
#CHARTHASH:604492630;
#BANNER:;
#CHARTSTYLE:;
#METERF:0.000000;
#LASTSECONDHINT:130.801331;
#CREDIT:ZSL;
#NOTES:
0000
0000
0000
0000
,
0000
0000
0000
0000
,
0000
0000
0000
0000
,
0000
0000
0000
0000
,
2000
0000
0000
0001
0000
0000
0010
0000
,
0000
0000
3000
0020
,
2030
0000
0000
0100
0000
0000
3001
0000
,
1000
0000
0001
0000
0000
0000
0001
0000
0100
0000
0001
1000
0001
0000
1000
0100
,
0010
0000
0001
0100
0010
0000
1010
2000
,
0000
0000
3001
0010
0000
0100
0000
1000
,
0002
0000
0000
0010
0000
0103
0110
0010
,
1000
0000
0000
0000
0000
0000
0000
0000
0001
0000
1000
0001
1000
0000
0100
0010
,
0001
0000
1000
0010
0100
0000
0101
0002
,
0000
0000
1003
0100
0000
0000
0010
0000
,
0100
0000
1000
0010
0000
0100
0000
0001
,
0000
0000
1000
0000
0000
0000
0100
0000
0000
0000
0010
0001
1000
0000
0010
0100
,
0001
1000
0100
1000
0000
0001
0010
0001
,
0100
0010
1000
0100
0000
0010
0000
0100
,
1000
0000
1001
0001
0100
0010
0000
0001
,
0010
0000
0000
0000
1000
0000
0001
0000
0000
0000
0010
0100
0010
0100
0010
0000
,
0001
1000
0010
0000
1000
0000
0100
0000
0010
0000
0000
0000
0100
0000
1000
0000
,
0001
0000
0101
0200
0000
0310
1000
0001
,
0010
0000
0110
0100
0000
1000
1010
0010
,
0100
0001
0000
2000
0000
0000
3100
0000
,
0011
0000
0000
0000
0001
0000
1000
0000
0020
0000
0000
0000
0000
0130
0000
0000
,
0001
0000
1000
0100
0010
0000
0001
0000
,
0010
0000
0100
0000
0001
0100
1000
0001
,
0100
0010
0100
0010
1000
0000
0001
0000
,
1000
0000
1000
0000
0100
0010
0100
0010
0100
0000
0000
0000
0010
0000
0001
0000
,
1000
0001
1000
0010
0100
0001
0010
0000
,
0100
0000
0100
0000
1000
0001
1000
0001
1000
0000
0010
0100
0001
0000
0100
0000
,
0010
0100
0010
1000
0001
0000
0010
0000
,
0110
0000
0100
0000
1000
0000
1001
0000
0001
0000
0100
0000
,
0110
0000
0010
0000
1000
0000
1100
0000
0100
0000
0010
0000
,
0011
0000
0001
0000
0100
0000
0110
0000
0010
0000
1000
0000
,
1001
0000
0001
0000
0010
0000
1000
0000
0010
0000
0001
0000
,
0011
0000
1000
0000
0010
0000
0110
0000
0001
0000
1000
0000
,
1100
0000
0100
0000
0010
0000
1001
0000
0001
0000
0100
0000
,
0110
0000
0110
0000
0010
0000
1010
0000
1010
0000
1000
0000
,
1001
0000
0011
0000
0100
0000
0010
0001
1000
0000
0010
1000
,
0200
0000
0000
0000
,
0000
0000
0000
0000
0000
0000
0000
0000
0300
0000
0000
0000
0000
0000
0100
1000
,
0100
1000
0001
0100
0010
0000
2000
0001
,
3100
0010
1000
0010
0100
1000
0010
0100
,
0001
0001
0001
1000
0000
0200
0010
1300
,
0001
0000
0100
0000
0010
0000
0100
0000
0001
1000
0001
1000
0100
0000
0010
0000
,
0100
1000
0100
0000
1000
0001
0100
0010
0100
0000
0000
0000
0002
0000
0100
0000
,
1003
0001
0010
0100
0001
0100
0010
0001
,
1000
0000
0010
1000
0010
1000
0100
0000
0000
0000
0020
0000
0001
0000
0130
0000
,
1000
0000
0100
0000
0010
0000
0001
0000
1000
0010
1000
0010
0100
0000
0001
0000
,
1001
0000
1000
0000
0100
0000
0010
0001
1000
0000
0000
0000
0001
0000
0000
0000
,
1000
0010
0001
0010
0100
0001
0010
0100
,
1000
1000
1000
0001
0000
0200
0010
0301
,
1000
0000
0100
0000
0010
0000
0100
0000
1000
0001
1000
0001
0100
0000
0010
0000
,
0100
0001
0100
0000
0001
1000
0100
0010
0100
0000
0000
0000
2000
0000
0100
0000
,
3001
1000
0001
0100
1000
0100
0010
1000
,
0100
0100
0100
0010
0000
0002
0010
1003
,
0001
0000
0000
0000
0000
0000
1000
0000
0010
1000
0010
1000
0001
1000
0001
1000
,
0200
0010
0010
0000
1000
0000
0310
0001
,
1000
0000
0010
0000
1000
0001
0010
0001
,
0200
0010
0010
0000
0001
0000
0310
1000
,
0001
0000
0000
0000
1000
0000
0100
0000
0010
0000
0001
0000
0100
0001
0100
0001
,
2000
0100
0100
0000
0010
0000
3001
1000
,
0100
0010
0100
0010
0001
1000
0010
1000
,
0002
0010
0010
0000
0100
0000
1003
0010
,
0001
0000
0010
0000
1000
0000
0001
0000
0010
0000
0100
0000
1000
0001
1000
0001
,
0100
0000
0001
0000
0100
0000
1010
0000
0001
0000
0010
0000
,
1200
0000
0000
0000
0310
0000
0100
0000
1000
0000
0010
0000
,
0101
0000
0010
0000
1000
0000
1100
0000
0010
0000
0001
0000
,
0101
0000
1000
0000
0100
0000
1001
0000
0000
0000
0000
0000
,
0001
0100
0001
1000
0010
1000
0100
0010
0001
0010
0100
1000
,
0100
0010
0001
0100
0010
1000
0001
0010
0100
1000
0000
0000
,
0010
0100
0010
1000
0001
0010
0001
1000
0001
0100
0010
1000
,
0200
0000
0000
0000
0000
0000
0310
0000
0100
0010
0100
0010
0001
0010
0001
1000
,
0020
0000
1030
0100
0010
0100
1000
0001
,
0100
0010
1000
0010
0100
0001
0010
0001
,
1000
0010
0100
0001
1000
0100
0010
0001
,
0100
0000
0001
0000
0010
0000
0001
0000
1000
0010
0100
0001
1000
0100
0010
0100
,
1000
0001
0010
0001
0100
0010
1000
0001
,
0010
0100
0010
0001
0100
0010
1000
0001
,
0010
0100
0001
0100
1000
0010
0100
1000
,
0001
0000
0010
0000
1000
0000
0001
0000
0100
0010
0100
0010
1000
0001
1000
0001
,
0000
0000
0000
0000
0010
0100
0000
1000
,
0100
0010
0001
0010
0100
1000
0010
1000
,
0001
0010
0100
1000
0001
0100
0010
1000
,
0100
0000
1000
0000
0010
0000
1000
0000
0001
0010
0100
1000
0001
0100
0010
0100
,
0001
1000
0010
1000
0100
0010
0001
1000
,
0010
0100
0010
1000
0100
0010
0001
1000
,
0010
0100
1000
0100
0001
0010
0100
0001
,
1000
0000
0010
0000
0001
0000
1000
0000
0010
0100
0001
1000
0100
0010
0001
0100
,
0020
0000
0000
1000
0000
0000
0100
0000
,
0000
0000
0030
0020
,
2030
0000
0000
0100
0000
0000
0001
0000
,
0000
3200
0000
0000
1300
0001
0100
0010
,
2000
0000
0000
0100
0000
0000
0010
0000
,
0000
0000
3000
2000
,
3002
0000
0000
0010
0000
0000
0103
0000
,
0010
0000
0100
0000
0000
0000
0100
0000
0000
0000
0100
0000
0001
1000
0001
1000
;
