#TITLE:The 89's Momentum;
#SUBTITLE:;
#ARTIST:MYUKKE.;
#TITLETRANSLIT:;
#SUBTITLETRANSLIT:;
#ARTISTTRANSLIT:;
#GENRE:;
#CREDIT:;
#MUSIC:The 89's Momentum.ogg;
#BANNER:;
#BACKGROUND:;
#CDTITLE:;
#SAMPLESTART:16.885;
#SAMPLELENGTH:20.000;
#SELECTABLE:YES;
#OFFSET:-0.023;
#BPMS:0.000=128.000;
#STOPS:;
#ORIGIN:;
#TAGS:;
#PREVIEWVID:;
#JACKET:;
#CDIMAGE:;
#DISCIMAGE:;
#BGCHANGES:;
#FGCHANGES:;

//--------------- dance-single - ----------------
#NOTES:
     dance-single:
     :
     Beginner:
     4:
     0.14825,0.206108,0.014413,0,0,144,142,2,0,0,0,0,0,0,0.14825,0.206108,0.014413,0,0,144,142,2,0,0,0,0,0,0:
0000
0000
0000
0000
,
0000
0000
0000
0000
,
0000
0000
0000
0000
,
0000
0000
0000
0000
,
0000
0000
0000
0000
,
1000
0000
0001
0000
,
0100
0000
0010
0000
,
1000
0000
0001
0000
,
0010
0000
0100
0000
,
0010
0000
0001
0000
,
1000
0000
0010
0000
,
0100
0000
0010
0000
,
1000
0000
0001
0000
,
0010
0000
0001
0000
,
1000
0000
0010
0000
,
0100
0000
0010
0000
,
1000
0000
0001
0000
,
0010
0010
0000
0000
,
0100
0000
1000
0000
,
0001
0000
0100
0000
,
0010
0000
1000
0000
,
0010
0000
0100
0000
,
0001
0000
1000
0000
,
0100
0000
0000
0000
,
0010
0000
0000
0000
,
0100
1000
0000
0000
,
0000
0000
0000
0000
,
0001
0100
0000
0000
,
0000
0000
0000
0000
,
0001
0000
1000
0000
,
0010
0000
0100
0000
,
0001
0000
1000
1000
,
0000
0001
0001
0000
,
0100
0000
0010
1000
,
0000
0100
0000
0010
,
0001
0000
1000
0000
,
0010
0100
0010
0000
,
1000
0000
0100
0010
,
0000
0001
0001
0000
,
1000
0000
0010
0000
,
0100
0000
0001
0000
,
1000
0100
1000
0000
,
0001
0000
1000
0000
,
0010
0100
0010
0000
,
1000
0000
0001
0000
,
0100
0001
0100
0000
,
0001
0000
0010
0000
,
0100
1000
0001
0100
,
0000
0010
0100
0010
,
1000
0000
0001
0000
,
0010
0000
0100
0000
,
1000
0000
0100
0000
,
0010
0000
0001
0000
,
1000
0000
1000
0000
,
0001
0000
0001
0000
,
0100
0000
0010
0100
,
0010
0000
0000
0000
,
1000
0000
0000
0000
,
0001
0000
0000
0100
,
0010
0000
1000
0000
,
0001
0000
0010
0000
,
0100
0000
0010
0000
,
0001
0000
1000
0000
,
0010
0100
0010
0000
,
1000
0000
0001
0000
,
0010
0000
0100
0000
,
0010
0000
0001
0000
,
1000
0001
0100
0000
,
0010
1000
0001
0000
,
0010
0100
1000
0000
,
0010
0100
0001
0000
,
1001
0000
1001
0000
;

//--------------- dance-single - ----------------
#NOTES:
     dance-single:
     :
     Easy:
     8:
     0.322237,0.361635,0.028826,0.007207,0.090082,313,309,4,1,0,0,0,0,0,0.322237,0.361635,0.028826,0.007207,0.090082,313,309,4,1,0,0,0,0,0:
0000
0000
0000
0000
,
0000
0000
0000
0000
,
0000
0000
0000
0000
,
0000
0000
0000
0000
,
0000
0000
0000
0000
,
1000
0001
0100
0001
,
0010
0100
1000
0100
,
0010
0001
1000
0010
,
0100
0010
1000
0001
,
1001
0000
0000
0000
1000
0000
0000
0100
0000
0000
0010
0000
0001
0000
0000
0000
,
1000
0000
0000
0000
0001
0000
0000
0100
0000
0000
0010
0000
1000
0000
0000
0000
,
0100
0000
0000
0000
0010
0000
0000
0100
0000
0000
1000
0000
0001
0000
0000
0000
,
0100
0000
0010
0000
0100
0000
0001
1000
,
0001
0000
0000
0000
0010
0000
0000
0100
0000
0000
1000
0000
0001
0000
0000
0000
,
0100
0000
0000
0000
0010
0000
0000
0100
0000
0000
0001
0000
1000
0000
0000
0000
,
0002
0000
1003
0001
1000
0001
0100
0000
,
0001
0000
0000
0000
0010
0000
0000
0100
0000
0000
1000
0000
0010
0000
0000
0000
,
0100
0001
0010
0100
,
0001
0100
1000
0001
,
0100
0010
0100
1000
,
0100
0001
0010
0100
,
1100
0000
1000
0001
,
0101
0000
0010
1000
,
0100
0000
0000
0000
0010
0000
0000
0100
0000
0000
0010
0000
0100
0000
0000
0000
,
1000
0000
0000
0000
0001
0000
0000
1000
0000
0000
0001
0000
1000
0000
0000
0000
,
0010
0000
0100
0000
0010
0000
0100
0001
,
0000
0100
0010
1000
,
0100
0000
0010
0000
0100
0000
1000
0001
,
0000
0100
0001
0000
0010
0000
0100
0000
,
1000
0001
0100
0010
,
0100
1000
0100
0001
,
1000
0000
0100
0000
0010
0000
0100
0100
,
0000
1000
0001
0000
0100
0000
0010
0000
,
1000
0000
0000
0100
0000
0000
0010
0000
0000
0000
0100
0000
1000
0000
0000
0000
,
0001
0100
0010
0010
,
0100
0000
0001
0000
0100
0000
0000
0000
0010
0000
1000
0000
0000
0010
0000
0000
,
0100
0010
1000
0001
,
0010
0000
0000
0100
0000
0000
1000
0000
0000
0000
0100
0000
0010
0000
0000
0000
,
0001
1000
0010
0100
,
0001
1000
0100
0001
,
0100
0000
0010
0001
1000
0000
0001
0000
,
1000
0000
0010
0100
0010
0000
1000
0010
,
0000
0010
0100
0000
0001
0000
0010
0000
,
0001
0000
0010
0100
0010
0000
0001
0010
,
0000
0010
0100
0000
1000
0000
0010
0000
,
0100
0000
0010
0100
1000
0000
0100
0010
,
0000
1000
0001
0000
0010
0100
1000
0000
,
0100
0000
0010
0100
0001
0000
0100
0010
,
0000
0001
1000
0000
0010
0100
0001
0000
,
1000
0010
0100
0001
,
1000
0100
0010
0001
,
0100
0010
1000
0100
,
0010
0100
1000
0010
,
1000
0000
0100
0000
1000
0001
1000
0000
,
0010
0000
0010
0000
0100
0001
0010
0000
,
0100
0000
1000
0000
0001
1000
0001
1000
,
0010
0000
0000
0000
0100
0000
0000
0010
0000
0000
0000
0000
0000
0000
0000
0000
,
1000
0000
0001
0000
,
1000
0000
0000
0010
0000
0000
0000
0100
0000
0000
0000
0000
0000
0000
0000
0000
,
0001
0000
0000
0000
0010
0000
0000
0100
0000
0000
1000
0000
0010
0000
0000
0000
,
1000
0000
0001
0000
0010
0000
0100
1000
,
0010
0000
0000
0000
0100
0000
0000
0001
0000
0000
0100
0000
0010
0000
0000
0000
,
1000
0000
0000
0000
0001
0000
0000
1000
0000
0000
0100
0000
0010
0000
0000
0000
,
0001
0100
1000
0100
,
0010
1000
0010
0000
1000
0100
1000
0000
,
0100
0010
0001
0100
,
0010
0000
0000
0000
1000
0000
0000
1010
0000
0000
0010
0000
0100
0000
0000
0000
,
0001
0000
1000
0000
0001
0000
0000
0010
0000
0000
0001
0000
0100
0000
0000
0000
,
0010
0000
0100
0000
0010
0000
0000
1000
0000
0000
0100
0000
0010
0000
0000
0000
,
0100
0000
1000
0000
0100
0000
0000
0010
0000
0000
0001
0000
0100
0000
0000
0000
,
0010
0000
1000
0000
0010
0000
0000
0100
0000
0000
0001
0000
0010
0000
0000
0000
,
0100
0000
0000
1000
0000
0000
0000
0000
0001
0000
0000
0100
0000
0000
0000
0000
;

//--------------- dance-single - ----------------
#NOTES:
     dance-single:
     :
     Medium:
     12:
     0.507549,0.516622,0.108099,0.036033,0.313486,493,478,15,5,0,0,0,0,0,0.507549,0.516622,0.108099,0.036033,0.313486,493,478,15,5,0,0,0,0,0:
0000
0000
0000
0000
,
0000
0000
0000
0000
,
0000
0000
0000
0000
,
0000
0000
0000
0000
,
0000
0000
0000
0000
,
1000
0000
0001
0000
0100
0000
0000
0010
0000
0000
1000
0000
0100
0000
0000
0000
,
0010
0000
0001
0000
1000
0000
0000
0010
0000
0000
0100
0000
0001
0000
0000
0000
,
1000
0000
0001
0000
0010
0000
0000
0100
0000
1000
0000
0000
0001
0000
0000
0000
,
1000
0000
0010
0000
0100
0000
0001
0100
0000
0001
0100
0000
0010
0000
0000
0000
,
1000
0000
0100
0000
0010
0000
0100
1000
0000
0001
0100
0000
0010
0000
0000
0000
,
0100
0000
0001
0000
1000
0000
0100
0010
0000
0001
1000
0000
0010
0000
0000
0000
,
0100
0000
0001
0000
0010
0000
0100
1000
0000
0010
1000
0000
0001
0000
0000
0000
,
0100
0010
0100
0000
0001
0000
1000
0000
0100
0000
0000
0010
0100
0000
1000
0000
,
0001
0000
0100
0000
0010
0000
0100
0001
0000
1000
0100
0000
0010
0000
0000
0000
,
0100
0000
1000
0000
0001
0000
0100
0010
0000
1000
0001
0000
0010
0000
0000
0000
,
0200
0000
0000
0000
1300
0001
1000
0000
0001
0100
0001
0000
0100
0000
0000
0000
,
0010
0000
1000
0000
0100
0000
0010
0100
0000
0010
0100
0000
1000
0000
0000
0000
,
0001
0000
0100
0000
0010
1000
0000
0010
0000
0100
0000
0010
0100
0000
0000
0000
,
0001
0000
1000
0000
0100
0000
0010
0001
0000
0010
0100
0000
1000
0000
0000
0000
,
0001
0000
0100
0000
0010
0000
1000
0000
0100
1000
0000
0010
0100
0000
0001
0000
,
0100
0000
0010
0000
1000
0001
0000
0010
0000
0100
1000
0000
0001
0000
0000
0000
,
1000
0000
1000
0000
0010
0000
0100
0000
0001
0100
0001
0000
1000
0000
0000
0000
,
1100
0000
0100
0000
0010
0000
0100
0000
1000
0001
1000
0000
0001
0000
0000
0000
,
0100
0000
0000
0010
0000
0000
0100
0000
0000
0000
0010
0000
1000
0000
0001
0000
,
0010
0000
0000
0000
0100
0000
0000
0010
0000
0000
0100
0000
1000
0000
0000
0000
,
0001
1000
0001
0000
0100
0000
0010
0100
,
0000
0001
1000
0000
0100
0010
0100
0000
,
1000
0001
1000
0000
0100
0000
0010
0100
,
0000
1000
0001
0000
0100
0000
0010
1000
,
0001
0000
0010
0000
0100
0000
1000
0001
,
0000
0100
0010
1000
0100
0010
0001
0000
,
2000
0000
0000
0000
3002
0000
1003
0001
,
0000
0100
0010
1000
0001
0000
0010
0000
,
0100
0000
0000
1000
0000
0000
0010
0000
0000
0000
0100
0000
0001
0000
1000
0000
,
0000
0000
0100
0000
0010
0000
0001
0000
1000
0001
0000
0001
0000
0000
0000
0000
,
0100
0000
0010
0000
1000
0000
0010
0000
0100
0000
0001
0000
0000
1000
0000
0000
,
0100
0010
0001
0000
1001
0000
1001
0000
,
0101
0000
0000
0010
0000
0000
1000
0000
0000
0000
0100
0000
0010
0000
0001
0000
,
0000
0010
0100
1000
0010
0100
0010
0000
,
1000
0100
0010
0001
0100
0010
1000
0001
,
0010
0000
0100
0000
1000
0100
1000
0000
0001
0000
0000
0000
0101
0000
0000
0000
,
0100
0000
0010
0000
1000
0000
0001
0000
0010
0100
0010
0000
0001
0000
1000
0000
,
0000
0000
1000
0000
0010
0000
0100
0000
0001
0010
0001
0000
1000
0000
0000
0000
,
0100
0000
0010
0000
0001
0000
1000
0000
0010
0100
0010
0000
1000
0000
0001
0000
,
0000
0000
0001
0000
0010
0000
0100
0000
1000
0010
1000
0000
0001
0000
0000
0000
,
1000
0000
0100
0000
0010
0000
0001
0000
1000
0001
0100
0000
0010
0000
0100
0000
,
0000
0000
0100
0000
0001
0000
0010
0000
0100
1000
0001
0000
1000
0000
0000
0000
,
0010
0000
0100
0000
0001
0000
0010
0000
0100
1000
0010
0000
0100
0000
0110
0000
,
0000
0000
0010
0000
1000
0000
0100
0000
0010
0001
1000
0000
0010
0000
0000
0000
,
0100
0000
0001
0000
0100
0000
0000
0100
0000
0000
0010
0000
1000
0000
0001
0000
,
0010
0000
0100
0000
1000
0000
0000
1000
0000
0000
0100
0000
0010
0000
0001
0000
,
0010
0000
0100
0000
0010
0000
0000
0010
0000
0000
0001
0000
0100
0000
0010
0000
,
1000
0000
0010
0000
0100
0000
0000
0100
0000
0000
0001
0000
1000
0000
0000
0000
,
1001
0000
1100
0000
0100
0010
0001
0100
,
0110
0000
1010
0000
1000
1000
0001
0001
,
0010
0000
0100
0000
1000
0000
0010
0000
0100
0000
0010
0000
1000
0001
1000
0001
,
1000
0000
0001
0000
0100
0000
0020
0200
0000
0000
0030
0000
0300
0000
0000
0000
,
0001
0000
0010
0000
0100
0000
0000
0010
0000
0000
0001
0000
1000
0000
0000
0000
,
0001
1000
0000
1000
0000
0001
0000
0100
0000
0000
0000
0000
0000
0000
0000
0000
,
0010
0000
1000
0000
0001
0000
1000
0100
0000
1000
0100
0000
0010
0000
0000
0000
,
0001
0100
0001
0000
1000
0000
0100
0000
0010
0000
0000
0100
1000
0000
0001
0000
,
1000
0000
0010
0000
0100
0000
0001
1000
0000
0001
1000
0000
0100
0000
0000
0000
,
1000
0000
0100
0000
0010
0000
0000
0010
0000
0000
0001
0000
0100
0000
0000
0000
,
0010
0000
1000
0000
0001
0010
0000
0011
0000
0000
0010
0000
0100
0000
0000
0000
,
1000
0000
0001
0000
0100
0000
0010
1000
0000
0100
1000
0000
0100
0000
0010
0000
,
0100
1000
0001
0100
0010
1000
0100
0010
,
0100
0000
1000
0000
0010
0100
0000
0101
0000
0000
0001
0000
1000
0000
0001
0000
,
0100
0000
0010
0000
1000
0000
0100
0010
0000
0100
0001
0000
0100
0000
1000
0000
,
0001
0000
0100
0000
0010
0000
0100
1000
0000
0100
0010
0000
1000
0000
0001
0000
,
0010
0000
0010
0000
0100
0000
0100
1000
0000
1000
0001
1000
0010
0000
0100
0000
,
0001
0000
0010
0000
0100
0000
0010
1000
0000
0010
0100
0000
1000
0000
0000
0000
,
1001
0000
0000
0001
0100
0000
0010
0000
1001
0000
0000
1100
0000
0000
0000
0000
;

//--------------- dance-single - ----------------
#NOTES:
     dance-single:
     :
     Hard:
     15:
     0.700068,0.723271,0.345916,0.057653,0.727865,680,632,48,8,0,0,0,0,0,0.700068,0.723271,0.345916,0.057653,0.727865,680,632,48,8,0,0,0,0,0:
0000
0000
0000
0000
,
0000
0000
0000
0000
,
0000
0000
0000
0000
,
0000
0000
0000
0000
,
0000
0000
0000
0000
,
1000
0001
0100
0010
1000
0010
0000
1010
0000
1000
0100
0010
0001
0010
0000
0001
,
0100
0000
0010
1000
0100
0000
1000
0001
0000
0100
0010
0100
0001
0000
1000
0000
,
0100
0000
0010
0000
0100
0000
1000
0001
0000
0100
0000
0010
1000
0000
0000
0000
,
1001
0000
1000
0000
0001
0100
0010
0100
0000
0010
1000
0010
0100
0000
0000
0000
,
1001
0000
0001
0000
0010
0100
1000
0001
0000
0001
0100
0000
0010
0000
1000
0000
,
0100
0000
1000
0000
0010
1000
0001
0100
0000
0100
0010
0000
1000
0000
0001
0000
,
0010
0000
0100
0000
1000
0100
0010
0001
0000
0001
0100
0000
0010
0000
1000
0000
,
0001
1000
0100
0000
0010
0000
0001
0000
1000
0000
0000
0100
0010
0001
0100
0000
,
0010
0000
1000
0000
0100
1000
0100
0010
0000
0010
0001
0000
1000
0000
0010
0000
,
0100
0000
0001
0000
0100
0001
0100
0010
0000
0010
0100
0000
0001
0000
1000
0000
,
2001
0000
0000
0000
3001
0100
1000
0000
1000
0100
0001
0000
1000
0000
1000
0000
,
0100
0000
0010
0000
0001
0000
1000
0001
0000
0100
0010
0000
1000
0000
0001
0000
,
1000
0100
0010
0100
1000
0001
0000
1001
0000
1000
0010
0100
0001
0010
0000
0100
,
1000
0000
0001
0100
0010
0000
1000
0100
0000
0010
0001
0100
0001
0000
1000
0000
,
0010
0000
1000
0001
0100
0001
1000
0010
0100
0001
0000
0010
0100
0000
1000
0000
,
0001
0100
0001
0100
0010
1000
0000
0100
0000
0010
0001
1000
0001
0000
1000
0000
,
1001
0000
0110
0000
0001
0000
1000
0000
0001
0100
0010
0000
0100
0010
1000
0000
,
1010
0000
0110
0000
0001
0000
1000
0000
0100
0010
0001
0000
0010
0001
1000
0000
,
1002
0000
0000
0000
1000
0000
0000
1003
0000
0000
0001
0000
1000
0000
0001
0000
,
2001
0000
0000
0000
0001
0000
0000
3001
0000
0000
1000
0000
0001
0000
0010
0000
,
0110
0100
1000
0010
0100
0000
0001
0001
,
0000
1000
0100
0010
0001
1000
0001
0000
,
0100
0010
1000
0100
1000
0000
0010
0010
,
0000
0100
0001
1000
0100
0000
1000
0100
,
0010
0000
0001
0100
0010
0000
0100
0110
,
0000
0010
1000
0010
1000
0100
1000
0100
0010
0001
0010
0001
0100
0000
0010
0000
,
2020
0000
0030
0000
0002
3003
1001
1001
,
0000
0000
0001
0000
0001
0000
1000
0000
0010
0100
0001
1000
0100
0000
0000
0000
,
1000
0000
0000
0110
0000
0000
0001
0000
0000
0000
1000
0000
1000
0000
0010
0000
,
0000
0000
0100
0000
0001
0000
1000
0000
0001
0010
0000
0110
0000
0000
0000
0000
,
0100
0000
1000
0000
0001
0000
0100
0001
1000
0000
0001
0000
0000
0101
0000
0000
,
0100
0000
0010
1000
0001
0000
1000
0000
1100
0000
0000
0000
0110
0000
0000
0000
,
0011
0000
0000
1000
0000
0000
0110
0000
0000
0000
1000
0000
0001
0000
0001
0000
,
0000
0000
0100
0010
1000
0001
0010
0001
1000
0100
1000
0010
0100
0001
1000
0000
,
0001
0000
1000
0100
0010
0000
0001
1000
0100
1000
0010
0100
0001
0000
1000
0001
,
0010
0000
0100
0000
1000
0010
1000
0010
0100
0000
0000
0000
0101
0000
0000
0000
,
1001
0000
0001
1000
0100
0010
0001
1000
0010
0100
0001
0000
1000
0000
1010
0000
,
0000
0010
1000
0010
0100
0001
1000
0100
0010
0001
1000
0000
1001
0000
0000
0000
,
1010
0000
1000
0001
0100
0001
0010
0100
1000
0010
0100
0000
0001
0000
0011
0000
,
0000
0010
0001
1000
0100
1000
0010
0100
0001
0010
0100
0000
1001
0000
0000
0000
,
1100
0000
1000
0100
0010
0100
1000
0010
0100
1000
0100
0000
0001
0000
0011
0000
,
0000
0010
0001
0100
0010
0100
0001
0010
0100
0001
0100
0000
1100
0000
0000
0000
,
1001
0000
1000
0010
0001
0010
0100
0001
1000
0010
0001
0000
0010
0000
0110
0000
,
0000
1000
0001
0010
1000
0010
0100
1000
0001
0010
1000
0000
0010
0000
0000
0000
,
0110
0000
0100
0000
1000
0000
0010
1000
0000
0010
1000
0000
0100
0000
0010
0000
,
0001
0000
1000
0000
0010
0000
0100
0001
0000
0100
0001
0000
1000
0000
0100
0000
,
0010
0000
0001
0000
1000
0000
0010
0100
0000
0010
0100
0000
0001
0000
1000
0000
,
0100
0000
1000
0000
0010
0000
0100
0010
0000
0100
0010
0000
1000
0000
0001
0000
,
0101
0000
0000
0000
1010
0000
0000
0000
0010
1000
0001
1000
0100
0000
0010
0000
,
0011
0000
0000
0000
1100
0000
0000
0000
0001
0100
0010
0000
0010
0100
0001
0000
,
1000
0000
1000
0000
0100
0000
0100
0000
0010
0001
0010
0001
1000
0100
1000
0100
,
0010
0000
0001
0000
1000
0000
0020
0200
0000
0000
0030
0000
0300
0000
0000
0000
,
0001
0000
1000
0000
0100
0000
0010
0001
0000
0000
0100
0000
0010
0000
1000
0000
,
0001
1000
0000
1000
0000
0010
0000
0110
0000
0000
0000
0000
0001
0000
1000
0000
,
1100
0000
0010
0000
0001
0100
0010
1000
0000
1000
0001
0000
0100
0000
0010
0000
,
0100
0001
0010
0000
0100
0000
1000
0000
0001
0000
0000
0010
0001
1000
0010
0000
,
0100
0000
0001
0000
0010
0100
1000
0100
0000
0100
0001
0000
0100
0000
1100
0000
,
1000
0000
0010
0000
0100
0000
1000
0100
0000
0010
1000
0000
0001
0000
0100
0000
,
0001
0010
0100
0010
0001
0100
0000
0110
0000
0010
1000
0001
0010
0001
0000
1000
,
0010
0000
1000
0001
0100
0000
0010
0100
0000
0001
1000
0100
0010
0000
0001
0000
,
1000
0000
0100
1000
0010
0100
0010
1000
0001
0100
0001
0010
0100
0000
1000
0000
,
0100
0010
0001
1000
0010
0100
0000
0110
0000
0000
0001
0100
0010
0000
1001
0000
,
1000
0000
0100
0000
1000
0000
0001
0100
0000
1000
0001
0000
0010
0000
1000
0000
,
0100
0000
0010
0000
0001
0000
1000
0100
0000
0001
1000
0000
0010
0000
0001
0000
,
1000
0000
1000
0000
0010
0000
0100
0001
0000
0001
0100
1000
0100
0000
0001
0000
,
0010
0000
0010
0000
0100
0000
1000
0100
0000
0001
0100
0000
1000
0000
0001
0000
,
1001
0000
0000
1000
0001
0100
0010
1000
0100
0000
0000
0110
0000
0000
0000
0000
;
