#TITLE:Temple of Anubis;
#SUBTITLE:;
#ARTIST:Massive New Krew;
#TITLETRANSLIT:;
#SUBTITLETRANSLIT:;
#ARTISTTRANSLIT:;
#GENRE:;
#CREDIT:;
#BANNER:;
#BACKGROUND:;
#LYRICSPATH:;
#CDTITLE:;
#MUSIC:Temple of Anubis.ogg;
#OFFSET:-0.291000;
#SAMPLESTART:38.990002;
#SAMPLELENGTH:20.000000;
#SELECTABLE:YES;
#BPMS:0.000000=155.000000
;
#STOPS:
;
#BGCHANGES:;
#KEYSOUNDS:;
#ATTACKS:;

//---------------dance-single - ----------------
#NOTES:
     dance-single:
     :
     Beginner:
     5:
     0.208393,0.245100,0.000000,0.000000,0.000000,197.000000,197.000000,0.000000,0.000000,0.000000,0.000000,0.208393,0.245100,0.000000,0.000000,0.000000,197.000000,197.000000,0.000000,0.000000,0.000000,0.000000:
0000
0000
0000
0000
,
0000
0000
0000
0000
,
0000
0000
0000
0000
,
0000
0000
0000
0000
,
0000
0000
0000
0000
,
1000
0000
0001
0000
,
1000
0000
0001
0000
,
0100
0000
0010
0000
,
1000
1000
1000
0000
,
0100
0010
0000
0001
,
0000
1000
0000
0010
,
0100
0000
0001
1000
,
0000
0100
0000
0000
,
0010
0100
0000
1000
,
0000
0001
0000
0100
,
0010
0000
0100
0001
,
0000
1000
0000
0001
,
0001
0000
1000
0000
,
0010
0000
1000
0000
,
0100
0000
0010
0000
,
0001
0000
1000
0000
,
0010
0010
0010
0000
,
0100
0100
0100
0000
,
0001
1000
0001
1000
,
0001
0000
0000
0000
,
0100
0001
0100
0000
,
0010
0000
1000
0000
,
0001
0010
0001
0000
,
1000
0000
0100
0000
,
0010
0100
0010
0000
,
0001
0000
1000
0010
,
0010
0000
0100
0001
,
0000
0000
1000
0000
,
0100
0010
0001
0000
,
1000
0000
0010
0000
,
0100
0001
1000
0000
,
0100
0000
0010
0000
,
0100
1000
0100
0000
,
0010
0001
0010
0000
,
0001
0100
0001
0000
,
1000
0100
0010
0000
,
0001
1000
0001
0000
,
0100
0000
0010
0000
,
0100
0001
0100
0000
,
0010
0000
1000
0000
,
0100
1000
0100
0000
,
0010
0000
0001
0000
,
1000
1000
1000
0000
,
0001
0100
0001
0100
,
0010
0000
0000
0000
,
0000
0000
0000
0000
,
0100
0010
0000
1000
,
0000
0001
0000
0010
,
0100
0000
1000
0001
,
0000
0100
0000
0000
,
0010
0100
0000
0001
,
0000
1000
0000
0100
,
0010
0000
0100
1000
,
0000
0001
0000
1000
,
0010
0000
0000
1000
,
1000
0000
0000
0100
,
0100
0000
0000
0010
,
0010
0000
0001
0000
,
0100
0100
0100
0000
,
0010
0010
0010
0000
,
1000
0001
1000
0001
,
1000
0000
0000
0000
,
0001
0100
0001
0100
,
0010
0000
1000
0000
,
0100
1000
0100
1000
,
0001
0000
0010
0000
,
0100
0010
0100
0010
,
0001
0000
1000
0000
,
0010
0000
0100
0001
,
0000
0000
1000
0000
,
0010
0100
0001
1000
,
0100
0000
0010
0000
,
0100
1000
0001
0100
,
0010
0000
0100
0000
,
0010
1000
0100
0010
,
0001
0000
0010
0000
,
0100
1000
0010
0100
,
0001
0000
1000
0001
;

//---------------dance-single - ----------------
#NOTES:
     dance-single:
     :
     Easy:
     9:
     0.362837,0.460951,0.081453,0.000000,0.018512,343.000000,332.000000,11.000000,0.000000,0.000000,0.000000,0.362837,0.460951,0.081453,0.000000,0.018512,343.000000,332.000000,11.000000,0.000000,0.000000,0.000000:
// measure 0
0000
0000
0000
0000
,  // measure 1
0000
0000
0000
0000
,  // measure 2
0000
0000
0000
0000
,  // measure 3
0000
0000
0000
0000
,  // measure 4
0000
0000
0000
0000
,  // measure 5
1000
0001
0010
0100
,  // measure 6
1000
0001
0100
0000
,  // measure 7
0010
1000
0100
0010
,  // measure 8
0110
0100
1000
0001
,  // measure 9
0100
0000
0010
1000
0000
0100
0000
0010
,  // measure 10
0000
0100
0000
1000
0000
0001
0000
0000
,  // measure 11
0100
0000
0010
0000
0100
0000
0001
1000
,  // measure 12
0000
0001
0000
0010
0000
0001
0000
0000
,  // measure 13
0100
0000
0010
1000
0000
0100
0000
1000
,  // measure 14
0000
0010
0000
0100
0000
0000
0001
0000
,  // measure 15
1000
0000
0100
0000
0010
0000
0100
1000
,  // measure 16
0000
0001
0000
0100
0000
0000
0010
0000
,  // measure 17
0100
0001
0100
0001
,  // measure 18
1000
0010
1000
0010
,  // measure 19
1000
0100
1000
0100
,  // measure 20
0010
0001
0010
0001
,  // measure 21
1000
0010
0100
0001
,  // measure 22
0010
0001
0100
0010
,  // measure 23
1000
0001
1000
0000
0001
1000
0001
0000
,  // measure 24
0010
0000
0000
0000
,  // measure 25
0100
0000
1000
0000
0001
0100
0010
0000
,  // measure 26
0100
0001
1000
1000
,  // measure 27
0100
0000
0010
0000
0100
1000
0001
0000
,  // measure 28
0100
0010
0100
0100
,  // measure 29
0001
0000
0010
0000
0100
0010
0001
0000
,  // measure 30
1000
0000
1000
0000
0010
0000
0100
0010
,  // measure 31
0100
0000
0000
0101
0000
0000
0110
0000
,  // measure 32
0000
1010
0000
0000
1001
0000
1000
0000
,  // measure 33
0001
0100
0001
0000
1000
0010
1000
0000
,  // measure 34
0100
0010
0001
1000
,  // measure 35
0010
0100
0010
0000
1000
0001
1000
0000
,  // measure 36
0010
0100
0001
1000
,  // measure 37
0100
0100
0010
0000
0001
0001
0100
0000
,  // measure 38
0010
0010
1000
0000
0001
0000
0100
0000
,  // measure 39
0001
1000
0001
0000
1000
0000
0000
0000
,  // measure 40
0100
0000
0000
0010
0000
0000
0100
0000
0010
0000
0000
0000
0000
0000
0000
0000
,  // measure 41
0001
0000
0010
0000
0100
0000
0000
1000
0000
0000
1000
0000
0000
0000
0000
0000
,  // measure 42
0001
0000
0100
0000
0001
0001
0000
0000
,  // measure 43
1000
0000
0010
0000
0100
0000
0000
0001
0000
0000
0001
0000
0000
0000
0000
0000
,  // measure 44
1000
0000
0100
0000
1000
1000
0000
0000
,  // measure 45
0010
0000
0100
0000
0001
0000
0000
0010
0000
0000
0010
0000
0000
0000
0000
0000
,  // measure 46
0100
0000
1000
0000
0001
0001
0000
0000
,  // measure 47
0100
0010
0100
0001
,  // measure 48
1000
0100
1000
0100
1000
0001
1000
0001
,  // measure 49
0010
0000
0000
0000
,  // measure 50
0000
0000
0000
0000
,  // measure 51
0100
0000
0010
0001
0000
0100
0000
0010
,  // measure 52
0000
0100
0000
0001
0000
1000
0000
0000
,  // measure 53
0100
0000
0010
0000
0100
0000
1000
0001
,  // measure 54
0000
1000
0000
0010
0000
1000
0000
0000
,  // measure 55
0100
0000
0010
0001
0000
0100
0000
0001
,  // measure 56
0000
0010
0000
0100
0000
0000
1000
0000
,  // measure 57
0001
0000
0100
0000
0010
0000
0100
0001
,  // measure 58
0000
1000
0000
0100
0000
0000
0010
0000
,  // measure 59
0100
0000
1000
0010
0000
0000
0100
0000
,  // measure 60
0010
0000
1000
0100
0000
0000
0010
0000
,  // measure 61
0001
0000
0100
0010
0000
0000
0100
0000
,  // measure 62
0001
0000
0010
0100
1000
0000
1000
0000
,  // measure 63
0001
0010
0100
1000
,  // measure 64
0010
1000
0100
0010
,  // measure 65
0001
1000
0001
0000
1000
0001
1000
0000
,  // measure 66
0010
0000
0000
0000
,  // measure 67
0100
0000
0001
0000
0010
0100
1000
0000
,  // measure 68
0001
0000
0100
0000
0010
0100
0000
0000
,  // measure 69
0001
0000
1000
0000
0100
0010
0001
0000
,  // measure 70
1000
0000
0010
0000
0100
0001
0000
0000
,  // measure 71
1000
0000
0010
0000
0100
0001
0010
0000
,  // measure 72
0001
0000
0100
0000
0010
1000
0000
0000
,  // measure 73
1001
0000
0000
1100
0000
0000
0110
0000
,  // measure 74
0000
0011
0000
0000
1001
0000
0000
0000
,  // measure 75
0001
1000
0010
0000
1000
0001
0010
0000
,  // measure 76
0100
0000
1000
0000
0010
1000
0000
0000
,  // measure 77
0100
1000
0001
0000
0100
0001
1000
0000
,  // measure 78
0010
0000
0100
0000
0001
1000
0001
0000
,  // measure 79
0010
0100
1000
0000
0010
0100
0001
0000
,  // measure 80
1000
0010
1000
0100
,  // measure 81
0010
0001
0010
0001
1000
0001
1000
0010
,  // measure 82
0100
0000
0000
0100
0000
0000
0001
0000
1000
0000
0000
0000
1001
0000
0000
0000
,  // measure 83
0001
0000
0000
0000
;

//---------------dance-single - ----------------
#NOTES:
     dance-single:
     :
     Medium:
     13:
     0.588155,0.583871,0.222145,0.044429,0.229550,556.000000,526.000000,30.000000,6.000000,0.000000,0.000000,0.588155,0.583871,0.222145,0.044429,0.229550,556.000000,526.000000,30.000000,6.000000,0.000000,0.000000:
0000
0000
0000
0000
,
0000
0000
0000
0000
,
0000
0000
0000
0000
,
0000
0000
0000
0000
,
0000
0000
0000
0000
,
1000
0000
0001
0100
0000
0000
0010
0000
,
1000
0100
0000
0000
0010
0000
0100
0000
,
1000
0000
0010
0100
0000
0000
0001
0000
,
1000
1000
0001
0010
0100
1000
0001
0000
,
0100
0001
0100
0010
0000
1000
0100
0010
,
0000
0001
0010
0100
0000
1000
0001
0100
,
0010
0000
0100
0010
1000
0001
0010
0100
,
0000
0010
0001
0100
0000
0010
0000
0000
,
1000
0001
0010
0001
0000
0100
0010
1000
,
0000
0010
0100
0001
0000
1000
0100
0010
,
0001
1000
0001
1000
0010
0100
0001
1000
,
0000
0100
1000
0010
0000
0100
0001
0001
,
1000
0001
1000
0100
0010
0001
1000
0000
,
0001
1000
0001
0100
0010
1000
0001
0000
,
0010
0001
0100
0001
1000
0010
1000
0000
,
0010
1000
0100
1000
0001
0010
0001
0000
,
0100
0010
0100
0010
1000
0010
1000
0010
,
1000
0001
0010
0100
1000
0001
0100
0000
,
0010
0000
1000
0000
0100
0000
0010
0000
0100
0000
1000
0000
0001
1000
0001
1000
,
0001
0000
0000
0000
2000
3000
1001
0000
,
0001
0100
0010
1000
0001
0010
0100
0000
,
1000
0000
0001
0100
0000
0100
0001
0000
0100
0000
0010
0000
1000
0000
0000
0000
,
0010
1000
0100
1000
0001
0100
0010
0000
,
0100
0000
0010
1000
0000
1000
0010
0000
1000
0000
0001
0000
0010
0000
0000
0000
,
0100
0010
0001
1000
0010
0100
0001
0000
,
1000
0000
0100
1000
0000
1000
0100
0000
0010
0000
0001
0000
1000
0000
1000
0000
,
0001
0000
0100
0101
0001
0000
1001
0000
,
0000
1010
0000
0000
1100
0000
0100
0000
,
0010
0100
0001
0100
0010
0001
1000
0000
,
0100
0000
0010
0001
0000
0001
1000
0000
0010
0000
0100
0000
0000
0001
0000
0001
,
1000
0010
0001
0010
0100
0001
1000
0000
,
0100
0000
0010
0001
0000
0001
1000
0000
0100
0000
0010
0000
0000
0100
0000
0100
,
1000
0001
0100
0000
0101
0001
1000
0000
,
1100
0000
1100
0000
0100
0000
0010
0000
0001
0000
0000
1000
0000
0000
0001
0000
,
0100
0010
0100
0001
0010
0100
1000
0000
,
1001
0000
0000
0001
0000
0000
0100
0000
0110
0000
0000
0010
0000
0000
1000
0000
,
0001
0000
0010
0000
0100
0000
0010
0001
0000
0000
1002
0000
0000
0000
1003
0000
,
0010
0000
0100
0010
0000
0010
1000
0000
0001
0000
1000
0000
0000
0001
0000
0001
,
1000
0000
0100
0000
0010
0000
0001
0100
0000
0000
0201
0000
0000
0000
0301
0000
,
0100
0000
0010
1000
0000
1000
0001
0000
1000
0000
0100
0000
0000
0010
0000
0010
,
0100
0000
1000
0000
0010
0000
0100
0010
0000
0000
0120
0000
0000
0000
1030
0000
,
0100
0000
0010
0001
0000
0001
1000
0000
0001
0000
0100
0000
0000
0001
0000
0001
,
0100
0010
1000
0001
0010
0100
1000
0010
,
0100
0000
0010
0000
1000
0000
0100
0000
0010
0000
0001
0000
1000
0001
1000
0001
,
1000
0000
0000
0000
,
0000
0000
0000
0000
,
0100
1000
0100
0010
0000
0001
0100
0010
,
0000
1000
0010
0100
0000
0001
1000
0100
,
0010
0000
0100
0010
0001
1000
0010
0100
,
0000
0010
1000
0100
0000
0010
0000
0000
,
0001
1000
0010
1000
0000
0100
0010
0001
,
0000
0010
0100
1000
0000
0001
0100
0010
,
1000
0001
1000
0001
0010
0100
1000
0001
,
0000
0100
0001
0010
0000
0100
1000
1000
,
1001
0000
0001
0101
0000
0000
0101
0000
,
0110
0000
0100
0110
0000
0000
0110
0000
,
1010
0000
0010
1010
0000
0000
1010
0000
,
1100
0000
0100
0110
0010
0001
1000
0000
,
0100
0010
0100
0010
0001
0010
0001
0010
,
0001
1000
0010
0100
0001
1000
0100
0000
,
0010
0000
0001
0000
0100
0000
0010
0000
0100
0000
0001
0000
0100
0010
0100
0010
,
0100
0000
0000
0000
0020
0030
0110
0000
,
1000
0000
0001
0000
0010
0000
0001
0100
0000
0001
0100
0000
0010
0000
0000
0000
,
1000
0000
0001
0010
0000
0100
1000
0000
0001
0000
0100
0000
0010
0000
0000
0000
,
0100
0000
0001
0000
1000
0000
0100
1000
0000
0100
1000
0000
0001
0000
0000
0000
,
1000
0000
0010
0100
0000
0001
0100
0000
0001
0000
1000
0000
0001
0000
0000
0000
,
0010
0000
0100
0000
1000
0000
0001
0010
0000
0001
0010
0000
0001
0000
0000
0000
,
0100
0000
0010
1000
0000
0001
0010
0000
0100
0000
1000
0000
0001
0000
0000
0000
,
1000
0100
1000
0100
0010
0001
0100
0010
,
0000
0110
0000
0000
0101
0000
0001
0000
,
0010
0000
0100
0000
1000
0000
0100
0010
0100
0000
0010
0000
0001
0000
0000
0000
,
1000
0000
0010
1000
0000
0010
1000
0000
0010
0000
0100
0000
0001
0000
0000
0000
,
0100
0000
0010
0000
1000
0000
0001
0010
0001
0000
0010
0000
0100
0000
0000
0000
,
0011
0000
0000
0000
1001
0000
0000
0000
1000
0000
1000
0000
0010
1000
0010
1000
,
0010
1000
0100
0010
0001
0100
0010
0000
,
0001
0000
0010
0100
0000
0100
0001
0000
1000
0000
0100
0000
0010
0000
0000
0000
,
0100
0000
1000
0000
0010
0000
0100
0000
0001
0000
0010
0000
0100
1000
0100
1000
,
0001
0000
1000
0001
0000
1000
0001
0000
0020
0000
0030
0000
0110
0000
0000
0000
,
0100
0000
0000
0000
;

//---------------dance-single - ----------------
#NOTES:
     dance-single:
     :
     Hard:
     15:
     0.735194,0.829711,0.192526,0.044429,0.633113,695.000000,669.000000,26.000000,6.000000,0.000000,0.000000,0.735194,0.829711,0.192526,0.044429,0.633113,695.000000,669.000000,26.000000,6.000000,0.000000,0.000000:
0000
0000
0000
0000
,
0000
0000
0000
0000
,
0000
0000
0000
0000
,
0000
0000
0000
0000
,
0000
0000
0000
0000
,
1000
0000
0001
0100
0001
0000
0010
0000
,
0100
1000
0100
0000
0010
0000
0100
0000
,
1000
0000
0001
0100
0010
0000
0100
0000
,
0010
0100
0010
0100
0001
0000
1000
0000
0100
0000
0010
0000
0001
0000
0000
0000
,
1000
0000
0001
0100
0010
0000
1000
0000
0000
0000
0100
0000
1000
0000
0010
0000
,
0000
0000
1000
0000
0100
0000
0010
0000
0000
0000
0001
0000
1000
0000
0001
1000
,
0010
0000
0100
0010
1000
0100
0010
0001
,
0000
0010
0100
1000
0000
0001
0000
0000
,
1000
0000
0010
0100
0010
0000
0100
0000
0000
0000
0001
0000
1000
0100
0010
0000
,
0000
0000
0001
0000
1000
0000
0010
0000
0000
0000
0100
0000
0010
0000
0100
0010
,
1000
0100
0010
0001
0010
0100
1000
0010
,
0000
0000
0100
0000
0001
0000
1000
0000
0000
0000
0100
0000
0010
0001
1000
0010
,
1000
0000
0010
0000
0100
0000
0001
1000
0001
0000
0100
0000
0010
0000
0000
0000
,
1000
0000
0100
0010
0000
0001
0010
0000
0001
0000
1000
0000
0010
0100
0000
0100
,
0001
0000
1000
0000
0010
0000
0100
0001
0000
0010
0001
0000
0010
0000
0000
0000
,
0100
0000
1000
0001
0000
0100
0010
0000
0100
0000
0010
0000
1000
0000
0001
0010
,
0001
0100
0010
1000
0100
1000
0010
0100
,
0010
1000
0100
0010
0001
0100
0001
0010
,
0100
1000
0100
1000
0001
0010
0001
0010
0100
1000
0001
0100
0010
1000
0001
0010
,
0100
0000
0000
0000
2000
3000
1001
0000
,
0001
0000
1000
0000
0010
0000
0100
0001
0100
0010
1000
0000
0100
0000
0010
0000
,
1000
0000
0010
0100
0000
0010
0001
0000
1000
0000
0001
0000
1000
0010
0000
0100
,
0010
0000
1000
0000
0100
0000
0010
0100
0010
0001
1000
0000
0001
0000
0100
0000
,
0010
0000
0100
0001
0010
0100
1000
0000
0001
0000
1000
0000
0001
0100
0000
0100
,
0010
0000
1000
0000
0100
0000
1000
0001
0010
0100
1000
0000
0010
0000
0100
0000
,
1000
0000
0100
0010
0000
1000
0001
0000
0100
0000
0010
0000
1000
0001
1000
0001
,
0010
0000
0000
0000
0100
0000
1100
0000
1000
0001
1000
0001
0100
0001
0100
0001
,
0000
0101
0000
0000
0110
0000
0010
0000
,
1000
0000
0001
0000
0010
0000
0100
1000
0001
1000
0100
0000
0010
0000
0001
1000
,
0010
0000
0100
0010
0100
0001
1000
0000
0100
0000
0010
0000
0001
1000
0000
1000
,
0010
0000
0100
0000
0001
0000
1000
0010
0100
0010
1000
0000
0001
0000
0010
0001
,
1000
0000
0001
0100
0001
1000
0010
0000
0100
0000
0001
0000
1000
0001
0000
0001
,
1000
1100
1001
0000
1001
0101
0100
0000
,
0110
0000
1010
0000
1000
0010
1000
0010
1000
0000
0000
0001
0000
0000
0010
0000
,
1100
0000
1000
0000
0001
0000
0100
0000
0010
0100
0010
0100
0010
0000
0000
0000
,
1000
0010
1000
0001
0010
0001
1000
0001
0100
0010
0100
0010
0100
0000
0000
0000
,
0010
0000
1000
0000
0001
0000
0010
0100
0000
0100
2000
0000
0000
0000
3010
0100
,
1000
0000
0100
0010
0000
0010
1000
0000
0100
0000
0010
0000
0000
0100
0000
0100
,
0010
0000
0001
0000
1000
0000
0010
0100
0000
0100
0002
0000
0000
0000
0013
0100
,
0001
0000
0100
0010
0000
0010
0001
0000
0100
0000
0010
0000
0000
1000
0000
1000
,
0001
0000
0010
0000
0001
0000
0100
0010
0000
0010
2000
0000
0000
0000
3100
0010
,
1000
0000
0010
0100
0000
0100
1000
0000
0010
0000
0100
0000
0000
0001
0000
0001
,
1000
0000
0100
0000
0010
0000
0001
0000
0100
0000
0001
0000
0010
0000
0001
0010
,
0001
1000
0001
1000
0010
1000
0010
1000
0010
0100
0010
0100
0001
1000
0001
1000
,
0001
0000
0000
0000
,
0000
0000
0000
0000
,
1000
0000
0001
0010
0100
0000
1000
0000
0000
0000
0010
0000
1000
0000
0100
0000
,
0000
0000
1000
0000
0010
0000
0100
0000
0000
0000
0001
0000
1000
0000
0001
1000
,
0100
0000
0010
0100
1000
0010
0100
0001
,
0000
0100
0010
1000
0000
0001
0000
0000
,
1000
0000
0100
0010
0100
0000
0010
0000
0000
0000
0001
0000
1000
0010
0100
0000
,
0000
0000
0001
0000
1000
0000
0100
0000
0000
0000
0010
0000
0100
0000
0010
0100
,
1000
0010
0100
0001
0100
0010
1000
0100
,
0000
0000
0010
0000
0001
0000
1000
0000
0000
0000
0010
0000
0100
0001
1000
0100
,
1000
0000
0100
0110
0000
0010
0011
0001
,
1001
0000
0000
0000
1000
0000
1010
0000
0000
0000
0010
0000
0100
0001
0100
0001
,
1000
0000
0100
0011
0000
0010
1100
1000
,
1001
0000
0000
0000
0001
0000
0101
0000
0001
0010
0001
0010
0100
0000
0000
0000
,
1000
0100
0010
0001
0100
0001
0010
0100
,
0010
0001
0100
0010
1000
0100
1000
0010
,
0100
0001
0100
0001
1000
0010
1000
0010
0100
0001
1000
0100
0010
0001
1000
0010
,
0100
0000
0000
0000
0020
0030
1001
0000
,
1000
0000
0001
0000
1000
0000
0100
0010
0001
0100
0010
0000
0100
0000
0010
1000
,
0001
0000
1000
0100
0000
0010
0001
0000
1000
0001
1000
0000
0001
0000
1000
0000
,
0010
0000
0100
0000
0010
0000
0100
0001
0010
0100
1000
0000
0001
0000
0100
0010
,
1000
0000
0001
0010
0000
0100
1000
0000
0001
0000
1001
0000
1000
0000
0000
0000
,
0001
0000
1000
0000
0001
0000
0100
0010
1000
0100
0010
0000
0100
0000
0010
0001
,
1000
0000
0001
0100
0000
0010
1000
0000
0001
0000
1000
0000
0010
0100
0000
0100
,
0001
0000
1000
0000
0100
0000
0010
0000
0001
1000
0010
1000
0001
0100
0010
1000
,
0000
1001
0000
0000
0011
0000
0010
0000
,
0001
0000
0100
0000
0010
0000
0100
0001
1000
0000
0100
0000
0010
0000
0100
0010
,
1000
0000
0010
0001
0000
0001
1000
0000
0010
0000
1000
0000
0010
0100
0000
0001
,
1000
0000
0100
0000
0010
0000
0100
1000
0001
0000
0100
0000
0010
0000
0100
0010
,
0001
0000
0000
0000
0011
0000
0000
0000
0110
0000
0010
0000
1000
0100
1000
0100
,
0010
0000
0001
0000
1000
0000
0001
0100
0001
0000
1000
0000
0100
0000
0010
0100
,
0001
0000
0100
0010
0000
0010
0001
0000
1000
0000
0010
0000
0100
0010
0000
1000
,
0001
0100
0001
0100
0010
0100
0010
0100
0001
0010
0100
1000
0010
0100
0001
1000
,
0010
0000
0100
0010
0000
1000
0001
0000
0020
0000
0030
0000
0110
0000
0000
0000
,
0100
0000
0000
0000
;
