#TITLE:太陽曰く燃えよカオス;
#SUBTITLE:;
#ARTIST:後ろから這いより隊G;
#TITLETRANSLIT:Taiyou Iwaku Moeyo Chaos;
#SUBTITLETRANSLIT:;
#ARTISTTRANSLIT:Ushirokara Haiyoritai G;
#GENRE:;
#CREDIT:;
#MUSIC:Taiyou Iwaku Moeyo Chaos.ogg;
#BANNER:;
#BACKGROUND:;
#CDTITLE:;
#SAMPLESTART:57.060;
#SAMPLELENGTH:20.000;
#SELECTABLE:YES;
#OFFSET:1.653;
#BPMS:0.000=143.000;
#STOPS:;
#ORIGIN:;
#TAGS:;
#PREVIEWVID:;
#JACKET:;
#CDIMAGE:;
#DISCIMAGE:;
#BGCHANGES:;
#FGCHANGES:;

//--------------- dance-single - ----------------
#NOTES:
     dance-single:
     :
     Beginner:
     3:
     0.15585,0.175331,0,0,0,98,98,0,0,0,0,0,0,0,0.15585,0.175331,0,0,0,98,98,0,0,0,0,0,0,0:
0000
0000
0000
0000
,
0000
0000
0000
0000
,
0000
0000
0000
0000
,
1000
0000
0000
0000
,
0001
0000
0000
0000
,
0100
0000
0000
0000
,
0010
0000
0000
0000
,
1000
0000
1000
0000
,
0100
0000
0100
0000
,
0000
0010
0010
0000
,
0001
0000
1000
0000
,
0001
0000
0001
0000
,
0100
0000
0100
0000
,
0000
0010
0010
0000
,
1000
0000
0001
0000
,
0010
0000
0100
0000
,
1000
0000
0001
0000
,
1000
0000
0000
0000
,
0001
0000
0000
0000
,
0100
0000
0100
0000
,
0010
0000
0010
0000
,
0000
1000
1000
0000
,
0001
0000
0010
0000
,
0100
0000
0100
0000
,
0010
0000
0010
0000
,
0000
0001
0001
0000
,
1000
0000
0010
0000
,
0100
0000
0010
0010
,
0000
0000
0000
0000
,
1000
0000
0001
0001
,
0000
0000
0000
0000
,
0010
0000
0100
0000
,
1000
0000
0001
0000
,
0100
0000
0010
0000
,
0100
0100
0100
0000
,
0001
0000
1000
0000
,
0100
0000
0010
0000
,
0100
0000
1000
0000
,
0001
0000
0100
0100
,
0010
0000
1000
0000
,
0001
0000
0010
0000
,
0100
0000
1000
0000
,
0001
0001
0001
0000
,
1000
0000
0001
0000
,
0100
0000
0010
0000
,
0100
0000
0001
0000
,
1000
0000
0100
0100
,
0010
0000
0001
0000
,
1000
0000
0010
0000
,
0100
0000
0001
0000
,
1000
1000
1000
0000
,
0001
0000
0100
0000
,
0010
0010
0010
0000
;

//--------------- dance-single - ----------------
#NOTES:
     dance-single:
     :
     Easy:
     6:
     0.31011,0.352332,0.122454,0.011132,0,195,184,11,1,0,0,0,0,0,0.31011,0.352332,0.122454,0.011132,0,195,184,11,1,0,0,0,0,0:
0000
0000
0000
0000
,
0000
0000
0000
0000
,
0000
0000
0000
0000
,
1001
0000
0010
0000
,
0110
0000
0100
0000
,
1001
0000
0001
0000
,
1000
1000
1000
0000
,
0001
0010
0001
0001
,
1000
0010
0100
0010
,
0000
1000
1000
0000
0100
0000
0010
0000
,
0100
1000
0001
0000
,
1000
0010
1000
1000
,
0001
0010
0100
0010
,
0000
0001
0001
0000
0100
0000
0010
0000
,
0100
0001
1000
0000
,
0010
0100
0001
0010
,
0000
0100
1000
0100
,
0020
0000
0000
0000
,
0130
1000
0001
0000
,
0100
0001
0100
0100
,
0010
1000
0100
0010
,
0000
0100
0100
0000
1000
0000
0001
0000
,
0100
0010
1000
0000
,
0100
1000
0100
0100
,
0010
0001
0100
0010
,
0000
0100
0100
0000
0001
0000
1000
0000
,
0100
0010
0001
0000
,
1000
0010
1000
0001
,
0000
0010
0000
0010
0000
0100
1000
0000
,
0001
0100
0010
1000
,
0000
0100
0010
0000
0100
0000
1000
0000
,
0001
0100
0010
0100
,
0000
0001
1000
0000
0100
0000
0010
0000
,
0100
1100
0010
0110
,
0001
1000
0001
0000
,
1001
1000
0100
0010
,
0000
0001
0100
0000
0010
0000
1000
0000
,
0000
0001
0010
0000
0100
0000
0010
0000
,
0001
1000
0000
0010
0100
0000
0100
0000
,
0101
0001
0100
0010
,
0000
1000
0100
0000
0010
0000
0001
0000
,
0000
1000
0010
0000
0100
0000
0010
0000
,
1000
1000
1000
0000
,
1001
0010
0110
0001
,
0000
0100
0010
0000
0100
0000
0001
0000
,
0000
0010
0100
0000
1000
0000
0001
0000
,
0100
0010
0000
1000
0100
0000
0100
0000
,
1001
0010
0110
1000
,
0000
0100
0010
0000
0100
0000
1000
0000
,
0000
0010
0100
0000
0001
0000
1000
0000
,
0100
0100
0100
0000
,
0010
1100
0001
1001
,
0100
0000
0010
0100
0010
0000
0100
0000
;

//--------------- dance-single - ----------------
#NOTES:
     dance-single:
     :
     Medium:
     10:
     0.483453,0.469776,0.256039,0.077925,0,304,281,23,7,0,0,0,0,0,0.483453,0.469776,0.256039,0.077925,0,304,281,23,7,0,0,0,0,0:
0000
0000
0000
0000
,
0000
0000
0000
0000
,
0000
0000
0000
0000
,
0011
0001
0011
0100
,
1100
0010
0110
0001
,
0101
0010
0110
1000
,
0001
0001
0100
0010
1000
0000
0000
0000
,
0001
1000
0100
0010
0100
0100
1000
1000
,
0001
0100
0010
0100
0001
1000
0001
0010
,
0000
0100
1000
0010
0100
0000
0010
1000
,
0100
0000
0010
0001
1000
0001
0100
0010
,
0000
1000
0010
0100
0010
0010
1000
1000
,
0001
0010
0100
0010
0001
1000
0001
0100
,
0000
0010
1000
0100
0010
0000
0100
1000
,
0010
0000
0100
0001
1000
0001
0010
0100
,
0010
0000
0001
0000
1001
0000
1000
0010
,
0000
0100
0001
0010
0100
0000
0010
0001
,
2000
0000
3002
0000
,
0103
0010
1000
0001
0010
0000
0200
0000
,
1300
0001
0100
0001
0010
0010
0100
0100
,
1000
0010
1000
0100
0010
0001
1000
0010
,
0000
0100
0001
0010
0100
0000
0010
0001
,
0100
0000
0010
1000
0100
1000
0001
0100
,
0000
0001
0010
0001
0100
0100
0010
0010
,
1000
0100
1000
0010
0100
0001
1000
0100
,
0000
0010
0001
0100
0010
0000
0100
0001
,
0010
0000
0100
1000
0010
1000
0001
0100
,
0010
0000
1000
0000
0100
0000
0010
0100
,
0000
1100
0000
1100
0000
0100
1000
0010
,
0100
0000
0001
0000
1000
0000
0001
0010
,
0000
0100
1000
0001
1000
1000
0010
0010
,
0100
0000
0001
0000
1000
0000
0100
0010
,
0000
0100
1000
0001
0100
0000
0010
0100
,
0001
0110
1000
1010
,
0010
0100
0001
0010
0100
0000
0000
0000
,
1100
0010
1100
0001
,
0000
0100
0010
1000
0001
0000
0010
0000
,
0000
0100
1000
0001
0100
0000
0010
0000
,
1000
0100
0000
0020
0100
0032
1000
0013
,
0001
0100
0101
1000
,
0000
0100
0010
0001
1000
0000
0010
0000
,
0000
1000
0010
1000
0100
0000
0010
0000
,
0011
0011
1001
0000
,
0110
1000
0110
0001
,
0000
0010
0100
1000
0010
0000
0100
0000
,
0000
0001
0100
0010
1000
0000
0100
0000
,
0010
0001
0000
2000
0010
3002
0100
1003
,
0100
0010
1001
1000
,
0000
0010
0100
0001
0010
0000
0100
0000
,
0000
1000
0100
0010
0001
0000
1000
0000
,
1010
1010
1001
0000
,
0001
0001
0100
0000
0010
0010
1000
0000
,
0100
0010
0100
0010
0001
1000
0010
0000
;

//--------------- dance-single - ----------------
#NOTES:
     dance-single:
     :
     Hard:
     13:
     0.67588,0.645942,0.367361,0.133586,0.200378,425,392,33,12,0,0,0,0,0,0.67588,0.645942,0.367361,0.133586,0.200378,425,392,33,12,0,0,0,0,0:
0000
0000
0000
0000
,
0000
0000
0000
0000
,
0000
0000
0000
0000
,
1010
1000
0100
0010
0110
0100
1000
0001
,
0101
0100
0010
1000
1010
0010
0100
0001
,
0011
0010
0100
1000
1100
0100
0010
0001
,
1000
1000
0001
0100
0010
1000
1010
0000
,
0010
0100
0001
2000
0100
3002
0010
1003
,
0010
0100
0001
1000
0100
0100
0010
0010
,
0000
0000
0001
1000
0010
0000
0100
0000
0001
0000
1000
0100
1000
0000
0001
0000
,
0010
0000
0100
0010
0100
0000
1000
0000
0010
0000
0100
0000
0001
0000
0010
0000
,
0011
0001
1000
0002
0100
2003
0010
3001
,
0010
0100
1000
0001
0100
0100
0010
0010
,
0000
0000
1000
0001
0010
0000
0100
0000
1000
0000
0001
0100
0001
0000
1000
0000
,
0010
0000
0100
0010
0100
0000
0001
0000
0010
0000
0100
0000
1000
0000
0001
0000
,
0101
0000
0010
0000
1001
0000
1000
0100
,
0000
0100
1000
0010
0100
0001
0010
0100
,
2000
0000
3001
1000
0002
0000
0103
0010
,
0100
0000
0001
1000
0001
0000
0010
0000
0200
0000
0000
0000
2300
0000
3001
0100
,
0001
1000
0100
0010
0011
1000
1010
0001
,
0010
0100
1000
0010
0100
0001
1000
0100
,
0000
0000
1000
0010
0100
0000
0001
0000
1000
0000
0100
0010
0100
0000
1000
0000
,
0010
0000
0100
0001
0100
0000
0010
0000
1000
0000
0100
0000
0010
0000
0100
0000
,
1100
0100
1000
0010
1010
0001
0011
1000
,
0010
0100
0001
0010
0100
1000
0001
0100
,
0000
0000
0001
0010
0100
0000
1000
0000
0001
0000
0100
0010
0100
0000
0001
0000
,
0010
0000
0100
1000
0100
0000
0010
0000
0001
0000
1000
0000
0010
0000
0100
0000
,
0110
0000
1000
0000
0101
0000
0001
0010
,
0000
0000
0011
0000
0001
0000
0101
0000
0100
0000
0010
1000
0001
0000
0010
0000
,
0110
0000
0001
0000
1100
0000
1000
0010
,
0000
0000
0100
0001
0100
0000
0010
0000
1000
0000
1000
0000
0100
0000
0100
0000
,
0011
0000
1000
0000
0101
0000
1000
0010
,
0000
0100
0010
1000
0100
0010
0100
1000
,
0001
0000
0101
0100
0010
0000
0110
0010
,
1000
0100
0010
0001
1000
0001
1001
0000
,
0001
0000
1000
0010
1000
0000
0010
0000
0100
0000
0001
1000
0001
0000
0000
0000
,
0010
0000
0100
1000
0100
0000
0010
0000
0001
0100
0001
0000
1000
0000
0000
0000
,
0010
1000
0001
1000
0010
0100
0001
1000
,
0100
0010
0001
0200
1000
0320
0001
0130
,
0001
0000
1000
0100
1000
0000
0100
0000
0010
0000
0001
1000
0001
0000
0000
0000
,
0100
0000
0010
1000
0010
0000
0100
0000
0001
0010
0001
0000
1000
0000
0000
0000
,
0100
1000
0001
1000
0100
0010
0001
1000
,
1010
0000
0101
0000
0011
1000
0100
0000
,
1000
0000
0010
0100
0001
0000
1000
0000
0100
0000
0010
0001
1000
0000
0000
0000
,
0010
0000
0100
0010
1000
0000
0001
0000
0010
0100
1000
0000
0001
0000
0000
0000
,
0010
0001
0100
0001
0010
0100
1000
0001
,
0100
0010
1000
0200
0001
0320
1000
0130
,
1000
0000
0100
0010
0001
0000
1000
0000
0010
0000
0100
0001
1000
0000
0000
0000
,
0100
0000
0010
0001
0100
0000
0001
0000
0100
0010
1000
0000
0001
0000
0000
0000
,
0100
0001
0010
0001
0100
0010
1000
0001
,
0011
0000
1100
0000
1010
0001
0100
0000
,
0001
0100
0001
0100
0010
0000
0000
0000
1000
0100
1000
0100
0010
0000
0000
0000
,
0001
0100
0010
1000
0100
0010
1001
0000
;
