#TITLE:Steve's Lava Chicken (Camellia Remix);
#SUBTITLE:;
#ARTIST:Camellia;
#TITLETRANSLIT:;
#SUBTITLETRANSLIT:;
#ARTISTTRANSLIT:;
#GENRE:;
#CREDIT:;
#BANNER:;
#BACKGROUND:;
#LYRICSPATH:;
#CDTITLE:;
#MUSIC:Steve's Lava Chicken (Camellia Remix).ogg;
#OFFSET:-0.558000;
#SAMPLESTART:20.695000;
#SAMPLELENGTH:20.000000;
#SELECTABLE:YES;
#BPMS:0.000000=210.000000
;
#STOPS:
;
#BGCHANGES:;
#KEYSOUNDS:;
#ATTACKS:;

//---------------dance-single - ----------------
#NOTES:
     dance-single:
     :
     Beginner:
     7:
     0.331672,0.389251,0.000000,0.000000,0.000000,206.000000,206.000000,0.000000,0.000000,0.000000,0.000000,0.331672,0.389251,0.000000,0.000000,0.000000,206.000000,206.000000,0.000000,0.000000,0.000000,0.000000:
0000
0000
0000
0000
,
1000
0000
0000
0100
,
0100
0000
0000
0000
0000
0000
0000
0010
,
0000
0001
1000
0000
,
0010
0000
0000
0100
0000
0000
0000
0010
,
0000
1000
0001
0000
,
0010
0000
0000
0100
0000
0000
0000
0010
,
0000
0001
1000
0000
,
0010
0000
0000
0100
0000
0000
0000
0001
,
0000
1000
0100
0000
,
0010
0000
0100
0000
,
1000
0000
0001
0000
,
0100
0000
0010
0000
,
0100
0000
0001
0000
,
1000
0100
1000
0000
,
0001
0100
0001
0100
,
0000
0000
0000
0000
,
0010
0000
0010
0000
,
1000
0000
0000
0001
0000
0000
1000
0000
,
0100
0000
0000
0010
0000
0000
0000
0001
,
0000
1000
0010
0100
,
0001
0000
0000
1000
0000
0000
0100
0000
,
0010
0000
0000
0100
0000
0000
1000
0000
,
0010
0000
0000
0100
0000
0000
0001
0000
,
0001
1000
0010
0000
,
1000
0001
0010
0000
,
0100
1000
0000
0001
,
0100
0010
0000
1000
,
0001
0000
0000
0100
,
0010
0000
1000
0000
,
0001
0010
0100
0000
,
0010
0001
1000
0000
,
0001
0000
1000
0000
,
0100
0000
0100
0010
,
0001
1000
0010
0100
,
0010
0000
0000
0000
1000
0000
0000
0001
,
0000
0100
0001
1000
,
0100
0000
0000
0010
0000
0000
0000
0001
,
0000
1000
0010
0100
,
0010
0000
0010
0000
1000
0000
0000
0010
,
0000
1000
0100
0010
,
0100
0000
0000
1000
0000
0000
0000
0001
,
0000
0100
0010
0100
,
0001
0000
1000
0000
,
0100
0000
0010
0000
,
0001
0000
1000
0000
,
0010
0000
0100
0000
,
0010
1000
0001
0000
,
0010
0100
0010
0100
,
1000
0000
0000
0000
,
0001
0000
0000
0000
,
1000
1000
0001
0001
,
0100
0100
0010
0010
,
1000
0000
0001
0001
,
1000
0100
0010
0001
,
1000
0000
0000
0000
,
0000
0000
0000
0000
,
0001
0000
0100
0000
,
0010
1000
0010
0000
,
1000
0000
0100
0100
,
0010
0001
1000
0000
,
0010
0010
0100
0000
,
0001
0000
0000
1000
0000
0000
0001
0000
,
0001
0000
0100
0100
,
0010
1000
0001
0000
,
0010
0010
0100
0000
,
1000
0001
1000
0000
,
0010
1000
0001
0001
,
0010
0100
0100
0000
,
1000
0001
1000
0000
,
0001
0000
1000
0100
,
0010
0001
1000
1000
,
0010
0100
0100
0000
,
0001
1000
0100
0010
,
0001
0000
0000
0100
,
0010
0000
0000
1000
0000
0000
0001
0000
,
0010
0000
0000
0100
0000
0000
1000
0000
;

//---------------dance-single - ----------------
#NOTES:
     dance-single:
     :
     Easy:
     11:
     0.534539,0.648752,0.225408,0.067622,0.028176,332.000000,312.000000,20.000000,6.000000,0.000000,0.000000,0.534539,0.648752,0.225408,0.067622,0.028176,332.000000,312.000000,20.000000,6.000000,0.000000,0.000000:
0000
0000
0000
1000
,
0001
0100
0000
0000
0000
0000
0001
0000
,
1000
0001
0000
0000
0000
0000
0000
0100
,
0000
0010
1000
0100
,
0010
0000
0100
1000
0000
0000
0000
0001
,
0000
0100
0010
0100
,
0001
0000
0010
0100
0000
0000
0000
1000
,
0000
0100
0010
0001
,
1000
0000
0010
0100
0000
0000
0000
0001
,
0000
1000
0001
0011
,
0010
0100
0010
0001
,
1000
0010
1000
0001
,
0010
0100
1000
0010
,
0100
0001
0010
0010
,
0100
1000
0100
0010
,
0001
0100
0010
0100
,
0000
0000
0000
0000
,
0001
0001
0001
1000
,
0010
0000
1000
0001
0000
0000
0010
0000
,
0001
0000
1000
0100
0000
0000
0000
1100
,
0000
0010
0001
1000
,
0010
0000
0100
0001
0000
1000
0001
0000
,
1000
0000
0100
0010
0000
0000
0001
0000
,
0010
0000
0100
1000
0000
0001
1000
0000
,
0010
0110
0100
0110
,
0001
0000
0000
0000
0000
0000
0000
0000
0000
0000
0000
0000
0000
0000
0000
0000
1001
0000
0000
0000
0000
0000
0000
0000
0000
0000
0000
0000
0000
0000
0000
0000
1000
0000
0000
0000
0000
0000
0000
0000
0001
0000
0000
0000
0000
0000
0000
0000
2000
0000
0000
0000
0000
0000
0000
3000
0000
0000
0000
0000
0000
0000
0000
0000
,
0100
0010
0100
0000
1000
0000
0001
0000
,
0100
0010
0100
0000
0001
0000
1000
0000
,
0100
0010
0000
0000
0001
0000
0010
0000
,
0100
0000
0000
1000
0000
0000
0001
0000
1000
0000
0000
0000
0001
0000
0000
0000
,
0100
0010
1000
0100
,
0010
0001
0100
0010
,
1010
0000
0000
1000
0001
0000
0000
1000
,
0100
0000
0100
0000
0100
0010
0100
0000
,
1000
0000
0001
0000
0100
0000
0001
0100
,
0010
0000
1000
0000
0001
0000
0010
0100
,
0000
1000
0100
0010
,
0001
0000
1000
0010
0000
0000
0000
0100
,
0000
0001
1000
0100
,
0110
0000
0110
0000
0010
0100
0010
0001
,
0000
1000
0010
0100
,
0001
0000
1000
0100
0010
0000
0000
0001
,
0000
1000
0010
0100
,
0001
0000
1000
0001
1000
0000
0100
0000
,
0010
0001
1000
0001
,
0100
0010
0100
0010
,
1000
0010
0100
0001
,
1000
1000
0100
0100
,
0010
0000
0010
0000
0001
1000
0001
1000
,
0010
0000
0000
0000
,
0100
0000
0000
0000
0000
0001
0000
0000
0000
1000
0000
0000
,
1100
0000
1100
0000
0100
0010
0001
0000
,
0101
0000
0101
0000
0100
0010
0200
0300
,
0001
0000
0001
0000
1000
0001
1000
0001
,
1000
0000
2200
3300
0100
0000
0022
0033
,
0010
0000
0000
0000
,
0000
0000
0000
0000
,
0001
0001
1000
1000
,
0010
0000
0100
0000
0010
1000
0001
0000
,
1000
0100
0000
0010
0001
0000
0001
0000
,
1000
0000
0010
0000
0100
0010
0100
0000
,
0010
1000
0010
0000
1000
0000
0001
0000
,
0010
0000
0000
0100
0000
0000
1000
0000
0000
0010
0000
0000
0100
0000
0000
0000
,
0001
0100
0000
0010
1000
0000
1000
0000
,
0001
0000
0010
0000
0100
0010
0100
0000
,
0010
0010
0001
1000
,
0010
0100
0010
0000
1000
0000
0001
0000
,
0100
0010
0000
0100
0001
0100
0001
0000
,
1000
0000
0100
0000
0010
0001
0010
0000
,
0001
1000
0010
0100
,
0110
0000
0010
1000
,
0100
0010
0000
0100
1000
0100
1000
0000
,
0001
0000
0100
0000
0010
1000
0010
0000
,
1000
0001
1000
0000
0001
0100
0001
0100
,
0001
0000
0000
0000
0000
1000
0100
0000
,
0110
0000
0000
0011
0000
0001
0100
0000
,
0101
0000
0000
1010
0000
0000
1001
0000
;

//---------------dance-single - ----------------
#NOTES:
     dance-single:
     :
     Medium:
     14:
     0.777658,0.735253,0.293030,0.022541,0.033811,483.000000,457.000000,26.000000,2.000000,0.000000,0.000000,0.777658,0.735253,0.293030,0.022541,0.033811,483.000000,457.000000,26.000000,2.000000,0.000000,0.000000:
0000
0000
0000
0000
0000
1000
0001
1000
,
0001
0010
0000
0000
0000
0001
1000
0001
,
1000
0010
0000
0000
0000
0000
0000
0100
,
0000
0000
0010
0100
0001
1000
0100
0000
,
0010
0001
1000
0010
0000
0000
0000
0100
,
0000
0000
0010
1000
0100
0010
0100
0000
,
1000
0100
0010
0001
0000
0000
0000
1000
,
0000
0000
0001
1000
0010
1000
0001
0000
,
0010
0100
1000
0010
0000
0000
0000
1010
,
0000
0000
1000
0001
0010
0001
1000
0010
,
0100
0010
0100
0001
0100
0001
1000
0000
,
0100
0010
0100
1000
0100
1000
0001
0000
,
1000
0010
1000
0010
0100
0010
1000
0000
,
0001
0010
0001
0010
0100
0010
0001
0000
,
1000
0001
0100
0010
1000
0100
0010
0001
,
0010
0100
1000
0010
0100
0010
1000
0100
,
0000
0000
0000
0000
,
0010
0000
0010
0000
0010
0001
1000
0001
,
0100
0010
1000
0001
0000
1000
0100
1000
,
0100
0010
0001
1000
0000
0000
0001
1001
,
0000
0000
1000
0001
0100
0010
1000
0001
,
0010
0100
1000
0010
0000
1000
0010
1000
,
0010
0100
0001
1000
0000
0100
1000
0100
,
0010
0100
1000
0001
0000
0100
0001
0100
,
0010
1010
1001
0011
,
0010
0000
0000
0000
0000
0000
0000
0000
0000
0000
0000
0000
0000
0000
0000
0000
0110
0000
0000
0000
0000
0000
0000
0000
0000
0000
0000
0000
0000
0000
0000
0000
1000
0000
0000
0000
0000
0000
0000
0000
0100
0000
0000
0000
0000
0000
0000
0000
0020
0000
0000
0000
0000
0000
0000
0030
0100
0000
0000
0000
0000
0000
0000
0000
,
1000
0001
0100
0001
0000
1000
0010
1000
,
0001
0010
0100
0010
0000
0100
1000
0001
,
0100
0010
0000
0000
0100
0001
1000
0100
,
0010
0000
0000
0001
0000
0000
1000
0000
0001
0000
1000
0000
0010
0000
0100
0000
,
0001
1000
0100
1000
0000
0100
0010
0100
,
1000
0010
0100
0010
0000
0100
0001
1000
,
0100
0000
0000
1000
0010
0000
0000
1000
,
0001
0000
0001
0000
0001
1000
0100
0010
,
1000
0010
0100
0000
1000
0001
0100
0010
,
0001
0010
0100
0000
0001
0000
1000
1001
,
0000
0000
0001
0010
0100
1000
0010
0100
,
1000
0100
0001
1000
0000
0000
0100
0110
,
0000
0000
0010
0100
0001
0100
0010
0001
,
1001
0000
1001
0000
0001
0001
1000
1010
,
0000
0000
0010
1000
0001
0010
0100
0010
,
1000
0010
0001
1000
0010
0000
1000
1100
,
0000
0000
0100
0010
0001
1000
0100
1000
,
0010
0100
0010
1000
0001
0000
1000
0000
,
1100
0100
0010
0001
,
1001
1000
0010
0100
,
0001
0100
0110
1010
,
1000
0001
1000
0001
0100
0010
0100
0010
,
1000
0001
0010
0100
1000
0001
0010
0001
,
0100
0000
0000
0000
,
0001
0000
0000
0000
0000
0000
0000
0000
0000
1000
0000
0000
0000
0000
0000
0000
0000
0000
0000
0000
0001
0000
0000
0000
0000
0000
0000
0000
0000
0000
0000
0000
0000
0000
0000
0000
1001
0000
0000
0000
0000
0000
0000
0000
0000
0000
0000
0000
,
1000
1000
0100
0100
0010
0010
0001
0000
,
0001
0001
0100
0010
0010
1000
0002
1003
,
1000
0100
0010
0100
0100
1000
1000
0001
,
0100
0010
0100
0100
0010
0100
0010
0010
,
1000
0000
0000
0000
,
0000
0000
0000
0000
,
0001
0010
0001
0010
0100
1000
0100
1000
,
0001
0100
0010
1000
0100
0000
0110
0000
,
1000
0001
0000
0100
1000
0100
0001
0000
,
1000
0100
0001
0100
1000
0001
0100
0000
,
0010
0010
0100
0001
1000
0100
0010
0000
,
0110
0000
0000
0100
0000
0000
1100
0000
0000
1000
0000
0000
1001
0000
0000
0000
,
0001
1000
0000
0100
0001
0100
1000
0000
,
0001
0100
1000
0100
0001
1000
0100
0000
,
0010
0010
0100
0100
1000
0001
0100
0000
,
0010
0100
0001
0100
0010
1000
0100
1000
,
0100
0010
0001
0100
1000
0100
0001
1000
,
0001
0010
1000
0010
0001
1000
0010
0000
,
0100
0010
1000
0000
0100
0010
0001
0000
,
0010
0100
0010
0000
0010
0001
0100
0001
,
0100
0010
1000
0100
0001
0100
1000
0001
,
1000
0010
0001
0010
1000
0001
0010
0000
,
0100
1000
0010
0100
0001
0010
0100
1000
,
0001
0000
0000
0000
0000
1000
1000
0001
,
0101
0000
0100
0110
0000
0010
0010
1000
,
1001
0000
0001
0011
0000
0000
0110
0000
;

//---------------dance-single - ----------------
#NOTES:
     dance-single:
     :
     Hard:
     17:
     0.995015,1.081254,0.608602,0.067622,0.405734,618.000000,564.000000,54.000000,6.000000,0.000000,0.000000,0.995015,1.081254,0.608602,0.067622,0.405734,618.000000,564.000000,54.000000,6.000000,0.000000,0.000000:
0000
0000
0000
0000
0000
1000
0010
1000
,
0001
0010
0000
0000
0000
0001
0010
0001
,
1000
0010
0000
0000
0000
0000
0000
0110
,
0000
0000
0100
0001
1000
0100
0010
0001
,
0100
0001
0010
0100
0000
0000
0000
1100
,
0000
0000
1000
0001
0100
0010
1000
0100
,
0010
0001
0100
0010
0000
0000
0000
1010
,
0000
0000
1000
0001
0010
0100
1000
0010
,
0100
0000
0010
0000
1000
0001
1000
0001
0010
0000
0000
0000
0000
0000
0110
0000
,
0000
0000
0100
1000
0001
0100
0001
1000
,
0010
1000
0100
0010
0001
0010
0100
1000
,
0010
0000
0100
0000
0001
0000
0100
0000
0010
0000
1000
0000
0001
1000
0001
0000
,
1000
0100
0010
0100
1000
0001
0100
0010
,
0100
0000
0001
0000
0010
0000
0100
0000
1000
0100
1000
0000
0001
0100
0001
0000
,
1000
0010
0100
0001
1000
0001
0010
0100
,
1000
0000
0001
0000
1000
0000
0010
0000
0100
0010
0100
0000
0001
1000
0001
1000
,
0000
0000
0000
0000
,
1001
0000
1001
0000
1001
0001
1000
0010
,
1010
1000
0001
0010
0000
0010
0001
1000
,
1001
0001
0100
0010
0100
0000
0010
1000
,
0010
0000
1000
0001
0011
0010
0110
0100
,
1000
0000
0001
1000
0010
0100
0001
0000
0000
0000
0010
0000
0001
0000
0010
0000
,
0110
0100
0010
0001
0000
0001
0100
0010
,
1010
0000
1000
0000
0001
0000
0100
0000
0000
0000
0001
1000
0001
1000
0001
1000
,
0100
0110
0011
1001
,
1000
0000
0000
0000
0000
0000
0000
0000
0000
0000
0000
0000
0000
0000
0000
0000
0110
0000
0000
0000
0000
0000
0000
0000
0000
0000
0000
0000
0000
0000
0000
0000
0001
0000
0000
0000
0000
0000
0000
0000
1000
0000
0000
0000
0010
0000
0000
0000
0200
0000
0000
0000
0000
0000
0000
0300
0001
0000
0000
0000
0000
0000
0000
0000
,
1001
0000
1001
0000
1000
0000
0100
0000
0000
0000
0100
0000
0010
0001
0010
0001
,
1000
0000
0010
0000
0100
0000
0001
0000
0000
0000
0001
0000
0100
0010
0100
0010
,
1000
0000
0001
0000
0000
0000
0000
0000
0010
0000
0100
0000
1000
0001
1000
0001
,
0100
0000
0000
0110
0000
0000
1010
0000
1001
0000
0001
0000
0010
0000
0100
0010
,
0001
0000
1000
0000
0010
0000
1000
0000
0010
0000
0100
0000
0001
0000
1000
0001
,
0010
0000
0100
0000
1000
0000
0100
0000
0010
0000
0100
0000
1000
0001
1000
0001
,
0100
0000
0000
0000
0000
0000
0001
1000
0100
0000
0000
0000
0000
0000
0010
0001
,
1000
0000
1000
0000
1000
0001
0010
0001
,
0011
0010
0100
1000
0001
0100
0010
0100
,
0101
0001
0010
0100
1000
0001
0100
0110
,
0010
0000
1000
0001
0011
0010
0100
1000
,
1001
0000
0001
0000
1000
0010
0100
0001
1000
0000
0000
0000
0100
0000
0010
0000
,
0011
0001
1000
0010
1010
1000
0001
0010
,
1001
0000
0110
0000
1001
0100
1001
0001
,
0100
0010
1000
0001
0011
0010
0100
1000
,
1001
0000
0001
0000
1000
0001
0010
0100
1000
0000
0001
0000
0100
0000
0110
0000
,
0000
0000
0010
1000
0001
0010
0100
1000
,
0010
1000
0001
0100
0010
0100
0001
1000
,
0100
0010
0001
0010
0100
1000
0001
0100
,
0010
0100
0001
1000
0100
0010
0001
1000
,
0010
1000
0001
0100
0010
1000
0100
0010
,
0001
1000
0001
0000
1000
0000
0010
0000
0100
0010
0100
0000
0010
0000
1000
0000
,
0001
0010
0100
0000
1000
0000
0001
0000
1000
0010
0100
0000
0001
1000
0001
1000
,
0001
0000
0000
0000
,
1000
0000
0000
0000
0000
0000
0000
0000
0000
0001
0000
0000
0000
0000
0000
0000
0000
0000
0000
0000
0010
0000
0000
0000
0000
0000
0000
0000
0000
0000
0000
0000
0000
0000
0000
0000
0110
0000
0000
0000
0000
0000
0000
0000
0000
0000
0000
0000
,
1100
1000
1100
0100
0110
0110
0110
0000
,
0011
0000
0001
0000
0011
0000
0010
0001
1000
0000
0010
0000
0200
0000
0301
0100
,
0010
0000
0100
0000
0001
0000
1000
0001
1000
0000
0001
1000
0001
0000
1000
0001
,
0010
0000
0001
1000
0002
0000
0203
0000
0310
1000
0010
0000
2000
0000
3200
0000
,
0310
0000
0000
0000
,
0000
0000
0000
0000
,
0001
1000
0100
0010
0100
1000
0010
0100
,
0001
0100
0001
0100
0010
0000
1000
0000
0100
1000
0001
1000
0100
0000
0000
0000
,
0010
0000
0001
0000
0000
0000
1000
0001
1000
0001
1000
0001
1000
0000
0000
0000
,
0001
0100
0010
0100
0001
0010
0100
0000
,
1000
0001
0100
0001
1000
0000
0001
0000
0010
0000
0100
0000
1000
0000
0001
0000
,
1001
0000
0000
1100
0000
0000
1001
0000
0000
0101
0000
0000
0110
0000
0000
0000
,
0010
0000
1000
0000
0000
0000
0001
1000
0001
1000
0001
1000
0001
0000
0000
0000
,
1000
0100
0010
0001
0100
0010
0100
0000
,
0010
1000
0010
1000
0100
0010
0001
0000
,
0100
0010
0100
0010
1000
0001
0010
0001
,
1000
0000
0100
0000
0000
0000
0010
0001
0010
0001
0010
0001
0010
0000
0001
0000
,
1000
0010
0100
0001
0100
0010
1000
0000
,
0010
1000
0100
0010
0001
0010
0100
1000
,
0010
0100
0001
0000
0001
1000
0100
1000
,
0001
0000
0100
0000
0000
0000
0010
1000
0010
1000
0010
1000
0010
0000
1000
0000
,
0001
0010
0100
1000
0001
0100
0010
0100
,
0010
1000
0010
0000
1000
0001
1000
0000
0001
0010
0001
0000
1000
0001
0100
0010
,
1000
0000
0000
0000
0000
0001
0010
0100
,
1100
1000
0001
0101
0000
0100
0010
1000
,
1001
0001
0010
0110
0000
0000
1100
0000
;

//---------------dance-single - ----------------
#NOTES:
     dance-single:
     :
     Challenge:
     18:
     1.188222,1.384005,0.766387,0.067622,0.845280,738.000000,670.000000,68.000000,6.000000,0.000000,0.000000,1.188222,1.384005,0.766387,0.067622,0.845280,738.000000,670.000000,68.000000,6.000000,0.000000,0.000000:
0000
0000
0000
0000
0000
1000
1000
1000
,
0010
0100
0000
0000
0000
0001
0001
0001
,
0010
0100
0000
0000
0000
0000
0000
1100
,
0000
0000
1000
0100
0010
0001
1000
0010
,
0100
0000
0001
0100
0010
0100
0001
0000
0000
0000
0000
0000
0000
0000
1001
0000
,
0000
0000
0001
0010
0100
1000
0001
0100
,
0010
0000
1000
0010
0100
0010
1000
0000
0001
0000
0000
0000
0000
0000
0011
0000
,
0000
0000
0010
0100
1000
0001
1000
0010
,
0100
0000
0010
1000
0001
1000
0100
0010
0001
0000
0000
0000
0000
0000
0110
0000
,
0000
0000
1000
0001
0100
0010
0100
0001
,
0010
0000
0100
0000
1000
0000
0001
0000
1000
0000
0010
0000
0100
0000
0001
0010
,
0100
0000
0010
0000
0001
0000
1000
0000
0001
0000
0100
0000
0010
1000
0100
1000
,
0100
0000
1000
0000
0010
0000
0100
0000
0010
0000
1000
0000
0001
0000
0010
0100
,
1000
0000
0100
0000
0010
0000
0001
0000
0100
0001
0010
0001
0010
0100
1000
0100
,
0010
0100
0010
0000
0100
1000
0100
0000
1000
0001
1000
0000
0001
0100
0001
0000
,
0100
0010
1000
0001
0010
0100
1000
0001
0100
0010
1000
0001
0100
0010
1000
0001
,
0000
0000
0000
0000
,
1001
0000
1001
0000
1001
0001
0001
0001
,
0011
0000
0010
0001
1000
0000
0010
0000
0100
0000
0001
0000
0010
0000
0100
0000
,
1100
0000
1000
0001
0100
0000
0010
0000
1000
0000
0001
0000
0010
0000
1000
0000
,
0010
0100
1000
0010
0110
0100
0101
0001
,
1000
0100
0010
0001
0100
0010
1000
0000
0100
0000
1000
0100
1000
0100
1000
0100
,
0010
0000
0100
1000
0001
0000
0100
0000
0010
0000
0100
0001
0100
0001
0100
0001
,
1000
0000
0100
0010
0001
0000
1000
0000
0100
0000
1000
0001
0100
0001
1000
0001
,
0010
0001
1000
0100
0001
1000
0010
0001
,
0100
0000
0000
0000
0000
0000
0000
0000
0010
0000
0000
0000
1000
0000
0000
0000
0001
0000
0000
0000
1000
0000
0000
0000
0010
0000
0000
0000
0000
0000
0000
0000
0100
0000
0000
0000
0000
0000
0000
0000
0010
0000
0000
0000
1000
0000
0000
0000
0200
0000
0000
0000
0000
0000
0000
0300
0010
0000
0000
0000
0000
0000
0000
0000
,
0011
0000
1001
0000
1000
0000
0001
0000
0100
0000
0010
0100
0001
0100
0010
1000
,
0001
0000
1000
0000
0001
0000
0010
0000
0100
0000
0010
0001
1000
0001
0100
0010
,
1000
0000
0001
0000
0010
0000
0100
0000
1000
0000
0001
0100
0010
0100
0001
1000
,
0100
0000
0000
0110
0000
0000
0011
0000
1001
0000
1000
0000
1100
0000
0100
0010
,
0001
0000
1000
0000
0010
0000
0100
0000
0001
0000
1000
0000
0100
0000
0010
0100
,
1000
0000
0010
0000
0100
0000
0001
0000
1000
0000
0001
1000
0010
0100
0001
1000
,
0100
0000
0010
0000
0100
0000
0010
0001
0100
0000
0010
0000
0100
0000
0010
1000
,
0100
0000
0100
0000
0100
1000
1000
1000
,
1010
0000
0010
0100
0010
0100
0001
0000
0100
0000
0001
0000
0001
0000
0001
0000
,
0011
0000
0010
0100
0010
0100
1000
0000
0001
0000
0100
0000
0010
0000
0001
0000
,
0011
0010
1000
0001
0011
0010
0110
0100
,
0010
0001
0100
0010
1000
0001
1000
0100
0010
0000
0000
0000
0100
0000
0001
0000
,
0101
0100
1000
0010
0110
0100
0010
1000
,
1100
0000
0011
0000
0101
0011
0101
0100
,
0010
1000
0001
0010
0110
0100
1000
0001
,
1001
0000
1000
0010
1000
0010
0100
0001
0010
0000
0100
0000
0010
0000
1100
0000
,
0000
0000
0100
1000
0001
0100
0001
0100
,
1000
0100
0010
1000
0100
0010
0001
0010
,
1000
0010
0100
1000
0010
0100
0001
0100
,
1000
0100
0010
1000
0100
0010
0001
1000
,
0001
0100
0010
0100
0001
1000
0100
0010
,
0001
1000
0001
1000
0010
0100
0010
0100
0001
1000
0100
0010
0001
1000
0001
0000
,
1000
0100
1000
0100
0010
0001
0010
0001
1000
0010
0100
0001
0010
0100
1000
0100
,
0010
0000
0000
0000
,
0100
0000
0000
0000
0000
0000
0000
0000
0000
1000
0000
0000
0000
0000
0000
0000
0000
0000
0000
0000
0001
0000
0000
0000
0000
0000
0000
0000
0000
0000
0000
0000
0000
0000
0000
0000
1001
0000
0000
0000
0000
0000
0000
0000
0000
0000
0000
0000
,
0101
0101
1100
1100
0110
1100
1001
0000
,
1100
0000
1100
0000
0101
0000
0001
0100
0010
0000
1010
0000
2000
0000
3001
0010
,
0100
0000
1100
0000
1001
0000
0001
0100
0010
1000
0100
1000
0010
0100
0001
0010
,
0100
0000
1000
0001
0200
0000
0302
0000
0103
0010
1000
0000
0002
0000
2003
0000
,
3100
0000
0000
0000
,
0000
0000
0000
0000
,
1000
0100
1000
0100
1000
0100
1000
0100
0010
0001
0010
0001
1000
0001
1000
0001
,
0100
0010
0100
0001
1000
0100
0010
0100
1000
0001
1000
0010
0100
0000
0000
0000
,
0101
0000
0001
0000
1000
0000
0100
0010
0001
0010
0100
0010
1000
0000
0010
0000
,
0011
0000
0001
0100
0010
0000
1000
0100
0010
0000
0001
0000
1001
0000
0000
0000
,
1000
0001
0100
0001
1000
0000
0010
0000
0100
0000
0001
0000
1000
0000
0100
0000
,
0110
0000
0000
1100
0000
0000
1001
0000
0000
0101
0000
0000
1010
0000
0000
0000
,
1100
0000
1000
0000
0001
0000
0100
0010
1000
0010
0100
0010
0001
0000
0010
0000
,
1010
0000
1000
0100
0010
0000
0001
0100
0010
0000
1000
0000
1001
0000
0000
0000
,
0001
0010
0100
1000
0010
0100
0001
0000
,
1000
1000
0001
0001
0100
0010
0010
0010
,
1010
0000
1000
0000
0001
0000
0010
0100
1000
0100
0010
0100
0001
0000
0100
0000
,
1100
0000
1000
0010
0100
0000
0001
0010
0100
0000
1000
0000
1001
0000
0000
0000
,
0001
0100
1000
0100
0001
0010
1000
0010
,
0100
0010
0100
0010
0100
0000
0000
0000
0100
0000
0010
0000
0010
0000
0010
0000
,
0011
0000
0001
0000
1000
0000
0010
0100
0001
0100
0010
0100
1000
0000
0100
0000
,
0101
0000
0001
0010
0100
0000
1000
0010
0100
0000
0001
0100
1000
0000
0100
0000
,
0010
1000
0010
1000
0001
0010
0001
0010
0100
1000
0010
0100
0001
0010
0100
1000
,
0001
0000
0000
0000
0000
0100
0100
0100
,
1010
0001
0010
1100
0000
0100
1100
0100
,
0011
1000
0010
0101
0000
0000
1001
0000
;
