#VERSION:0.83;
#TITLE:シカ色デイズ;
#SUBTITLE:;
#ARTIST:シカ部;
#TITLETRANSLIT:Shikairo Days;
#SUBTITLETRANSLIT:;
#ARTISTTRANSLIT:Deer Club;
#GENRE:;
#ORIGIN:;
#TAGS:;
#CREDIT:;
#BANNER:;
#BACKGROUND:;
#PREVIEWVID:;
#JACKET:;
#CDIMAGE:;
#DISCIMAGE:;
#LYRICSPATH:;
#CDTITLE:;
#MUSIC:Shikairo Days.ogg;
#OFFSET:0.410000;
#SAMPLESTART:51.540001;
#SAMPLELENGTH:20.000000;
#SELECTABLE:YES;
#BPMS:0.000000=183.000000
;
#STOPS:;
#DELAYS:;
#WARPS:;
#TIMESIGNATURES:0.000000=4=4
,132.000000=3=4
,144.000000=4=4
;
#TICKCOUNTS:0.000000=4
;
#COMBOS:0.000000=1
;
#SPEEDS:0.000000=1.000000=0.000000=0
;
#SCROLLS:0.000000=1.000000
;
#FAKES:;
#LABELS:0.000000=Song Start
;
#BGCHANGES:;
#KEYSOUNDS:;
#ATTACKS:
;

//---------------dance-single - ----------------
#NOTEDATA:;
#CHARTNAME:;
#CHARTHASH:324608271;
#STEPSTYPE:dance-single;
#BANNER:;
#DESCRIPTION:;
#CHARTSTYLE:;
#DIFFICULTY:Beginner;
#METER:1;
#METERF:0.000000;
#LASTSECONDHINT:88.114586;
#RADARVALUES:0.050743,0.074925,0.000000,0.000000,0.000000,32.000000,32.000000,0.000000,0.000000,0.000000,0.000000,0.000000,0.000000,0.000000,0.050743,0.074925,0.000000,0.000000,0.000000,32.000000,32.000000,0.000000,0.000000,0.000000,0.000000,0.000000,0.000000,0.000000;
#CREDIT:ZSL;
#NOTES:
0000
0000
0000
0000
,
0000
0000
0000
0000
,
0000
0000
0000
0000
,
0000
0000
0000
0000
,
0000
0000
0000
0000
,
1000
0000
0000
0000
,
0000
0000
0000
0000
,
0001
0000
0000
0000
,
0000
0000
0000
0000
,
0010
0000
0000
0000
,
0000
0000
0000
0000
,
0100
0000
0000
0000
,
0000
0000
0000
0000
,
1000
0000
0000
0000
,
0000
0000
0000
0000
,
0001
0000
0000
0000
,
0000
0000
0000
0000
,
0100
0000
0000
0000
,
0000
0000
0000
0000
,
0010
0000
0000
0000
,
0000
0000
0000
0000
,
1000
0000
0000
0000
,
0000
0000
0000
0000
,
0001
0000
0000
0000
,
0000
0000
0000
0000
,
0010
0000
0000
0000
,
0000
0000
0000
0000
,
0100
0000
0000
0000
,
0000
0000
0000
0000
,
1000
0000
0000
0000
,
0000
0000
0000
0000
,
0001
0000
0000
0000
,
0000
0000
0000
0000
,
0100
0000
0000
0000
,
0000
0000
0001
0000
,
0000
0000
0000
0000
,
0010
0000
0000
0000
,
0000
0000
0000
0000
,
0000
0000
0000
0000
,
0000
0000
0000
0000
,
0100
0000
0000
0000
,
0000
0000
0000
0000
,
1000
0000
0000
0000
,
0000
0000
0000
0000
,
0001
0000
0000
0000
,
0000
0000
0000
0000
,
0100
0000
0000
0000
,
0000
0000
0000
0000
,
0010
0000
0000
0000
,
0000
0000
0000
0000
,
1000
0000
0000
0000
,
0000
0000
0000
0000
,
0100
0000
0000
0000
,
0000
0000
0000
0000
,
0010
0000
0000
0000
,
0000
0000
0000
0000
,
0001
0000
0000
0000
,
0000
0000
0000
0000
,
0100
0000
0000
0000
,
0000
0000
0000
0000
,
0010
0000
0000
0000
,
0000
0000
0000
0000
,
0000
0000
0000
0000
,
1000
0000
0000
0000
,
0001
0000
0000
0000
,
0000
0000
0000
0000
,
0010
0000
0000
0000
,
0000
0000
0100
0000
;

//---------------dance-single - ----------------
#NOTEDATA:;
#CHARTNAME:;
#CHARTHASH:450437155;
#STEPSTYPE:dance-single;
#BANNER:;
#DESCRIPTION:;
#CHARTSTYLE:;
#DIFFICULTY:Easy;
#METER:6;
#METERF:0.000000;
#LASTSECONDHINT:88.114586;
#RADARVALUES:0.334586,0.337163,0.000000,0.033300,0.000000,211.000000,211.000000,0.000000,3.000000,0.000000,0.000000,0.000000,0.000000,0.000000,0.334586,0.337163,0.000000,0.033300,0.000000,211.000000,211.000000,0.000000,3.000000,0.000000,0.000000,0.000000,0.000000,0.000000;
#CREDIT:ZSL;
#NOTES:
0000
0000
0000
0000
,
0000
0000
0000
0000
,
0000
0000
0000
0000
,
0000
0000
0000
0000
,
0000
0000
0000
0000
,
1000
0001
1000
0000
,
0010
0100
0100
0000
,
0001
1000
0001
0000
,
0010
0100
0100
0000
,
1000
0000
0001
0000
0010
0000
0000
0100
,
0000
1000
0001
0100
,
0010
1000
0010
0000
,
0100
0001
1000
0100
,
0010
0000
0001
0000
1000
0000
0000
0010
,
0000
0100
0010
0100
,
0001
1000
0100
0000
,
0010
0100
1000
0010
,
0100
0001
0100
0100
,
0010
1000
0001
0001
,
0010
0100
1000
1000
,
0001
0000
0100
0000
,
0010
1000
0100
0010
,
0001
1000
0001
0010
,
0100
1000
0010
0100
,
0010
1000
0001
0000
,
1000
0100
0010
0100
,
0010
0001
0100
0010
,
1000
0001
1000
0100
,
0010
0000
0100
1000
,
0010
0100
0001
0100
,
0010
1000
0100
0010
,
0100
1000
0001
1000
,
0010
0100
0001
0000
,
1000
0100
1000
0001
,
0100
0001
0020
0000
,
0130
1000
0000
0000
,
0001
0000
0000
1000
0000
0000
0002
0000
,
0000
0000
0103
0000
0010
0000
0000
1000
,
0000
0001
1000
0000
,
0100
0010
0100
1000
,
0001
0100
0001
1000
,
0010
0100
0001
0000
,
1000
0000
0100
0000
0010
0000
0000
0001
,
0000
0100
0010
1000
,
0000
0100
0010
0100
,
1000
0000
0000
0010
0000
0100
0000
0001
,
0000
1000
0100
0200
,
0000
0300
0000
0010
,
0001
0000
1000
0000
0010
0000
0000
0100
,
0000
0001
0000
0000
1000
0000
0000
0000
,
0100
0000
0000
0000
0010
0000
0000
0100
,
0000
1000
0001
0100
,
0000
0010
0100
0010
,
1000
0000
0000
0001
0000
0010
0000
0100
,
0000
0000
1000
0000
0100
0000
0000
0010
,
0000
0001
1000
0010
,
0100
0000
0001
0000
0100
0000
0000
0010
,
0000
1000
0001
0000
,
0010
0100
1000
0001
,
1000
0000
0000
0010
0000
0000
0100
0000
,
0001
0100
0010
1000
,
0100
0000
0010
0000
0010
0000
0000
0001
,
0000
1000
0010
0100
,
0001
1000
0100
0000
,
0010
0100
0010
0100
,
1000
0001
0001
0000
,
0100
0010
0100
0010
,
1000
0100
0100
0000
;

//---------------dance-single - ----------------
#NOTEDATA:;
#CHARTNAME:;
#CHARTHASH:2348687967;
#STEPSTYPE:dance-single;
#BANNER:;
#DESCRIPTION:;
#CHARTSTYLE:;
#DIFFICULTY:Medium;
#METER:9;
#METERF:0.000000;
#LASTSECONDHINT:88.114586;
#RADARVALUES:0.439243,0.449550,0.133200,0.099900,0.000000,277.000000,265.000000,12.000000,9.000000,0.000000,0.000000,0.000000,0.000000,0.000000,0.439243,0.449550,0.133200,0.099900,0.000000,277.000000,265.000000,12.000000,9.000000,0.000000,0.000000,0.000000,0.000000,0.000000;
#CREDIT:ZSL;
#NOTES:
0000
0000
0000
0000
,
0000
0000
0000
0000
,
0000
0000
0000
0000
,
0000
0000
0000
0000
,
0000
0000
0000
0000
,
1000
0001
0010
0100
,
1000
1001
1001
0000
,
0001
0100
0010
1000
,
0001
1001
1001
0000
,
1000
0000
0010
0000
0100
0000
0001
1000
,
0000
0100
0010
0001
,
0100
0010
1000
0001
,
0010
0000
0100
0000
1000
0001
1000
0000
,
0001
0000
0010
0000
0100
0000
1000
0001
,
0000
0100
0010
1000
,
0100
0010
0001
1000
,
0010
0000
0100
0000
0001
1000
0001
0000
,
0010
0000
0100
0000
1000
0100
1000
0000
,
0001
0000
0100
0000
0010
0100
0010
0000
,
1000
0000
0001
0000
0010
0001
0010
0000
,
0100
1000
0001
0100
,
0010
1000
0100
0010
,
0001
0010
0001
0010
0100
0000
1000
0000
,
0001
0010
0001
0100
,
0010
1000
0001
0000
1000
0000
0000
0000
,
0001
0010
0100
1000
,
0010
0100
0000
0010
1000
0000
0001
0000
,
0010
0100
1000
0001
,
0100
0010
0000
1000
0010
1000
0010
0000
,
1000
0100
0010
0001
,
0010
0100
1000
0001
,
0100
0010
0100
0010
1000
0000
0001
0000
,
0010
0100
1000
0000
,
0002
0100
2003
0001
,
3200
1000
0320
0000
,
0031
2000
0000
3010
,
0120
0000
0130
0001
0000
0000
1002
0000
,
0000
1003
0100
0000
0010
0000
0001
2000
,
0000
0000
0000
0000
0000
0000
0000
3000
,
0001
0100
0010
0000
,
1010
1000
0100
0010
,
0001
0010
0000
0001
0100
0001
0000
0000
,
0010
0000
0100
0000
1000
0000
0001
0100
,
0000
0010
1000
0000
0001
0000
0010
0100
,
0000
1000
0010
0100
,
0001
0000
1000
0100
0000
0010
0000
0001
,
0000
1000
0001
0000
0100
0010
0100
0020
,
0000
0030
0000
0000
,
0101
0000
0001
0000
0100
0010
1000
0010
,
0000
1000
0000
0100
0010
0100
0000
0000
,
1000
0001
0000
0000
0100
0001
0000
1000
,
0000
0010
0100
0000
0001
0000
1000
0100
,
0000
0010
0001
1000
,
0010
0000
0100
0010
0000
0100
0000
0001
,
0000
1000
0100
1000
0001
0000
0000
0100
,
0000
0010
0100
0000
0001
0000
1000
0001
,
0010
0000
0001
0000
0100
0000
0010
0100
,
0000
0001
1000
0000
0010
0000
0000
0000
,
1000
0001
1000
0001
0010
0000
0100
0000
,
1000
0000
0001
1000
0000
0100
0010
0000
,
0100
1000
0001
0100
,
0001
0010
0001
0000
0100
0000
0000
0010
,
0000
1000
0010
0000
1000
0000
0100
0000
,
0010
0000
0100
0000
1000
0001
0000
0100
,
0001
0100
0010
1000
,
0100
0110
1100
0000
,
1000
0100
0010
0001
,
0100
0110
1001
0000
;

//---------------dance-single - ----------------
#NOTEDATA:;
#CHARTNAME:;
#CHARTHASH:388528607;
#STEPSTYPE:dance-single;
#BANNER:;
#DESCRIPTION:;
#CHARTSTYLE:;
#DIFFICULTY:Hard;
#METER:13;
#METERF:0.000000;
#LASTSECONDHINT:88.114586;
#RADARVALUES:0.685029,0.674326,0.466200,0.099900,0.027750,432.000000,390.000000,42.000000,9.000000,0.000000,0.000000,0.000000,0.000000,0.000000,0.685029,0.674326,0.466200,0.099900,0.027750,432.000000,390.000000,42.000000,9.000000,0.000000,0.000000,0.000000,0.000000,0.000000;
#CREDIT:ZSL;
#NOTES:
// measure 0
0000
0000
0000
0000
,  // measure 1
0000
0000
0000
0000
,  // measure 2
0000
0000
0000
0000
,  // measure 3
0000
0000
0000
0000
,  // measure 4
0000
0000
0000
0000
,  // measure 5
1000
0001
0100
0001
0010
0001
0100
0001
,  // measure 6
1001
1010
0110
0000
,  // measure 7
0001
1000
0100
1000
0010
1000
0100
1000
,  // measure 8
1001
0011
0110
1000
,  // measure 9
1001
0000
0001
0000
0100
0001
0100
2000
,  // measure 10
0000
3100
0010
1000
0001
0010
0100
1000
,  // measure 11
0010
0000
0100
0000
0010
1000
0001
0010
,  // measure 12
0100
1000
0100
0000
1000
0000
0001
0000
0100
0000
0001
0000
1000
0000
0000
0000
,  // measure 13
1100
0000
0100
0000
0010
0001
0010
2000
,  // measure 14
0000
0000
3010
0000
0100
0010
0100
0000
0010
0000
0001
0000
1000
0000
0010
0000
,  // measure 15
0100
0000
0001
0000
1000
0100
0010
0100
,  // measure 16
1000
0001
1000
0000
0010
0000
0100
0000
0001
0000
0100
0000
0020
0000
0000
0000
,  // measure 17
1030
0100
0010
0001
0100
0100
0010
0010
,  // measure 18
1000
0010
0100
0001
0010
0010
0100
0100
,  // measure 19
1000
0001
0100
0010
1000
1000
0001
0001
,  // measure 20
0010
0100
1000
0000
0001
0100
0010
0000
,  // measure 21
1000
0100
0010
0001
0100
0001
1000
0010
,  // measure 22
0100
0100
0001
0001
1000
0100
0010
0001
,  // measure 23
1000
0001
0100
0001
1000
0010
0100
0001
,  // measure 24
0010
0001
1000
0000
0100
0000
0011
0000
,  // measure 25
0001
0010
0100
1000
0010
0000
0100
0010
,  // measure 26
1000
0001
0000
0010
1000
0000
0010
0100
,  // measure 27
1000
0001
0100
0000
0010
0000
0100
0001
,  // measure 28
0010
0001
0000
1000
0100
0010
0001
0000
,  // measure 29
1000
0010
0100
0010
1000
0001
0100
0001
,  // measure 30
1000
0100
0010
0100
1000
0001
0010
0001
,  // measure 31
0100
0100
0010
0010
1000
0001
0010
0100
,  // measure 32
1000
0010
0100
0000
,  // measure 33
0110
0001
0100
1010
,  // measure 34
0001
0010
1200
0000
,  // measure 35
0310
2001
0000
3010
,  // measure 36
0120
0000
0130
0101
0000
0000
2001
0000
,  // measure 37
0000
0100
3100
0000
0001
0100
1000
0002
,  // measure 38
0000
1000
1000
0000
0100
0100
0000
0013
,  // measure 39
0100
0000
1100
0000
1001
0001
0000
0100
,  // measure 40
0110
0000
0010
0000
1010
0000
1000
0001
,  // measure 41
1000
0100
0000
0010
0001
0001
0000
0100
,  // measure 42
0010
1000
0001
0010
0100
1000
0001
1001
,  // measure 43
0000
0001
0100
0010
0100
0000
1000
0100
,  // measure 44
0001
0000
0011
0000
0110
0000
0100
1000
,  // measure 45
0010
1000
0001
0010
0000
0001
0000
0100
,  // measure 46
0000
0001
1000
0000
0010
0010
0100
0200
,  // measure 47
0000
0001
0301
0100
0010
1000
0100
0010
,  // measure 48
0011
0000
1001
0000
1000
0001
0100
0010
,  // measure 49
0000
1000
0001
0010
0100
0100
0000
0010
,  // measure 50
0100
1000
0001
0100
0010
1000
0000
1010
,  // measure 51
0000
0010
0100
0001
0010
0000
1000
0010
,  // measure 52
0001
0000
1001
0000
0110
0000
1000
0001
,  // measure 53
0010
0100
1000
0010
0000
0101
0000
0011
,  // measure 54
0000
0000
0001
0000
0010
0000
0100
0000
1000
0001
1000
0001
1000
0000
0010
0000
,  // measure 55
0000
0100
0001
0000
1000
0000
0001
0010
,  // measure 56
0001
1000
0001
0010
0100
1000
0010
0001
,  // measure 57
0000
0010
0100
0001
1000
0000
0100
0010
,  // measure 58
0100
0100
1000
1000
0001
0000
1000
0010
,  // measure 59
0001
0010
1000
0001
0000
0010
0110
0000
,  // measure 60
1000
0001
0100
0010
1000
0001
1000
0100
,  // measure 61
0001
0100
1000
0000
1001
0000
0001
0011
,  // measure 62
0000
0010
0100
0000
1100
0000
1000
0000
,  // measure 63
0101
0000
0001
0000
1010
0010
0000
1000
,  // measure 64
0001
0010
1000
0010
0001
0010
1000
0010
,  // measure 65
0110
0011
1001
0000
,  // measure 66
1000
0010
0001
0010
1000
0010
0001
0010
,  // measure 67
0110
1010
1100
0000
;
