#TITLE:Shamshir;
#SUBTITLE:;
#ARTIST:Blacklolita;
#TITLETRANSLIT:;
#SUBTITLETRANSLIT:;
#ARTISTTRANSLIT:;
#GENRE:;
#CREDIT:;
#BANNER:;
#BACKGROUND:;
#LYRICSPATH:;
#CDTITLE:;
#MUSIC:Shamshir.ogg;
#OFFSET:0.639000;
#SAMPLESTART:22.457001;
#SAMPLELENGTH:20.000000;
#SELECTABLE:YES;
#DISPLAYBPM:135.000000;
#BPMS:0.000000=135.000000
,59.000000=270.000000
,60.000000=135.000000
,75.000000=270.000000
,76.000000=135.000000
,91.000000=270.000000
,92.000000=135.000000
,98.500000=270.000000
,99.500000=135.000000
,107.000000=270.000000
,108.000000=135.000000
,119.000000=270.000000
,120.000000=135.000000
,123.000000=270.000000
,124.000000=135.000000
,127.000000=270.000000
,128.000000=135.000000
,135.000000=270.000000
,136.000000=135.000000
,139.000000=270.000000
,140.000000=135.000000
,143.000000=270.000000
,144.000000=135.000000
,202.500000=90.000000
,203.000000=270.000000
,203.500000=135.000000
,219.000000=270.000000
,220.000000=135.000000
,235.000000=270.000000
,236.000000=135.000000
,242.500000=270.000000
,243.500000=135.000000
,251.000000=270.000000
,252.375000=90.000000
,252.750000=270.000000
,253.125000=90.000000
,253.500000=270.000000
,253.875000=90.000000
,254.250000=270.000000
,254.625000=90.000000
,255.000000=270.000000
,255.250000=90.000000
,255.500000=270.000000
,255.750000=90.000000
,256.000000=135.000000
;
#STOPS:59.000000=0.111000,
59.500000=0.055000,
59.750000=0.056000,
75.000000=0.111000,
75.500000=0.055000,
75.750000=0.056000,
91.000000=0.111000,
91.500000=0.055000,
91.750000=0.056000,
98.500000=0.111000,
99.000000=0.055000,
99.250000=0.056000,
107.000000=0.111000,
107.500000=0.056000,
107.750000=0.056000,
119.000000=0.028000,
119.125000=0.027000,
119.250000=0.028000,
119.375000=0.028000,
119.500000=0.028000,
119.625000=0.027000,
119.750000=0.028000,
119.875000=0.028000,
123.000000=0.028000,
123.125000=0.028000,
123.250000=0.028000,
123.375000=0.028000,
123.500000=0.028000,
123.625000=0.027000,
123.750000=0.028000,
123.875000=0.028000,
127.000000=0.028000,
127.125000=0.027000,
127.250000=0.028000,
127.375000=0.028000,
127.500000=0.028000,
127.625000=0.027000,
127.750000=0.028000,
127.875000=0.028000,
135.000000=0.028000,
135.125000=0.027000,
135.250000=0.028000,
135.375000=0.028000,
135.500000=0.028000,
135.625000=0.027000,
135.750000=0.028000,
135.875000=0.028000,
139.000000=0.028000,
139.125000=0.027000,
139.250000=0.028000,
139.375000=0.028000,
139.500000=0.028000,
139.625000=0.027000,
139.750000=0.028000,
139.875000=0.028000,
143.000000=0.028000,
143.125000=0.027000,
143.250000=0.028000,
143.375000=0.028000,
143.500000=0.028000,
143.625000=0.027000,
143.750000=0.028000,
143.875000=0.028000,
219.000000=0.112000,
219.500000=0.055000,
219.750000=0.056000,
235.000000=0.111000,
235.500000=0.055000,
235.750000=0.056000,
242.500000=0.111000,
243.000000=0.055000,
243.250000=0.056000,
251.000000=0.111000,
251.500000=0.055000,
251.750000=0.056000
;
#BGCHANGES:;
#KEYSOUNDS:;
#ATTACKS:;

//---------------dance-single - ----------------
#NOTES:
     dance-single:
     :
     Medium:
     11:
     0.483463,0.534808,0.112808,0.190906,0.121486,390.000000,377.000000,13.000000,22.000000,0.000000,0.000000,0.483463,0.534808,0.112808,0.190906,0.121486,390.000000,377.000000,13.000000,22.000000,0.000000,0.000000:
// measure 0
0000
0000
0000
0000
,  // measure 1
0000
0000
0000
0000
,  // measure 2
0000
0000
0000
0000
,  // measure 3
0000
0000
0000
0000
,  // measure 4
0000
0000
0000
0000
,  // measure 5
0001
0000
1000
0010
0000
0010
0100
0000
,  // measure 6
0001
0010
0100
1000
0001
0000
1000
0000
,  // measure 7
0100
0010
0100
0000
1000
0001
1000
0000
,  // measure 8
1010
0000
0000
0101
0000
0000
0001
0000
,  // measure 9
1000
0000
0100
0010
0000
0010
0110
0000
,  // measure 10
0100
0000
1000
0001
0000
0001
0100
0010
,  // measure 11
1000
0100
1000
0100
0010
0001
0010
0001
,  // measure 12
0100
0000
0010
1000
0001
0000
1000
0000
,  // measure 13
1100
0000
0000
0100
0010
0000
0001
0000
1000
0000
0010
0000
0100
0000
0000
0000
,  // measure 14
0010
1000
0100
1000
0010
0100
0002
0000
,  // measure 15
1003
0000
0000
0001
0010
0000
0000
0000
0100
0000
1000
0000
0010
0000
0100
0000
,  // measure 16
0001
0000
0001
0000
0001
0000
1000
0100
0000
0010
0100
0000
1000
0000
0001
0000
,  // measure 17
0101
0000
0000
0100
0010
0000
1000
0000
0001
0000
0010
0000
0100
0000
0000
0000
,  // measure 18
0010
0001
0100
0001
0010
0100
2000
0000
,  // measure 19
3001
0000
0000
1000
0010
0000
0000
0000
0100
0000
0001
0000
0010
0000
0100
0000
,  // measure 20
0020
0000
0032
0000
1003
0001
1000
0000
,  // measure 21
0001
0000
0000
0010
0100
0000
1000
0000
0001
0000
0100
0000
0010
0000
0000
0000
,  // measure 22
0100
0001
1000
0100
0010
0100
0002
0000
,  // measure 23
0103
0000
0000
0010
0100
0000
0000
0000
1000
0000
0001
0000
0100
0000
0010
0000
,  // measure 24
0100
0100
0100
0001
0001
0002
0000
0003
,  // measure 25
1000
0000
0000
0010
0100
0000
0001
0000
1000
0000
0100
0000
0010
0000
0000
0000
,  // measure 26
0100
1000
0001
0100
0010
0100
2000
0000
,  // measure 27
3100
0010
1000
0100
1000
0001
0010
0100
,  // measure 28
1000
0000
0000
0001
0000
0000
1000
0000
0000
0001
0000
0000
0110
0000
0000
0000
,  // measure 29
0001
1000
0001
0010
0100
0010
0002
0000
,  // measure 30
1003
0010
0100
0010
1000
0001
0020
0000
,  // measure 31
0130
1000
0010
0100
0001
0010
0200
0000
,  // measure 32
0310
0000
0000
0001
0000
0000
1000
0000
0000
0010
0000
0000
0100
0000
0010
0000
,  // measure 33
1000
0001
1000
0010
0100
0010
2000
0000
,  // measure 34
3001
0010
0100
0010
0001
1000
0020
0000
,  // measure 35
0130
0001
0010
0100
1000
0010
0200
0000
,  // measure 36
0310
0000
0000
1000
0000
0000
0001
0000
0000
0010
0000
0000
0100
0000
0010
0000
,  // measure 37
0001
1000
0010
0100
,  // measure 38
0010
1000
0010
1000
0001
0000
1001
0000
,  // measure 39
1000
0001
0010
0100
,  // measure 40
0010
0001
0010
0001
1000
0000
0001
0001
,  // measure 41
0100
0010
1000
0100
,  // measure 42
0010
0100
1000
0001
0100
0000
0010
0000
,  // measure 43
1010
0001
0011
1000
,  // measure 44
0002
0000
0000
0003
0000
0000
0200
0000
0000
0300
0000
0000
0010
0000
0000
0000
,  // measure 45
1000
0000
0001
0010
0000
0010
0110
0000
,  // measure 46
1000
0000
0010
0100
0000
0100
0001
1000
,  // measure 47
0001
0010
0100
1000
0001
0010
0100
1000
,  // measure 48
0010
0000
0000
0000
0100
0000
0000
0000
0010
0000
0000
0010
0000
0000
1000
0000
,  // measure 49
0001
0000
0000
0000
0010
0000
0000
0000
0100
0000
0000
0100
0000
0000
0100
0000
,  // measure 50
1000
1000
1000
0001
0001
0001
0000
0000
,  // measure 51
1001
0000
0000
0001
0100
0000
0010
0000
1000
0000
0001
0000
0010
0000
0000
0000
,  // measure 52
0100
0000
0100
0000
0100
0000
1000
0001
0000
0100
0001
0000
0100
0000
0010
0000
,  // measure 53
1010
0000
0000
0001
0010
0000
0100
0000
0010
0000
0001
0000
0100
0000
0000
0000
,  // measure 54
0001
0010
0100
1000
0010
0100
0002
0000
,  // measure 55
0103
0000
0000
0001
0010
0000
0001
0000
1000
0000
0100
0000
0010
0000
0000
0000
,  // measure 56
0200
0000
2300
0000
3001
1000
0001
0000
,  // measure 57
0100
0000
0000
0010
1000
0000
0001
0000
0010
0000
0100
0000
1000
0000
0000
0000
,  // measure 58
0100
0010
0001
1000
0001
0100
2000
0000
,  // measure 59
3100
0000
0000
0001
0100
0000
0000
0000
0010
0000
1000
0000
0001
0000
0010
0000
,  // measure 60
0100
0100
0100
1000
1000
2000
0000
3000
,  // measure 61
1001
0000
0001
0100
0010
1000
0100
0010
,  // measure 62
0100
1000
0010
0100
0001
1000
0200
0000
,  // measure 63
0310
0000
0000
0001
0000
0000
1000
0000
0000
0010
0000
0000
0100
0000
0100
0000
,  // measure 64
0010
1000
0010
0100
0001
1000
0200
0300
;

//---------------dance-single - ----------------
#NOTES:
     dance-single:
     :
     Beginner:
     3:
     0.138841,0.168887,0.000000,0.130163,0.000000,112.000000,112.000000,0.000000,15.000000,0.000000,0.000000,0.138841,0.168887,0.000000,0.130163,0.000000,112.000000,112.000000,0.000000,15.000000,0.000000,0.000000:
0000
0000
0000
0000
,
0000
0000
0000
0000
,
0000
0000
0000
0000
,
0000
0000
0000
0000
,
0000
0000
0000
0000
,
0001
0000
1000
0000
,
0100
0000
0010
0000
,
0001
0000
1000
0000
,
0010
0000
0000
0000
,
0100
0000
0001
0000
,
1000
0000
0100
0000
,
0010
0000
0100
0000
,
1000
0000
0000
0000
,
0001
0000
0100
0000
,
0010
0000
0100
0200
,
0300
0000
0001
0000
,
1000
1000
0000
0000
,
0100
0000
0010
0000
,
0001
0000
1000
2000
,
3000
0000
0010
0000
,
0100
0001
0000
0000
,
1000
0000
0100
0000
,
0010
0000
0100
0200
,
0300
0000
1000
0000
,
0001
0001
0000
0000
,
0100
0000
0010
0000
,
1000
0000
0001
0002
,
0003
0000
0010
0000
,
0100
0000
0000
0000
,
1000
0000
0000
2000
,
3010
0000
0000
0020
,
0130
0000
0000
0200
,
0301
0000
0000
0000
,
0001
0000
0000
0020
,
0130
0000
0000
0200
,
1300
0000
0000
2000
,
3001
0000
0000
0000
,
0100
0000
0001
0000
,
1000
0000
0000
0000
,
0100
0000
0010
0000
,
0001
0000
0000
0000
,
1000
0000
0010
0000
,
0100
0000
0000
0000
,
0001
0000
0010
0000
,
0100
0000
0000
0000
,
1000
0000
0010
0000
,
1000
0000
0100
0000
,
0010
0000
0001
0000
,
1000
0000
0000
0000
,
0010
0000
0100
0000
,
0010
0010
0010
0000
,
1000
0000
0001
0000
,
0100
0100
0100
0000
,
0001
0000
1000
0000
,
0100
0000
0010
0020
,
0030
0000
0100
0000
,
1000
0001
0000
0000
,
0100
0000
0010
0000
,
1000
0000
0100
0200
,
0300
0000
0010
0000
,
0001
0001
0001
0000
,
1000
0000
0010
0000
,
0100
0000
0010
0200
,
0302
0000
0000
0000
,
0003
0000
0000
0000
0000
0000
2000
3000
;

//---------------dance-single - ----------------
#NOTES:
     dance-single:
     :
     Easy:
     7:
     0.297516,0.309626,0.052065,0.138841,0.000000,240.000000,234.000000,6.000000,16.000000,0.000000,0.000000,0.297516,0.309626,0.052065,0.138841,0.000000,240.000000,234.000000,6.000000,16.000000,0.000000,0.000000:
0000
0000
0000
0000
,
0000
0000
0000
0000
,
0000
0000
0000
0000
,
0000
0000
0000
0000
,
0000
0000
0000
0000
,
0001
1000
0000
0010
,
0100
0010
1000
0000
,
0100
0100
0010
0010
,
0001
0000
0000
1000
0000
0000
0010
0000
,
1000
0100
0010
0010
,
0001
1000
0010
0010
,
0100
0001
1000
0100
,
0010
0000
0100
0000
,
1001
1000
0001
0100
,
0010
0000
1000
0010
0000
0010
0200
0000
,
0301
1000
0100
0010
,
0001
1000
0000
1000
0000
0010
0000
0100
,
0001
0001
1000
0100
,
0010
0000
0001
0010
0000
0010
0200
0000
,
1300
0001
0100
0010
,
1000
0000
0001
1000
0000
1000
0100
0000
,
0110
0010
0001
1000
,
0010
0000
0100
0001
0000
0001
0020
0000
,
0130
1000
0001
0010
,
0001
0100
0000
0100
0001
0200
0000
0300
,
0010
0010
1000
0001
,
0010
0000
0100
1000
0000
1000
0020
0000
,
0130
0010
1000
0100
,
0010
0000
0000
0100
0000
0000
0010
0000
,
0001
0000
0001
1000
0000
0000
0020
0000
,
0130
0000
0100
0001
0000
0000
2000
0000
,
3100
0000
0100
0010
0000
0000
0002
0000
,
0013
0000
0000
0100
0000
0000
1000
0001
,
1000
0000
1000
0001
0000
0000
0020
0000
,
0130
0000
0100
1000
0000
0000
0002
0000
,
0103
0000
0100
0010
0000
0000
2000
0000
,
3010
0000
0000
0100
0000
0000
0001
0000
,
1000
0000
0100
0000
,
1000
0010
0100
0000
,
0001
0000
0100
0000
,
0001
0010
0100
0000
,
1000
0000
0001
0000
,
0100
0001
0010
0000
,
0100
0100
1000
1000
,
0001
0000
0000
0100
0000
0000
0010
0000
,
1000
0010
0100
0100
,
0001
1000
0100
0100
,
0010
0001
1000
0010
,
0100
0001
1000
0000
,
0100
0000
0110
0000
,
0001
1000
0000
1000
0001
1000
0000
0000
,
0010
0100
0001
1000
,
0100
0010
0000
0010
0000
0001
0000
0010
,
0100
1000
0001
0100
,
0010
0000
0100
0001
0000
0001
2000
0000
,
3100
0010
0001
1000
,
0010
0000
1000
0100
0000
0100
0010
0000
,
0011
0001
1000
0010
,
0100
0000
0010
1000
0000
1000
0200
0000
,
0310
0001
1000
0010
,
0100
0010
0000
0010
1000
0002
0000
0003
,
1000
0100
0010
0100
,
1000
0000
0010
0000
0100
0001
0200
0000
,
0301
0000
0000
1001
0000
0000
1000
0000
,
1100
0000
0001
0100
0000
0100
0020
0030
;

//---------------dance-single - ----------------
#NOTES:
     dance-single:
     :
     Hard:
     15:
     0.694203,0.844433,0.086775,0.156196,0.668171,560.000000,550.000000,10.000000,18.000000,0.000000,0.000000,0.694203,0.844433,0.086775,0.156196,0.668171,560.000000,550.000000,10.000000,18.000000,0.000000,0.000000:
0000
0000
0000
0000
,
0000
0000
0000
0000
,
0000
0000
0000
0000
,
0000
0000
0000
0000
,
0000
0000
0000
0000
,
0001
1000
0001
0100
0010
1000
0100
0000
,
0010
0001
1000
0001
0100
0010
1000
0000
,
0100
1000
0001
0100
0010
1000
0001
0010
,
1100
0000
0000
1001
0000
0000
0001
0000
,
1000
0100
0010
0001
0100
0010
0001
0000
,
0010
1000
0001
0010
0100
0010
1000
0010
,
0001
0001
1000
1000
0010
0010
0100
0100
,
0001
0000
0000
1000
0001
0000
0100
0000
0010
0000
1000
0000
0001
0010
0000
0100
,
1000
0000
0000
0001
0100
0000
0010
0000
1000
0010
0000
1000
0001
0000
0010
0000
,
0100
1000
0100
1000
0100
0000
1000
0001
1000
0001
1000
0000
0020
0000
0130
0001
,
1000
0001
0000
0010
0100
0000
1000
0000
0001
0100
0000
0010
0100
0000
0010
0000
,
1000
0100
0010
0100
1000
0000
0001
0100
0000
0010
1000
0000
0100
0000
1000
0000
,
0001
0000
0000
0100
0010
0000
1000
0000
0001
0010
0000
0100
1000
0000
0001
0000
,
0100
0001
0100
0001
0100
0000
0010
1000
0010
1000
0010
0000
2000
0000
3001
0010
,
0100
0010
0000
0001
1000
0000
0010
0000
0100
0010
0100
0010
1000
0001
1000
0001
,
0010
0001
0001
0010
0100
0100
1000
0001
,
0101
0000
0000
0100
0010
0000
1000
0000
0100
1000
0000
0001
0100
0000
0010
0000
,
1000
0100
1000
0100
0010
0000
0001
0010
0001
0010
0100
0000
0002
0000
0103
1000
,
0001
1000
0000
0010
1000
0000
0010
0000
0100
0001
0000
0010
0001
0000
1000
0000
,
0010
0100
0001
1000
0010
0000
1000
0100
0010
0001
2000
0000
3001
1000
0010
0000
,
0100
0000
0000
0001
0100
0000
0010
0000
1000
0010
0000
1000
0100
0000
0010
0000
,
0001
0100
0001
0100
0010
0000
1000
0010
1000
0010
0100
0000
2000
0000
3100
0001
,
1000
0000
0000
0000
0000
0000
0000
0001
0000
0000
0000
0000
1000
0000
0000
0000
0000
0000
0000
0001
0000
0000
0000
0000
0010
0000
0000
0000
0000
0000
0000
0100
0000
0000
0000
0000
0010
0000
0000
0000
0000
0000
0000
0100
0000
0000
0000
0000
1000
0000
0000
0000
0000
0000
0000
0001
0000
0000
0000
0000
0100
0000
0000
0000
0000
0000
0000
0010
0000
0000
0000
0000
1000
0000
0000
0000
0000
0000
0000
0001
0000
0000
0000
0000
0010
0000
0000
0000
0000
0000
0000
0100
0000
0000
0000
0000
,
1000
0000
0000
0001
0000
0000
0100
0000
0000
0010
0000
0000
1001
0000
0000
0000
,
0001
0100
0001
0000
1000
0000
0001
0010
0001
0000
0100
0000
0020
0000
0000
0000
,
1030
0100
0010
0000
0001
0000
0100
0010
1000
0000
0100
0000
0020
0000
0000
0000
,
0130
1000
0010
0000
0100
0000
1000
0100
0010
0000
1000
0000
0002
0000
0000
0000
,
0013
0000
0000
0100
0000
0000
1000
0000
0000
0010
0000
0000
0100
0000
0001
0000
,
1000
0100
1000
0000
0001
0000
1000
0010
1000
0000
0100
0000
0020
0000
0000
0000
,
0031
0100
0010
0000
1000
0000
0100
0010
0001
0000
0100
0000
0020
0000
0000
0000
,
0130
0001
0010
0000
0100
0000
0001
0100
0010
0000
0001
0000
2000
0000
0000
0000
,
3010
0000
0000
0100
0000
0000
0001
0000
0000
0010
0000
0000
0100
0000
1000
0000
,
0001
0000
0100
0010
1000
0100
0010
0000
,
0001
0100
1000
0100
0001
0010
0100
0000
,
1000
0000
0100
0010
0001
0100
0010
0000
,
1000
0100
0001
0100
1000
0010
0100
0000
,
0010
0000
1000
0001
0010
0001
0100
0000
,
0010
0001
0010
1000
0001
0010
0100
0000
,
1000
0001
0010
0001
0100
0001
1000
0010
,
0200
0000
0000
0300
0000
0000
0002
0000
0000
0003
0000
0000
0010
0000
0000
0000
,
0100
1000
0001
0010
0001
0100
1000
0000
,
0100
0001
0010
0100
1000
0010
0100
0000
,
0010
0010
1000
1000
0001
0001
0010
0010
,
0100
0000
0000
0000
1000
0000
0000
0000
0001
0000
0000
1000
0000
0000
0010
0000
,
0100
0000
0000
0001
0100
0010
0100
0001
0010
0000
0100
0001
0000
0100
1000
0000
,
0001
1000
0001
1000
0001
0000
0010
0100
0010
0100
0010
0000
0000
0000
0100
0000
,
1000
0001
0000
0100
0001
0000
0100
0000
0010
1000
0000
0001
0010
0000
0100
0000
,
1000
0001
0100
0010
1000
0000
0100
0010
0000
0001
0100
0000
0010
0000
1000
0000
,
0001
0000
0000
0010
0001
0000
1000
0000
0010
0100
0000
0001
1000
0000
0100
0000
,
0010
0100
0010
0100
0010
0000
0001
0100
0001
0100
0001
0000
2000
0000
3010
1000
,
0100
1000
0000
0001
0100
0000
0001
0000
0010
0001
0010
0001
1000
0010
1000
0010
,
0100
0001
0001
0010
0100
0100
1000
0010
,
0110
0000
0000
0100
0010
0000
1000
0000
0100
0010
0000
0001
1000
0000
0010
0000
,
0100
0001
0100
0001
0010
0000
0100
1000
0100
1000
0010
0000
0002
0000
0013
1000
,
0001
0010
0000
0100
0010
0000
0001
0000
1000
0010
0000
0100
0001
0000
1000
0000
,
0001
0010
0100
0010
1000
0000
0010
0100
0010
0001
2000
0000
3001
0100
0010
0000
,
1000
0000
0000
0000
0000
0000
0001
0000
0010
0001
0000
1000
0001
0000
1000
0010
0000
0100
0010
0000
0100
0001
0000
1000
,
0100
0000
0000
0000
0010
0000
0001
0000
0000
0000
1000
0000
0010
0000
0000
0000
0100
0000
0001
0000
0000
0000
0010
0000
0100
0000
0000
0000
1000
0000
0010
0000
0000
0000
0100
0000
0002
0000
0000
0000
0000
0000
1003
0000
0000
0100
0000
0000
,
0010
0000
0000
1100
0000
0000
1010
0000
0000
0101
0000
0000
0011
0000
0110
0000
,
0100
1000
0001
0100
0010
0000
0100
0001
0010
0100
1000
0000
0002
0000
0003
0000
;
