#VERSION:0.83;
#TITLE:Run Away;
#SUBTITLE:;
#ARTIST:taqumi;
#TITLETRANSLIT:;
#SUBTITLETRANSLIT:;
#ARTISTTRANSLIT:;
#GENRE:;
#CREDIT:;
#MUSIC:Run Away.ogg;
#BANNER:;
#BACKGROUND:;
#CDTITLE:;
#SAMPLESTART:13.705;
#SAMPLELENGTH:20.000;
#SELECTABLE:YES;
#OFFSET:-0.005;
#BPMS:0.000=140.000;
#STOPS:;
#SPEEDS:0.000=1.000=0.000=0;
#SCROLLS:0.000=1.000;
#TICKCOUNTS:0.000=4;
#TIMESIGNATURES:0.000=4=4;
#LABELS:0.000=Song Start;
#COMBOS:0.000=1;
#ORIGIN:;
#TAGS:;
#PREVIEWVID:;
#JACKET:;
#CDIMAGE:;
#DISCIMAGE:;
#BGCHANGES:;
#FGCHANGES:;

//--------------- dance-single - ----------------
#NOTEDATA:;
#STEPSTYPE:dance-single;
#DESCRIPTION:;
#DIFFICULTY:Beginner;
#METER:3;
#RADARVALUES:0.119363,0.170261,0.007882,0,0,106,105,1,0,0,0,0,0,0,0.119363,0.170261,0.007882,0,0,106,105,1,0,0,0,0,0,0;
#CHARTNAME:;
#CHARTHASH:736891427;
#BANNER:;
#CHARTSTYLE:;
#METERF:0.000000;
#LASTSECONDHINT:123.433571;
#CREDIT:ZSL;
#NOTES:
0000
0000
0000
0000
,
0000
0000
0000
0000
,
1000
0000
0000
0000
,
0001
0000
0000
0000
,
0010
0000
0000
0000
,
0001
0000
0000
0000
,
0100
0000
0000
0000
,
0010
0000
0000
0000
,
1000
0000
1000
0000
,
0000
0000
0000
0000
,
0001
0000
0001
0000
,
0000
0000
0000
0000
,
0010
0000
0010
0000
,
0000
0000
0000
0000
,
0100
0000
0100
0000
,
1000
0000
0000
0000
,
0001
0000
0100
0000
,
0001
0000
0000
0000
,
1000
0000
0100
0000
,
1000
0000
0000
0000
,
0010
0000
0100
0000
,
0010
0000
0000
0000
,
1000
0000
0001
0000
,
0010
0000
0000
0000
,
0100
0000
1000
0000
,
0001
0000
0100
0000
,
0010
0000
1000
0000
,
0001
0000
0000
0000
,
0100
0000
0001
0000
,
1000
0000
0100
0000
,
0010
0000
0001
0000
,
0100
0000
0000
0000
,
0010
0000
1000
0000
,
0001
0000
0010
0000
,
0100
0000
1000
0000
,
0001
0000
0000
0000
,
0010
0000
0001
0000
,
1000
0000
0010
0000
,
0100
0000
0001
0000
,
0010
0000
0000
0000
,
0100
0000
0000
0000
,
1000
0000
0000
0000
,
0001
0000
0000
0000
,
0100
0000
0000
0000
,
0010
0000
0000
0000
,
0100
0000
0000
0000
,
0001
0000
0000
0000
,
0010
0000
0000
0000
,
0100
0000
1000
0000
,
0100
0000
0000
0000
,
0010
0000
0001
0000
,
0010
0000
0000
0000
,
0100
0000
1000
0000
,
0010
0000
0000
0000
,
0100
0000
0001
0000
,
0010
0000
0100
0000
,
1000
0000
0001
0000
,
0100
0000
0000
0000
,
0001
0000
1000
0000
,
0100
0000
0000
0000
,
0010
0000
0001
0000
,
1000
0000
0000
0000
,
0010
0000
1000
0000
,
0001
0000
0000
0000
,
0100
0000
0010
0000
,
1000
0000
0100
0000
,
0010
0000
0100
0000
,
1000
0000
0010
0000
,
0100
0000
0001
0000
,
0010
0000
0001
0000
,
0100
0000
0010
0000
,
1000
0000
0001
0000
,
1001
0000
0000
0000
;

//--------------- dance-single - ----------------
#NOTEDATA:;
#STEPSTYPE:dance-single;
#DESCRIPTION:;
#DIFFICULTY:Easy;
#METER:6;
#RADARVALUES:0.286021,0.312145,0.126119,0,0,254,238,16,0,0,0,0,0,0,0.286021,0.312145,0.126119,0,0,254,238,16,0,0,0,0,0,0;
#CHARTNAME:;
#CHARTHASH:1458813735;
#BANNER:;
#CHARTSTYLE:;
#METERF:0.000000;
#LASTSECONDHINT:123.433571;
#CREDIT:ZSL;
#NOTES:
0000
0000
0000
0000
,
0000
0000
0000
0000
,
1000
0000
0001
0000
,
0100
0000
0001
0000
,
0010
0100
1000
0000
,
0001
0100
0010
0000
,
1000
0001
1000
0100
,
0010
0000
0100
0000
,
1100
0000
1000
0000
,
1100
0000
0001
0000
,
0101
0000
0100
0000
,
0101
0000
1000
0000
,
0110
0000
0001
0000
,
1001
0000
1000
0000
,
0110
0000
0010
0000
,
1001
0000
0001
0000
,
0010
0001
0100
0000
,
0010
1000
0100
0000
,
0010
0100
1000
0000
,
0010
0100
0001
0000
,
1000
0100
1000
0100
,
0010
0001
0010
0001
,
0100
0010
1000
0100
,
0010
0000
0100
0000
,
1000
0001
0100
0100
,
0010
0000
0000
0010
1000
0000
0001
0000
,
0010
0100
0010
0000
0100
0000
1000
0000
,
0001
0000
1001
0000
,
0001
0010
0100
0100
,
0010
0000
0000
0010
0001
0000
1000
0000
,
0010
0100
0010
0000
0100
0000
0000
0000
,
1001
0000
0110
0000
,
1000
0001
0010
0010
,
0100
0000
0000
0100
1000
0000
0001
0000
,
0100
0010
0100
0000
0010
0000
1000
0000
,
0001
0000
1001
0000
,
0001
0100
0010
0010
,
0100
0000
0000
0100
0001
0000
1000
0000
,
0100
0010
0100
0000
0010
0000
0000
0000
,
1001
0000
0110
0000
,
1000
0001
0100
0000
,
0001
1000
0100
0000
,
0010
0100
1000
0000
,
0001
0100
0010
0000
,
0100
0001
0010
0000
,
0100
1000
0010
0000
,
0100
0001
1000
0000
,
0100
0000
0110
0000
,
0010
0100
0010
0100
,
1000
0001
1000
0001
,
0100
0010
0100
0010
,
1000
0001
1000
0001
,
0010
0010
0100
0100
,
1000
1000
0001
0001
,
0100
0010
1000
0100
,
0010
0001
0100
0000
,
0001
1000
0010
1000
,
0001
0010
0100
1000
,
0100
0010
0001
1000
,
0010
0100
0001
0010
,
0100
1000
0010
0100
,
0001
0100
0010
1000
,
0001
0010
0100
1000
,
0010
0100
0001
0000
,
1000
0000
0001
0010
0001
0000
0010
0000
,
0100
1000
0010
0100
,
0001
0000
0100
0010
0100
0000
0001
0000
,
1000
0100
0010
0100
,
1000
0000
0001
0100
0001
0000
1000
0000
,
0100
0010
0100
1000
,
0010
0000
0100
0001
0100
0000
0010
0000
,
1000
0100
0010
0100
,
1001
0000
0000
0000
;

//--------------- dance-single - ----------------
#NOTEDATA:;
#STEPSTYPE:dance-single;
#DESCRIPTION:;
#DIFFICULTY:Medium;
#METER:9;
#RADARVALUES:0.383988,0.425653,0.06306,0.236474,0.122178,341,333,8,30,0,0,0,0,0,0.383988,0.425653,0.06306,0.236474,0.122178,341,333,8,30,0,0,0,0,0;
#CHARTNAME:;
#CHARTHASH:992431358;
#BANNER:;
#CHARTSTYLE:;
#METERF:0.000000;
#LASTSECONDHINT:123.433571;
#CREDIT:ZSL;
#NOTES:
0000
0000
0000
0000
,
0000
0000
0000
0000
,
1000
0001
0100
0001
,
1000
0100
1000
0001
,
0010
0100
1000
0010
,
0100
0001
0100
0010
,
1000
0001
0010
0000
0100
1000
0001
0000
,
0200
0000
0000
0000
0320
0000
0000
1030
,
0001
1000
0000
0200
0000
0000
0300
0000
,
0010
0001
0000
2000
0000
0000
3000
0000
,
0010
0100
0000
0002
0000
0000
0003
0000
,
0010
0100
0000
2000
0000
0000
3000
0000
,
0001
0100
0000
0020
0000
0000
0030
0000
,
2000
3000
2002
3003
,
0001
0010
0100
0000
1000
0010
0100
0000
,
0002
0000
0000
0000
2003
0000
0000
3001
,
0010
0100
1000
0001
,
0100
0010
0100
0001
,
0010
0100
1000
0100
,
0010
0001
1000
0010
,
0100
0001
0100
0000
0010
0000
1000
0000
,
0001
0010
0001
0000
1000
0000
0100
0000
,
0010
0100
1000
0000
0001
0100
0010
0000
,
1000
0000
0000
0000
0000
0000
0002
0000
0000
0000
0003
0000
0000
0000
0000
0000
0000
0000
0000
0000
0000
0000
0000
0000
0020
0000
0000
0000
0000
0000
0030
0000
0000
0200
0000
0000
0000
0000
0000
0000
0000
0000
0300
0000
0000
0000
0000
0000
,
1000
0001
1000
0000
0010
0010
0100
0000
,
0001
0000
0000
1000
0000
0000
0100
0000
0010
0000
0100
0000
1000
0000
0010
0000
,
0100
0100
0001
0000
0100
0010
1000
0000
,
0001
0000
0000
0001
0000
0000
0001
0000
1000
0000
0010
0000
0000
0000
1000
0000
,
0100
0000
0110
0000
0010
0010
0100
0000
,
1000
0000
0000
0001
0000
0000
0100
0000
0010
0000
0100
0000
0001
0000
0010
0000
,
0100
0000
0100
0000
1000
0000
0000
0000
0001
0000
0000
0200
0000
0000
0300
0000
,
0202
0000
0303
0000
2002
0000
3003
1000
,
1000
0001
1000
0000
0100
0100
0010
0000
,
0001
0000
0000
1000
0000
0000
0010
0000
0100
0000
0010
0000
1000
0000
0100
0000
,
0010
0010
0001
0000
0010
0100
1000
0000
,
0001
0000
0000
0001
0000
0000
0001
0000
1000
0000
0100
0000
0000
0000
1000
0000
,
0010
0000
0110
0000
0100
0100
0010
0000
,
1000
0000
0000
0001
0000
0000
0010
0000
0100
0000
0010
0000
0001
0000
0100
0000
,
0010
0000
0010
0000
1000
0000
0000
0000
0001
0000
0000
0020
0000
0000
0030
0000
,
0022
0000
0033
0000
2002
0000
3003
1000
,
0010
0100
0010
1000
,
0001
0010
0100
0010
,
0001
0100
0010
1000
,
0100
0010
0100
1000
,
0001
0100
0010
1000
,
0100
0010
0001
0010
,
0100
1000
0010
0100
,
0002
0000
0000
0000
2003
0000
0000
3010
,
0100
0001
0010
0100
,
1000
0010
0100
0001
,
1000
0010
1000
0100
,
0010
0001
0100
0010
,
1000
0001
1000
0000
0100
0000
0010
0000
,
0001
1000
0001
0000
0100
0000
0010
0000
,
1000
0001
0010
0000
0100
1000
0001
0000
,
0100
0010
0100
0010
2000
0000
0000
3001
,
1000
0000
0000
0010
0000
0000
1000
0000
0001
0000
0000
0000
0100
0000
0000
0000
,
0001
0000
0000
0010
0000
0000
0001
0000
1000
0000
0000
0000
0100
0000
0000
0000
,
0010
0000
0000
0100
0000
0000
0010
0000
0001
0000
0000
0000
1000
0000
0000
0000
,
0010
0000
0000
0100
0000
0000
0010
0000
1000
0000
0000
0000
0001
0000
0000
0000
,
0010
0000
0000
0100
0000
0000
1000
0000
0010
0000
0000
0000
0100
0000
0000
0000
,
0010
0000
0000
1000
0000
0000
0100
0000
0010
0000
0000
0000
0001
0000
0000
0000
,
1000
0000
0000
0010
0000
0000
0100
0000
0001
0000
0000
0000
0010
0000
0000
0000
,
0100
0000
0000
1000
0000
0000
0001
0000
0100
0000
0000
0000
0010
0000
0100
0000
,
0001
0000
0000
1000
0000
0000
0001
0000
0010
0000
0000
0100
0000
0000
0010
0000
,
0001
0000
0000
1000
0000
0000
0001
0000
0100
0000
0000
0000
0010
0000
0000
0000
,
1000
0000
0000
0001
0000
0000
1000
0000
0010
0000
0000
0100
0000
0000
0010
0000
,
1000
0000
0000
0001
0000
0000
1000
0000
0100
0000
0000
0000
0010
0000
0000
0000
,
0100
0000
0000
1000
0000
0000
0010
0000
0100
0000
0000
0001
0000
0000
0100
0000
,
0010
0000
0000
1000
0000
0000
0001
0000
0010
0000
0000
0000
0001
0000
0000
0000
,
0100
0000
0000
0001
0000
0000
0010
0000
0100
0000
0000
1000
0000
0000
0100
0000
,
0010
0000
0000
0001
0000
0000
0100
0000
0020
0000
0000
0030
1000
0000
0001
0000
,
1001
0000
0000
0000
;

//--------------- dance-single - ----------------
#NOTEDATA:;
#STEPSTYPE:dance-single;
#DESCRIPTION:;
#DIFFICULTY:Hard;
#METER:12;
#RADARVALUES:0.578798,0.595914,0.228591,0.323181,0.311357,514,485,29,41,0,0,0,0,0,0.578798,0.595914,0.228591,0.323181,0.311357,514,485,29,41,0,0,0,0,0;
#CHARTNAME:;
#CHARTHASH:1835413062;
#BANNER:;
#CHARTSTYLE:;
#METERF:0.000000;
#LASTSECONDHINT:123.433571;
#CREDIT:ZSL;
#NOTES:
0000
0000
0000
0000
,
0000
0000
0000
0000
,
1000
0100
0010
0100
,
1000
0010
0100
0001
,
1000
0100
0010
0000
0100
1000
0001
0000
,
0100
0001
0010
0000
0100
1000
0010
0000
,
1000
0100
0010
0001
1000
0001
0100
0010
,
2000
0000
0000
0000
3002
0000
0000
0013
,
0110
0100
0000
2000
0001
0000
3000
0000
,
0101
0100
0000
0002
1000
0000
0003
0000
,
1100
0100
0000
0020
0001
0000
0030
0000
,
1001
1000
0000
0020
0100
0000
0030
0000
,
0101
0001
0000
2000
0100
0000
3000
0000
,
0110
0010
0000
0001
0100
0010
0000
0010
,
1010
1000
0001
0000
0010
0100
1000
0000
,
0002
0000
0000
0000
0203
0000
0000
0310
,
1000
0100
0010
0100
1000
0001
0100
0000
,
0001
0100
0010
0100
0001
1000
0100
0000
,
0010
0001
1000
0010
1000
0100
0010
0000
,
0100
1000
0001
0010
0001
0100
0010
0000
,
1000
0001
0010
0100
1000
0001
0100
0001
,
0100
0010
1000
0001
0010
0100
1000
0001
,
0100
0000
0010
0100
0010
0000
1000
0000
0001
0000
1000
0100
1000
0000
0100
0000
,
0010
0000
0000
0000
0000
0000
0002
0000
0000
0000
0003
0000
0000
0000
0000
0000
1000
0000
0001
0000
0000
0000
0000
0000
0200
0000
0000
0000
0000
0000
0300
0000
0000
0020
0000
0000
0000
0000
0000
0000
0000
0000
0130
0000
0000
0000
0000
0000
,
0101
0000
0001
0000
1000
0000
0000
0000
0100
0000
0100
1000
0100
0000
0000
0000
,
0110
0000
0000
0011
0000
0000
1001
0000
1000
0000
0010
0000
0100
0000
0100
0000
,
0001
1000
0001
1000
0002
0000
0000
0000
0013
0000
0100
0000
1000
0000
0000
0000
,
0001
0000
1000
0001
0000
0010
0001
0000
0200
0000
0010
0000
0000
0000
0310
0000
,
2001
0000
0000
0000
3010
0000
0000
0000
0100
0000
0100
0001
0100
0000
0000
0000
,
0110
0000
0000
1010
0000
0000
1001
0000
0001
0000
0010
0000
0100
0000
0100
0000
,
1000
0001
1000
0001
2000
0000
0000
0000
3010
0100
0000
0002
0000
0000
0003
0000
,
0202
0000
0303
0000
0022
0000
0033
0010
,
0011
0000
0001
0000
0100
0000
0000
0000
0010
0000
0010
1000
0010
0000
0000
0000
,
0110
0000
0000
0101
0000
0000
1001
0000
1000
0000
0100
0000
0010
0000
0010
0000
,
0001
1000
0001
1000
0002
0000
0000
0000
0103
0000
0010
0000
1000
0000
0000
0000
,
0001
0000
1000
0001
0000
0100
0001
0000
0020
0000
0100
0000
0000
0000
0130
0000
,
2001
0000
0000
0000
3100
0000
0000
0000
0010
0000
0010
0001
0010
0000
0000
0000
,
0110
0000
0000
1100
0000
0000
1001
0000
0001
0000
0100
0000
0010
0000
0010
0000
,
1000
0001
1000
0001
2000
0000
0000
0000
3100
0010
0000
0002
0000
0000
0003
0000
,
0022
0000
0033
0000
2002
0000
3003
1000
,
1010
0010
0100
0000
0001
1000
0100
0000
,
0010
0100
1000
0000
0001
1000
0010
0000
,
1000
0100
0010
0000
0001
0100
0010
0000
,
1000
0100
0010
0000
0100
1000
0001
0000
,
2000
0010
3001
0000
2000
0100
3001
0000
,
0200
0010
0301
0000
0020
0100
0031
0000
,
0002
0100
1003
0000
0200
0010
1300
0000
,
0002
0000
0000
0000
2003
0000
0000
3010
,
0100
0010
1000
0010
0100
0001
1000
0000
,
0100
0010
0001
0010
0100
1000
0001
0000
,
0010
0001
0100
0001
0010
0100
1000
0000
,
0010
1000
0100
1000
0010
0100
0001
0000
,
1000
0001
0010
0001
1000
0010
0100
0010
,
1000
0100
0010
0100
1000
0010
0100
0001
,
0010
0000
0100
0010
0100
0000
1000
0000
0001
0000
0100
0010
0100
0000
0001
0000
,
0010
0000
0100
1000
0100
0000
1000
0000
0020
0000
0000
0000
0000
0000
0130
0000
,
0001
0000
0100
0010
0000
0000
0100
0000
0010
0000
1000
0010
0000
0000
0100
0000
,
0001
0000
1000
0001
0000
0000
1000
0000
0100
0000
0010
0100
0000
0000
1000
0000
,
0010
0000
1000
0001
0000
0000
0010
0000
0100
0000
0010
0001
0000
0000
1000
0000
,
0010
0000
0100
0001
0000
0000
0100
0000
0010
0000
1000
0001
0000
0000
0010
0000
,
0100
0000
1000
0100
0000
0000
1000
0000
0010
0000
0100
0010
0000
0000
1000
0000
,
0100
0000
0010
0001
0000
0000
0100
0000
0001
0000
0010
0100
0000
0000
1000
0000
,
0001
0000
0100
0010
0000
0000
1000
0000
0100
0000
1000
0010
0000
0000
0100
0000
,
0001
0000
0010
0100
0000
0000
0010
0000
0001
0000
1000
0010
0000
0000
0100
0000
,
0001
0000
1000
0100
0000
1000
0100
0000
0010
0000
0100
0010
0000
0100
0010
0000
,
0001
0000
1000
0001
0000
1000
0001
0000
0100
0000
0010
0100
0000
0010
0100
0000
,
0001
0000
0010
0100
0000
0010
0100
0000
1000
0000
0010
0100
0000
0010
0100
0000
,
0001
0000
1000
0100
0000
1000
0100
0000
0010
0000
0001
1000
0000
0001
1000
0000
,
0010
0000
0100
0001
0000
0100
0010
0000
1000
0000
0001
0010
0000
0001
1000
0000
,
0010
0000
0100
0010
0000
0100
0001
0000
0010
0000
0100
1000
0000
0100
0010
0000
,
0001
0000
1000
0010
0000
0100
0001
0000
1000
0000
0100
0010
0000
0001
1000
0000
,
0010
0000
1000
0100
0000
0010
0001
0000
2000
0000
0000
3010
0100
0000
0001
0000
,
1001
0000
0000
0000
;

//--------------- dance-single - ----------------
#NOTEDATA:;
#STEPSTYPE:dance-single;
#DESCRIPTION:;
#DIFFICULTY:Challenge;
#METER:15;
#RADARVALUES:0.752212,0.822929,0.260121,0.370475,0.792187,668,635,33,47,0,0,0,0,0,0.752212,0.822929,0.260121,0.370475,0.792187,668,635,33,47,0,0,0,0,0;
#CHARTNAME:;
#CHARTHASH:781075208;
#BANNER:;
#CHARTSTYLE:;
#METERF:0.000000;
#LASTSECONDHINT:123.433571;
#CREDIT:ZSL;
#NOTES:
0000
0000
0000
0000
,
0000
0000
0000
0000
,
1000
0100
1000
0000
0001
0010
0001
0000
,
0100
0001
0100
0000
0010
1000
0010
0000
,
1000
0100
0010
0000
0001
0100
0010
0000
,
1000
0010
0100
0000
0001
0010
0100
0000
,
1000
0100
0010
0001
0100
0010
1000
0001
,
0200
0000
0000
0000
0320
0000
0000
0130
,
1010
1000
0000
0001
0010
0100
0010
0000
,
0110
0100
0000
1000
0001
0100
0010
0000
,
1001
0001
0000
1000
0100
0010
0001
0000
,
0011
0010
0000
0001
1000
0010
1000
0000
,
0101
0001
0000
1000
0100
0010
0100
0000
,
0110
0010
0000
0001
0101
0100
0000
0100
,
1001
1000
0100
0000
1000
0001
0010
0000
,
0002
0000
0000
0000
0203
0000
0000
0310
,
1000
0100
1000
0100
1000
0000
0000
0000
0001
0100
0001
0100
0001
0000
0000
0000
,
1000
0010
1000
0010
1000
0000
0000
0000
0001
0010
0001
0010
0001
0000
0000
0000
,
1000
0100
0010
0001
0010
0000
0000
0000
0001
0100
0010
1000
0010
0000
0000
0000
,
1000
0100
0010
0001
0100
0000
0000
0000
0001
0100
0010
1000
0100
0000
0000
0000
,
1000
0100
0010
0001
1000
0010
0001
0010
,
1000
0001
0100
0010
1000
0100
0001
0100
,
1000
0001
0010
0001
0100
0010
0100
0001
0010
0100
1000
0100
0010
0001
0100
0010
,
1000
0000
0000
0000
0000
0000
0002
0000
0000
0000
0013
0000
0000
0000
0000
0000
0100
0000
1000
0000
0000
0000
0000
0000
0002
0000
0000
0000
0000
0000
0003
0000
0000
0200
0000
0000
0000
0000
0000
0000
0000
0000
0310
0000
0000
0000
0000
0000
,
0110
0000
0100
0001
1000
0000
0000
0000
0100
0010
0100
0010
0001
0000
1000
0001
,
0100
0000
0000
0101
0000
0000
1001
0000
1000
0100
0001
0100
0010
0001
0100
0000
,
0001
0100
1000
0100
0002
0000
0000
0000
0013
0100
1000
0000
0020
0000
0000
0130
,
0001
0000
0100
0010
0000
1000
0001
0010
0200
0000
1000
0000
0000
0000
0310
0000
,
2001
0000
0000
0000
3010
0000
0000
0000
0100
0010
0100
0010
1000
0000
0001
1000
,
0100
0000
0000
1100
0000
0000
1001
0000
0001
0100
1000
0100
0010
1000
0100
0000
,
1000
0100
0001
0100
2000
0000
0000
0000
3010
0100
0001
0020
0000
0000
0030
0000
,
2200
0000
3300
0000
0202
0000
0303
0001
,
0011
0000
0010
0001
1000
0000
0000
0000
0010
0100
0010
0100
0001
0000
1000
0001
,
0010
0000
0000
0011
0000
0000
1001
0000
1000
0010
0001
0010
0100
0001
0010
0000
,
0001
0010
1000
0010
0002
0000
0000
0000
0103
0010
1000
0000
0200
0000
0000
0310
,
0001
0000
0010
0100
0000
1000
0001
0100
0020
0000
1000
0000
0000
0000
0130
0000
,
2001
0000
0000
0000
3100
0000
0000
0000
0010
0100
0010
0100
1000
0000
0001
1000
,
0010
0000
0000
1010
0000
0000
1001
0000
0001
0010
1000
0010
0100
1000
0010
0000
,
1000
0010
0001
0010
2000
0000
0000
0000
3100
0010
0001
0200
0000
0000
0300
0000
,
2020
0000
3030
0000
0022
0000
0033
0001
,
0102
0100
1003
0000
0002
1000
0013
0000
,
0200
0010
1300
0000
0020
1000
0130
0000
,
2010
0010
3001
0000
2000
0100
3001
0000
,
0200
0010
0301
0000
0020
1000
0130
0000
,
0210
1000
1300
0000
0021
0100
0130
0000
,
1002
0010
0103
0000
2001
0010
3100
0000
,
0102
0010
1003
0000
2100
0010
3001
0000
,
0200
0000
0000
0000
0320
0000
0000
1030
,
0010
0100
0010
0100
0010
0000
0000
0000
1000
0001
1000
0001
1000
0000
0000
0000
,
0100
0010
0001
0010
0100
0000
0000
0000
1000
0010
0100
0010
1000
0000
0000
0000
,
0001
0010
0100
1000
0010
0000
0000
0000
1000
0010
0100
0001
0010
0000
0000
0000
,
0100
0010
1000
0010
0001
0000
0000
0000
0100
0010
0001
0010
1000
0000
0000
0010
,
0100
0001
0100
0010
1000
0001
0010
0100
,
1000
0010
0100
0010
1000
0100
0010
0001
,
1000
0010
0100
0001
0010
0100
1000
0001
1000
0010
0100
0001
0010
0100
0010
0001
,
0100
0010
1000
0001
0100
0001
0010
0100
2000
0000
0000
0000
0000
0000
3001
0000
,
0100
0000
0001
0100
0000
0001
0100
0010
1000
0000
0010
0100
0000
0010
0100
0001
,
1000
0000
0100
0010
0000
0100
0010
0001
0100
0000
0001
0010
0000
0001
1000
0010
,
0100
0000
0001
0010
0000
0001
0010
0100
1000
0000
0100
0010
0000
0100
0010
0001
,
1000
0000
0010
0100
0000
0010
0100
0001
0010
0000
0100
1000
0000
0001
0010
0100
,
0001
0000
0100
0010
0000
0001
1000
0010
0100
0000
0001
1000
0000
0001
0100
0010
,
0001
0000
0010
0100
0000
0001
1000
0100
0010
0000
0001
1000
0000
0100
1000
0100
,
0001
0000
0100
1000
0000
0010
0100
0001
1000
0000
0100
1000
0000
0010
1000
0010
,
0001
0000
0010
1000
0000
0001
0010
0001
1000
0000
0010
0100
0000
0001
0010
0000
,
0100
0000
1000
0001
1000
0010
0100
0001
1000
0000
0001
1000
0001
0010
0100
1000
,
0001
0000
0100
0001
1000
0010
0100
0001
0010
0000
0100
1000
0001
0010
0100
1000
,
0010
0000
1000
0100
0010
0100
1000
0001
0100
0000
0001
0100
0010
0100
0001
1000
,
0100
0000
0010
0001
0100
0010
0100
0001
1000
0000
0010
1000
0001
0100
0010
0100
,
1000
0000
0100
0010
1000
0001
0010
0100
1000
0000
0100
0010
0001
1000
0100
0010
,
1000
0000
0010
0100
1000
0001
0100
0010
1000
0000
0010
0100
0001
1000
0010
0100
,
1000
0000
0100
0001
1000
0100
0010
0001
0100
0000
0001
0010
0100
1000
0001
0100
,
1000
0000
0100
0010
1000
0100
0010
0100
0002
0000
0000
0103
1000
0000
0001
0000
,
0110
0000
0000
0000
;
