#TITLE:Reaching for the Floor;
#SUBTITLE:;
#ARTIST:Breathe Carolina;
#TITLETRANSLIT:;
#SUBTITLETRANSLIT:;
#ARTISTTRANSLIT:;
#GENRE:;
#CREDIT:;
#MUSIC:Reaching for the Floor.ogg;
#BANNER:;
#BACKGROUND:;
#CDTITLE:;
#SAMPLESTART:51.050;
#SAMPLELENGTH:20.000;
#SELECTABLE:YES;
#OFFSET:-0.020;
#BPMS:0.000=124.000
,84.000=186.000
,85.000=124.000
,92.000=186.000
,93.000=124.000
;
#STOPS:84.000=0.081
,84.500=0.080
,92.000=0.081
,92.500=0.081
;
#DISPLAYBPM:124.000;
#ORIGIN:;
#PREVIEWVID:;
#JACKET:;
#CDIMAGE:;
#DISCIMAGE:;
#BGCHANGES:;
#FGCHANGES:;

//--------------- dance-single - ----------------
#NOTES:
     dance-single:
     :
     Beginner:
     2:
     0.090174,0.128992,0,0.092201,0,89,89,0,13,0,0,0,0,0,0.090174,0.128992,0,0.092201,0,89,89,0,13,0,0,0,0,0:
0000
0000
0000
0000
,
0000
0000
0000
0000
,
0000
0000
0000
0000
,
0000
0000
0000
0000
,
0000
0000
0000
0000
,
0001
0000
0000
0000
,
0100
0000
0000
0000
,
0010
0000
0000
0000
,
1000
0000
0000
0000
,
0100
0000
0000
0000
,
0010
0000
0000
0000
,
0001
0000
0000
0000
,
1000
0000
0000
0000
,
0001
0000
0010
0000
,
0001
0000
0000
0000
,
1000
0000
0010
0000
,
1000
0000
0000
0000
,
0010
0000
0100
0000
,
0010
0000
0000
0000
,
1000
0000
0001
0000
,
1000
0000
0000
0000
,
0002
0003
0000
0000
,
0100
0000
0000
0000
,
0002
0003
0000
0000
,
0010
0000
0000
0000
,
0100
0000
0000
0000
,
1000
0000
0000
0000
,
0001
0000
0100
0000
,
0100
0000
0010
0000
,
0010
0000
1000
0000
,
0001
0000
0000
0000
,
1000
0000
0100
0000
,
0100
0000
0010
0000
,
0010
0000
0001
0000
,
1000
0000
0000
0000
,
0010
0010
0000
0000
,
1000
1000
0000
0000
,
0001
0001
0000
0000
,
1000
0000
0000
0000
,
0100
0100
0000
0000
,
0010
0010
0000
0000
,
0001
0001
0000
0000
,
1000
0000
0000
0000
,
0010
0000
0000
0000
,
0100
0000
0000
0000
,
0001
0000
0000
0000
,
2000
0000
0000
3000
;

//--------------- dance-single - ----------------
#NOTES:
     dance-single:
     :
     Easy:
     5:
     0.198586,0.206387,0.099293,0.063831,0,196,182,14,9,0,0,0,0,0,0.198586,0.206387,0.099293,0.063831,0,196,182,14,9,0,0,0,0,0:
0000
0000
0000
0000
,
0000
0000
0000
0000
,
0000
0000
0000
0000
,
0000
0000
0000
0000
,
0000
0000
0000
0000
,
0001
1000
0010
0000
,
0100
0001
1000
0000
,
0100
0000
0010
0000
,
1001
0000
0001
0100
,
0001
1000
0001
0000
,
1000
0100
0010
0000
,
0001
0100
0010
0000
,
1000
0000
0001
0000
,
0010
0100
1000
0001
,
0100
0000
0000
0000
,
0001
1000
0010
1000
,
0100
0000
0000
0000
,
0010
0001
0100
0010
,
1000
0000
0000
0000
,
0100
1000
0010
0100
,
0001
0000
0000
0000
,
1000
1000
0001
0100
,
0010
1000
0100
0000
,
0010
0010
0001
1000
,
0010
0100
0001
0000
,
1000
0010
1000
0001
,
0010
0000
0100
1000
,
0002
0100
1003
0000
,
0200
1000
0310
0000
,
0110
0000
1000
0000
,
0001
1000
0100
0000
,
2000
0100
3001
0000
,
0200
0001
0310
0000
,
0110
0000
0001
0000
,
1000
0001
0100
0000
,
0001
0011
0000
0000
,
1000
1010
0000
0000
,
0001
0101
0000
0000
,
0010
1000
0001
0000
,
0010
1100
0000
0000
,
0100
0011
0000
0000
,
0001
0101
0000
0000
,
0010
1000
0001
0000
,
1000
0100
0000
0000
,
0010
0001
0000
0000
,
1000
0010
0000
0000
,
0200
0000
0000
0300
;

//--------------- dance-single - ----------------
#NOTES:
     dance-single:
     :
     Medium:
     8:
     0.396158,0.386976,0.234048,0.063831,0,391,358,33,9,0,0,0,0,0,0.396158,0.386976,0.234048,0.063831,0,391,358,33,9,0,0,0,0,0:
0000
0000
0000
0000
,
0000
0000
0000
0000
,
0000
0000
0000
0000
,
0000
0000
0000
0000
,
0000
0000
0000
0000
,
1000
0001
0010
0001
,
0100
0000
0010
0000
1000
0000
0001
0010
,
0100
0000
1000
0000
0001
0000
0100
0010
,
0000
0110
0000
0100
0001
1000
0001
0000
,
1000
0000
0100
0010
0001
0000
1000
0000
,
0010
0000
0100
0001
1000
0000
0100
0010
,
0001
1000
0010
0100
,
0001
1000
0000
1000
0000
0000
1100
0000
,
0010
0001
1000
0010
0000
0110
0000
0101
,
0000
0001
1000
0100
0000
0110
0000
1100
,
0000
1000
0001
0100
0010
0000
0100
0010
,
0000
1000
0001
0010
0100
0000
0010
0100
,
0000
1000
0001
0100
0000
0010
1000
0100
,
0000
0010
0001
1000
0000
1100
0000
1010
,
0000
0001
0100
0010
1000
0000
0100
0010
,
0000
0001
1000
0001
0010
0000
0100
1000
,
0010
0010
0010
0000
0100
0000
0001
0000
,
0011
0000
0010
0100
1000
0000
0001
0000
,
0100
0100
0100
0000
0010
0000
1000
0000
,
1100
0000
0010
0001
1000
0000
0010
0000
,
0100
0010
0100
0000
0001
1000
0001
0000
,
1001
0000
0000
1000
0010
0000
0100
0001
,
2000
0000
0100
3001
2000
0000
0010
3001
,
0100
0000
0010
0000
1000
0000
0100
0010
,
0001
0000
1000
0010
1000
0000
0001
0100
,
0000
0110
0000
0001
0100
0000
0010
1000
,
0002
0000
0100
1003
0002
0000
0010
1003
,
0100
0000
0010
0000
0001
0000
0100
0010
,
1000
0000
0001
0010
0001
0000
1000
0100
,
0000
0110
0000
1000
0100
0000
0010
0000
,
0001
1000
0010
0100
0000
0101
0000
0000
,
0010
1000
0100
0010
0000
0100
1000
0001
,
0100
0010
0100
0001
0000
0110
0000
0010
,
0000
1000
0000
0001
0010
0000
0100
0000
,
1000
0001
0010
0100
0000
1100
0000
0000
,
0010
0001
0100
0010
0000
0100
0001
1000
,
0100
0010
0100
1000
0000
0110
0000
0010
,
0000
0001
0000
1000
0010
0000
0100
0000
,
0001
0000
1000
0001
0000
0000
0010
0000
,
0100
0000
1000
0001
0000
0000
0100
0000
,
0010
0000
1000
0100
0000
0000
0010
0000
,
0001
0000
1000
0200
0000
0000
0300
0000
;

//--------------- dance-single - ----------------
#NOTES:
     dance-single:
     :
     Hard:
     12:
     0.521794,0.49017,0.283694,0.078016,0.085108,515,475,40,11,0,0,0,0,0,0.521794,0.49017,0.283694,0.078016,0.085108,515,475,40,11,0,0,0,0,0:
0000
0000
0000
0000
,
0000
0000
0000
0000
,
0000
0000
0000
0000
,
0000
0000
0000
0000
,
0000
0000
0000
0000
,
1000
0000
0001
0100
0010
0000
1000
0001
,
0100
0000
0001
0010
0100
0000
1000
0001
,
1000
0000
0010
0000
0100
0000
0001
1000
,
0000
1001
0000
0001
0100
0010
1000
0100
,
0110
0000
0010
0001
1000
0010
0000
0100
,
0010
0000
1000
0000
0001
0000
0010
0000
0000
0000
0100
0000
1000
0001
0100
0001
,
1000
0010
0100
0001
0000
0010
0100
0010
,
0001
1001
0000
0110
0000
0100
0010
0100
,
1001
0001
0100
0010
1000
0100
0010
0100
,
0000
0010
0001
0100
0010
1000
0100
0010
,
0000
0001
0010
0100
1000
0010
0100
1000
,
0000
0100
0001
1000
0100
0001
0100
1000
,
0000
0010
0100
0001
1000
0100
0010
0001
,
0000
0000
1000
0000
0010
0000
0100
0000
0001
0000
1000
0100
1000
0000
0010
0000
,
0000
1000
0100
0010
1000
0010
0001
0100
,
0000
0000
0010
0000
0100
0000
1000
0000
0001
0000
0010
0100
0010
0000
1000
0000
,
0001
0001
0011
1000
0100
0010
0001
0100
,
1000
0000
0100
0000
0010
0000
1000
0000
0100
0000
0010
0001
1000
0000
0000
0000
,
1000
1000
1010
0001
0100
0010
1000
0100
,
0001
0000
0100
0000
0010
0000
0001
0000
0100
0000
0010
1000
0001
0000
1000
0000
,
0100
0010
0001
1000
0100
0010
0001
1000
,
1010
0000
0000
0010
1000
0001
0010
0100
,
0120
0000
0001
0130
0210
0000
1000
0310
,
0110
0000
0000
0000
0010
0000
0001
0000
0100
0000
0000
0000
0010
1000
0001
0010
,
0100
0000
1000
0010
0100
0000
0001
1001
,
0000
1100
0000
1000
0010
0100
0001
0100
,
0120
0000
1000
0130
0210
0000
0001
0310
,
0110
0000
0000
0000
0010
0000
1000
0000
0100
0000
0000
0000
0010
0001
1000
0010
,
0100
0000
0001
0010
0100
0000
1000
1001
,
0000
0000
0101
0000
0000
0000
0001
0000
0010
0000
0100
0000
1000
0000
0100
0010
,
0001
0100
1000
0100
0000
0110
0100
0001
,
1000
0000
0100
0000
0001
0000
0100
0000
0000
0000
0010
0000
0001
1000
0010
0100
,
0001
0010
1000
0010
0000
0110
1000
0001
,
0000
0000
0101
0000
0000
0000
0100
0000
0010
0000
1000
0000
0100
0000
0010
0001
,
1000
0100
0001
0100
0000
0110
0100
1000
,
0001
0000
0100
0000
1000
0000
0100
0000
0000
0000
0010
0000
1000
0001
0010
0100
,
1000
0010
0001
0010
0000
0110
0001
1000
,
0000
0000
1100
0000
0000
0000
0100
0000
0010
0000
0001
0000
0100
0000
0010
1000
,
0001
0000
1000
0001
1000
0000
0001
0100
,
0010
0000
1000
0010
0100
0000
0001
1000
,
0100
0000
0010
0001
0100
0000
0010
1000
,
0001
0000
0010
0001
0200
0000
0300
0000
;
