#TITLE:ROCK IN THE SPARK;
#SUBTITLE:;
#ARTIST:sumijun feat. 雨宿どみ乃;
#TITLETRANSLIT:;
#SUBTITLETRANSLIT:;
#ARTISTTRANSLIT:sumijun feat. Amayadori Domino;
#GENRE:;
#CREDIT:;
#MUSIC:ROCK IN THE SPARK.ogg;
#BANNER:;
#BACKGROUND:;
#CDTITLE:;
#SAMPLESTART:29.529;
#SAMPLELENGTH:20.000;
#SELECTABLE:YES;
#OFFSET:0.000;
#BPMS:0.000=130.000;
#STOPS:;
#ORIGIN:;
#TAGS:;
#PREVIEWVID:;
#JACKET:;
#CDIMAGE:;
#DISCIMAGE:;
#BGCHANGES:;
#FGCHANGES:;

//--------------- dance-single - ----------------
#NOTES:
     dance-single:
     :
     Beginner:
     4:
     0.16777,0.186834,0,0,0,132,132,0,0,0,0,0,0,0,0.16777,0.186834,0,0,0,132,132,0,0,0,0,0,0,0:
0000
0000
0000
0000
,
0000
0000
0000
0000
,
0000
0000
0000
0000
,
0000
0000
0000
0000
,
1000
0000
0001
0000
,
0010
0000
0000
0000
,
0100
0000
1000
0000
,
0001
0001
0001
0000
,
1000
0000
0010
0000
,
0100
0000
0000
0000
,
0001
0000
0100
0000
,
0010
0000
0000
0000
,
1000
0000
0001
0000
,
0010
0000
0000
0000
,
0100
0000
1000
0000
,
0001
0000
0000
0000
,
0100
0100
0100
0000
,
0001
0000
1000
0000
,
0100
0100
0100
0000
,
0010
0000
0001
0000
,
1000
1000
1000
0000
,
0010
0000
0100
0000
,
0001
0001
0001
0000
,
0010
0000
0100
0000
,
1000
0000
0001
0000
,
0100
0000
0000
0010
,
0010
0000
1000
0000
,
0001
0000
0000
0000
,
0010
0000
0100
0000
,
1000
0000
0001
0000
,
0100
0000
0010
0000
,
1000
0000
0001
0000
,
1000
1000
1000
0000
,
0001
0001
0001
0000
,
0010
0010
0010
0000
,
0100
0100
0100
0000
,
0010
0010
0010
0000
,
0001
0001
0001
0000
,
1000
1000
1000
0000
,
0010
0010
0010
0000
,
0100
0001
0100
0000
,
0010
1000
0010
0000
,
1000
0001
1000
0000
,
0001
0010
0001
0000
,
0100
0001
1000
0000
,
0100
0010
0001
0000
,
0100
0010
1000
0000
,
0100
0010
0001
0000
,
1000
0001
1000
0000
,
0010
0000
0100
0000
,
0001
0100
0001
0000
,
1000
0000
0100
0000
,
0010
0001
0010
0000
,
0100
0000
1000
0000
,
0010
0100
0010
0000
,
1000
0000
0001
0000
,
0010
0000
0100
0000
,
0010
0000
0100
0000
,
1000
0000
0001
0000
,
0000
1000
1000
0000
,
0001
0000
0000
0000
;

//--------------- dance-single - ----------------
#NOTES:
     dance-single:
     :
     Easy:
     6:
     0.252925,0.266906,0.044484,0.008897,0,199,194,5,1,0,0,0,0,0,0.252925,0.266906,0.044484,0.008897,0,199,194,5,1,0,0,0,0,0:
0000
0000
0000
0000
,
0000
0000
0000
0000
,
0000
0000
0000
0000
,
0000
0000
0000
0000
,
1000
0100
0010
0000
,
0100
1000
0001
0000
,
0100
0010
1000
0000
,
0001
0001
1000
0000
,
0100
1000
0001
0000
,
0100
0001
0010
0000
,
0100
1000
0001
0000
,
0100
0010
1000
0000
,
0001
0010
0100
0000
,
0010
0001
0100
0000
,
0001
1000
0100
0000
,
0010
0010
0001
0000
,
1000
0100
1000
0010
,
0100
0001
0010
0000
,
0001
1000
0010
1000
,
0100
0010
1000
0000
,
0010
0001
0100
0010
,
1000
0100
0010
0000
,
0001
1000
0010
0100
,
0001
0100
1000
0000
,
0100
0000
0001
1000
,
0001
0000
0010
0100
,
1000
0000
0001
0100
,
0001
0000
0100
0000
,
0010
1000
0010
0000
,
1000
0100
1000
0000
,
0100
0010
0001
1000
,
0020
0000
0130
0000
,
0001
0010
0100
1000
,
0100
0010
0001
1000
,
0010
0100
0001
0100
,
0010
1000
0001
1001
,
1000
0010
0100
0001
,
0100
0010
1000
0001
,
0010
0100
1000
0100
,
0010
0001
1000
1100
,
0100
0010
0001
0100
,
0010
0100
0001
1000
,
0100
0010
0001
0100
,
0010
1000
0001
0101
,
0100
0010
1000
0100
,
0010
0100
1000
0001
,
0100
0010
1000
0100
,
0010
0001
1000
1010
,
0010
0100
0001
1000
,
0100
0010
1000
0000
,
0010
0100
1000
0001
,
0100
0010
0001
0000
,
0010
1000
0100
0010
,
0001
0010
1000
0000
,
0010
0001
0100
0010
,
1000
0010
0001
0010
,
1000
0001
0010
0100
,
0000
0010
0001
0100
,
0000
0010
1000
0100
,
0000
0010
0001
1002
,
1003
0000
0000
0000
;

//--------------- dance-single - ----------------
#NOTES:
     dance-single:
     :
     Medium:
     10:
     0.441031,0.42705,0.106763,0.560503,0.093417,347,335,12,63,0,0,0,0,0,0.441031,0.42705,0.106763,0.560503,0.093417,347,335,12,63,0,0,0,0,0:
0000
0000
0000
0000
,
0000
0000
0000
0000
,
0000
0000
0000
0000
,
0000
0000
0000
0000
,
1000
0000
0001
0000
1000
0001
1000
0000
,
0010
0000
0000
0000
0100
0000
0000
0020
0000
0000
1030
0000
0001
0000
0000
0000
,
0010
0000
0100
0000
0010
0100
0010
0000
,
0110
0000
0110
0000
1001
1000
0002
0000
,
0003
1000
0010
0100
0001
2000
0000
3010
,
0000
0000
0100
0000
0001
0000
1000
0000
0100
0000
0000
0020
0000
0000
0030
0000
,
0000
0001
1000
0010
1000
2000
0000
3001
,
0020
0030
0200
0300
2200
3300
2002
3003
,
0000
0001
0010
0100
1000
0002
0000
0013
,
0000
0000
0100
0000
1000
0000
0001
0000
0100
0000
0000
0020
0000
0000
0030
0000
,
0000
1000
0001
0010
0001
0002
0000
1003
,
0020
0030
0200
0300
0202
0303
2002
3003
,
1000
0200
0010
0000
1300
0100
0010
0000
,
0100
0000
1000
0000
0001
0000
0000
0200
0000
0000
0310
0000
1000
0000
0000
0000
,
0001
2000
0100
0000
3001
1000
0100
0000
,
0010
0000
0001
0000
1000
0000
0000
0020
0000
0000
0130
0000
0001
0000
0000
0000
,
0100
0020
1000
0000
0130
0010
1000
0000
,
0001
0000
1000
0000
0100
0000
0000
0020
0000
0000
0031
0000
1000
0000
0000
0000
,
0010
0200
0001
0000
0310
0100
0001
0000
,
1000
0000
0100
0000
0010
0000
0000
0002
0000
0000
0103
0000
0010
0000
1000
0000
,
0001
0000
0000
0001
0000
0000
1000
0000
0000
1000
0000
0000
0010
0000
0000
0000
,
0100
0000
0000
0100
0000
0000
0001
0000
0000
0001
0000
0000
1000
0000
0000
0000
,
0100
0000
0000
0100
0000
0000
0010
0000
0000
0010
0000
0000
0001
0000
0000
0000
,
0100
0000
0000
0100
0000
0000
0010
0000
0000
0010
0000
0000
1000
0000
0000
0000
,
0001
0000
0000
0100
0001
0000
0100
0000
0010
0000
0000
0000
1000
0000
0000
0000
,
0100
0000
0000
1000
0100
0000
0010
0000
0001
0000
0000
0000
1000
0000
0000
0000
,
0010
0100
0010
0100
0001
1000
0001
1000
,
0200
0000
0000
0000
0300
0010
0001
1000
,
0001
0001
1000
1000
0010
0010
1000
0000
,
0100
0100
0010
0010
0001
0001
1000
0000
,
0010
0010
0100
0100
0001
0001
1000
0000
,
0100
0100
0010
0010
0100
0100
1100
0000
,
1000
1000
0001
0001
0010
0010
0001
0000
,
0100
0100
0010
0010
1000
1000
0001
0000
,
0010
0010
0100
0100
1000
1000
0001
0000
,
0100
0100
0010
0010
0100
0100
0102
0000
,
1000
0203
0010
0302
1000
0103
0002
0000
,
0010
2003
0100
3002
0010
1003
0020
0000
,
0100
2030
0001
3020
0100
1030
0002
0000
,
0100
2003
0100
3002
0010
1003
2001
0000
,
0001
3200
0010
2300
0001
3100
2000
0000
,
0010
3002
0100
2003
0010
3001
0020
0000
,
0100
0032
1000
0023
0100
0031
2000
0000
,
0100
3002
0100
2003
0010
3001
2001
0000
,
3100
0020
0001
0000
0130
0010
0001
0000
,
1000
0000
0001
0000
0100
0000
0000
0020
0000
0000
1030
0000
0001
0000
0000
0000
,
0010
0200
1000
0000
0310
0100
1000
0000
,
0001
0000
0100
0000
0010
0000
0000
2000
0000
0000
3100
0000
0010
0000
0001
0000
,
0100
0002
0010
0000
0103
0001
0010
0000
,
0001
0000
1000
0000
0010
0000
0000
0200
0000
0000
0301
0000
1000
0000
0000
0000
,
0010
2000
0100
0000
3010
1000
0100
0000
,
1000
0000
0001
0000
0100
0000
0000
0020
0000
0000
1030
0000
0100
0000
0000
0000
,
0010
0001
1000
0010
,
1000
0000
0100
1000
0100
0000
1000
0000
,
0010
1000
0001
0010
,
0000
0001
0100
0001
0100
0000
0120
0000
,
1030
0000
0000
0000
;

//--------------- dance-single - ----------------
#NOTES:
     dance-single:
     :
     Hard:
     14:
     0.640575,0.693956,0.587194,0.346978,0.271355,504,438,66,39,0,0,0,0,0,0.640575,0.693956,0.587194,0.346978,0.271355,504,438,66,39,0,0,0,0,0:
0000
0000
0000
0000
,
0000
0000
0000
0000
,
0000
0000
0000
0000
,
0000
0000
0000
0000
,
1000
0000
0001
0000
1000
0000
0000
0010
1000
0000
0001
0000
1000
0000
0000
0000
,
0001
0000
1000
0000
0100
0000
1000
0020
0000
0000
0130
0000
0010
0000
1000
0000
,
0001
0000
1000
0000
0001
0000
0000
0010
0001
0000
1000
0000
0001
0000
0000
0000
,
1001
0001
1001
1000
0110
0110
0002
0000
,
1003
0010
0100
0001
0010
0200
0000
0310
,
0001
0000
1000
0000
0001
0000
0100
0000
0010
0000
0100
2000
0000
0000
3100
0000
,
0001
1000
0100
0010
0100
0200
0000
0310
,
0022
0033
0202
0303
2020
3030
2200
3300
,
0001
0010
0100
1000
0010
0200
0000
0310
,
1000
0000
0001
0000
1000
0000
0100
0000
0010
0000
0100
0002
0000
0000
0103
0000
,
1000
0001
0100
0010
0100
0200
0000
0310
,
2020
3030
2200
3300
0022
0033
0202
0303
,
0001
0000
0100
0000
0010
0000
0000
0100
0001
0000
0100
0000
0010
0000
0000
0000
,
1000
0000
0010
0000
0100
0000
0010
0002
0000
0000
0013
0000
1000
0000
0001
0000
,
0010
0000
0100
0000
1000
0000
0000
0100
0010
0000
0100
0000
1000
0000
0000
0000
,
0100
0000
1000
0000
0001
0000
0100
2000
0000
0000
3100
0000
0001
0000
1000
0000
,
0010
0000
1000
0000
0100
0000
0000
1000
0010
0000
1000
0000
0100
0000
0000
0000
,
0010
0000
0001
0000
0100
0000
0010
0002
0000
0000
0013
0000
1000
0000
0100
0000
,
0010
0000
0001
0000
0100
0000
0000
0001
0010
0000
0001
0000
0100
0000
0000
0000
,
0010
0000
1000
0000
0001
0000
0010
2000
0000
0000
3010
0000
0100
1000
0100
1000
,
0002
0000
0000
1000
0000
0000
0010
0000
0000
0100
0000
0000
1003
0000
0001
0000
,
2000
0000
0000
0001
0000
0000
0010
0000
0000
0100
0000
0000
3001
0000
1000
0000
,
0200
0000
0000
0010
0000
0000
0001
0000
0000
0010
0000
0000
1300
0000
0001
0000
,
0200
0000
0000
0010
0000
0000
1000
0000
0000
0010
0000
0000
0301
0000
0100
0000
,
0102
0000
0000
1003
0001
0000
0010
0000
0100
1000
0000
0000
0001
0000
1000
0000
,
2100
0000
0000
3001
1000
0000
0010
0000
0100
0001
0000
0000
1000
0000
0001
0000
,
0010
0010
0100
0100
1000
1000
0010
0010
,
0100
0001
0100
0001
1000
0100
1000
0100
0010
0000
0001
0000
0100
0000
0010
0000
,
1010
0000
1000
0000
1010
0000
0010
0000
1010
0000
1000
0001
0010
0000
0100
0000
,
0110
0000
0010
0000
0110
0000
0100
0000
0110
0000
0010
0001
1000
0000
0010
0000
,
1010
0000
1000
0000
1001
0000
0001
0000
0011
0000
0010
0100
1000
0000
0001
0000
,
0101
0000
0100
0000
0110
0000
0010
0000
1010
0000
1000
0001
0010
0000
0000
0000
,
0011
0000
0001
0000
0011
0000
0010
0000
0011
0000
0001
1000
0010
0000
0100
0000
,
0110
0000
0010
0000
0110
0000
0100
0000
0110
0000
0010
1000
0001
0000
0010
0000
,
0011
0000
0001
0000
1001
0000
1000
0000
1010
0000
0010
0100
0001
0000
1000
0000
,
1100
0000
0100
0000
0110
0000
0010
0000
0011
0000
0001
1000
0010
0000
0000
0000
,
1010
0000
0001
0000
0011
0000
1000
0000
1100
0000
0001
0100
0010
0000
1000
0000
,
1100
0000
0001
0000
0011
0000
1000
0000
1010
0000
0001
0010
0100
0000
1000
0000
,
0110
0000
0001
0000
0101
0000
1000
0000
0110
0000
1000
0001
0010
0000
0100
0000
,
1100
0000
0010
0000
1001
0000
0001
0000
0110
0000
1000
0001
1000
0000
0000
0000
,
0011
0000
1000
0000
1010
0000
0001
0000
0101
0000
1000
0100
0010
0000
0001
0000
,
0101
0000
1000
0000
1010
0000
0001
0000
0011
0000
1000
0010
0100
0000
0001
0000
,
0110
0000
1000
0000
1100
0000
0001
0000
0110
0000
0001
1000
0010
0000
0100
0000
,
0101
0000
0010
0000
1001
0000
1000
0000
0110
0000
0001
1000
0001
0000
0000
0000
,
0100
0000
0001
0000
0010
0000
0000
0001
0100
0000
0001
0000
0010
0000
0000
0000
,
0100
0000
1000
0000
0010
0000
0100
2000
0000
0000
3100
0000
0001
0000
0010
0000
,
0100
0000
1000
0000
0010
0000
0000
1000
0100
0000
1000
0000
0010
0000
0000
0000
,
0100
0000
0001
0000
1000
0000
0100
0002
0000
0000
0103
0000
0010
0000
0001
0000
,
1000
0000
0010
0000
0001
0000
0000
0010
1000
0000
0010
0000
0001
0000
0000
0000
,
0010
0000
1000
0000
0001
0000
0100
2000
0000
0000
3100
0000
0010
0000
1000
0000
,
0001
0000
0010
0000
1000
0000
0000
0010
0001
0000
0010
0000
1000
0000
0000
0000
,
0010
0000
0001
0000
1000
0000
0100
0002
0000
0000
0103
0000
0010
0001
0010
0001
,
1000
0010
0100
0001
1000
0100
1100
0000
,
1000
0000
0001
0000
0100
0010
0100
0010
0100
0000
0001
0000
1001
0000
1000
0000
,
0001
0010
0100
1000
0001
0100
0101
0000
,
0000
0000
1000
0000
0100
0010
0100
0010
0100
0000
1000
0000
0012
0000
0000
0000
,
1003
0000
0000
0000
;
