#TITLE:Pure Ruby;
#SUBTITLE:;
#ARTIST:SHIKI;
#TITLETRANSLIT:;
#SUBTITLETRANSLIT:;
#ARTISTTRANSLIT:;
#GENRE:;
#CREDIT:;
#BANNER:;
#BACKGROUND:;
#LYRICSPATH:;
#CDTITLE:;
#MUSIC:Pure Ruby.ogg;
#OFFSET:-0.010000;
#SAMPLESTART:51.238998;
#SAMPLELENGTH:20.000000;
#SELECTABLE:YES;
#BPMS:0.000000=178.000000
;
#STOPS:
;
#BGCHANGES:;
#KEYSOUNDS:;
#ATTACKS:;

//---------------dance-single - ----------------
#NOTES:
     dance-single:
     :
     Beginner:
     3:
     0.116979,0.181539,0.000000,0.000000,0.000000,106.000000,106.000000,0.000000,0.000000,0.000000,0.000000,0.116979,0.181539,0.000000,0.000000,0.000000,106.000000,106.000000,0.000000,0.000000,0.000000,0.000000:
0000
0000
0000
0000
,
0000
0000
0000
0000
,
0000
0000
0000
0000
,
0000
0000
0000
0000
,
0001
0000
0000
0000
,
1000
0000
0000
0000
,
0001
0000
0000
0000
,
0010
0000
0000
0000
,
0001
0000
0000
0000
,
1000
0000
0000
0000
,
0010
0000
0000
0000
,
0100
0000
0000
0000
,
0010
0000
0000
0000
,
0000
0000
0000
0000
,
1000
0000
0000
0000
,
0100
0000
0000
0000
,
0010
0000
0000
0000
,
0001
0000
0000
0000
,
1000
0000
0000
0000
,
0010
0000
0000
0000
,
0100
0000
0000
0000
,
0010
0000
0000
0000
,
1000
0000
0000
0000
,
0001
0000
0000
0000
,
0010
0000
0000
0000
,
0100
0000
0000
0000
,
1000
0000
0000
0000
,
0010
0000
0000
0000
,
0100
0000
0000
0000
,
0001
0000
0000
0000
,
0100
0000
0000
0000
,
0010
0000
0000
0000
,
1000
0000
0000
0000
,
0010
0000
0000
0000
,
1000
0000
0000
0000
,
0001
0000
0000
0000
,
0010
0000
0000
0000
,
0100
0000
0000
0000
,
1000
0000
0100
0000
,
0010
0000
0001
0000
,
1000
0000
0010
0000
,
0100
0000
0001
0000
,
0100
0000
0000
0000
,
0010
0000
0000
0000
,
1000
0000
0000
0000
,
0001
0000
0000
0000
,
0001
0000
0100
0000
,
0010
0000
1000
0000
,
0001
0000
0010
0000
,
0100
0000
1000
0000
,
0100
0000
0000
0000
,
0010
0000
0000
0000
,
0001
0000
0000
0000
,
1000
0000
0000
0000
,
1000
0000
0000
0000
,
0000
0000
0000
0000
,
0010
0000
0000
0000
,
0000
0000
0000
0000
,
0100
0000
0000
0000
,
0000
0000
0000
0000
,
0010
0000
0000
0000
,
0000
0000
0000
0000
,
1000
0000
0000
0000
,
0000
0000
0001
0000
,
0001
0000
0000
0000
,
0010
0000
0000
0000
,
0100
0000
0000
0000
,
1000
0000
0000
0000
,
0010
0000
0000
0000
,
0100
0000
0000
0000
,
0001
0000
0001
0000
,
0001
0000
0000
0000
,
1000
0000
1000
0000
,
1000
0000
0000
0000
,
0100
0000
0100
0000
,
0100
0000
0000
0000
,
0010
0000
0010
0000
,
0010
0000
0000
0000
,
0001
0000
0100
0000
,
0010
0000
1000
0000
,
0100
0000
0010
0000
,
0001
0000
0100
0000
,
0010
0000
0000
0000
,
0100
0000
0000
0000
,
0001
0000
0000
0000
,
1000
0000
0000
0000
,
1000
0000
0100
0000
,
0010
0000
0001
0000
,
0100
0000
0010
0000
,
1000
0000
0100
0000
,
0010
0000
0000
0000
,
0100
0000
0000
0000
,
1000
0000
0000
0000
,
0001
0000
0000
0000
,
0100
0000
0000
0000
;

//---------------dance-single - ----------------
#NOTES:
     dance-single:
     :
     Easy:
     7:
     0.295759,0.326770,0.038625,0.000000,0.000000,268.000000,263.000000,5.000000,0.000000,0.000000,0.000000,0.295759,0.326770,0.038625,0.000000,0.000000,268.000000,263.000000,5.000000,0.000000,0.000000,0.000000:
0000
0000
0000
0000
,
0000
0000
0000
0000
,
0000
0000
0000
0000
,
0000
0000
0000
0000
,
0001
1000
0010
1000
,
0100
0000
0000
1000
0000
0000
0001
0000
,
0010
0001
1000
0010
,
0100
0000
0000
0001
0000
0000
1000
0000
,
0100
1000
0010
0100
,
0001
0000
0000
1000
0000
0000
0010
0000
,
1000
0001
1000
0001
,
0100
0001
0010
0100
,
1000
0000
0000
0000
,
0000
0000
0000
0000
,
0001
1000
0001
1000
,
0010
0000
0100
0100
,
0001
0100
0001
1000
,
0100
0000
0010
0100
,
1000
0000
0000
0001
0000
0000
0100
0000
,
0010
0000
0000
1000
0000
0000
0001
0000
,
0010
0100
0010
0001
,
1000
0000
0010
0000
,
1000
0001
1000
0001
,
0010
0000
0100
0100
,
1000
0100
1000
0001
,
0100
0000
0010
0100
,
0001
0000
0000
1000
0000
0000
0100
0000
,
0010
0000
0000
0001
0000
0000
1000
0000
,
0010
0100
0010
1000
,
0001
0000
0010
0000
,
0100
0000
0000
0010
0000
0000
0001
0000
,
0100
0000
0000
0010
0000
0000
1000
0000
,
0001
0000
0010
0000
0100
0000
0000
0010
,
0000
0001
0000
1000
0000
0000
0010
0000
,
0010
0000
1000
0000
0010
0000
0000
1000
,
0000
0001
0000
0100
0000
0000
0001
0000
,
0010
0100
0010
0100
,
1000
0001
1000
0000
,
0010
0100
0001
1000
,
0100
0010
0100
1000
,
0001
0100
0010
1000
,
0001
1000
0100
0010
,
0001
0000
1000
0010
,
1000
0000
0010
0100
,
0001
0000
1000
0000
,
1001
0000
0001
0000
,
0010
0100
1000
0001
,
0100
0010
0100
0001
,
1000
0100
0010
0001
,
1000
0001
0100
0010
,
1000
0000
0001
0010
,
0001
0000
0010
0100
,
1000
0000
0001
0000
,
0100
0000
0010
0000
,
0110
0000
0000
0000
,
0000
1000
0010
0000
,
1000
0000
0000
0000
,
0001
0000
0000
0010
,
0100
0000
0000
0000
,
1000
0000
0000
0001
,
0100
0000
0000
0000
,
0000
0000
0000
0000
,
0010
0000
0000
0100
0000
0000
0000
0000
,
0000
0001
1000
0000
,
0100
0000
0000
0000
,
0010
0000
0000
0100
0000
0000
1000
0000
,
0001
0000
0000
0000
,
0100
0000
0000
0010
0000
0000
0100
0000
,
0001
0000
0000
1000
0000
0000
0001
0000
,
1000
0000
0000
0000
,
0100
0000
0000
0100
0000
0000
0010
0000
,
0001
0000
0000
0001
0000
0000
1000
0000
,
0010
0000
0000
0010
0000
0000
0100
0000
,
0001
0000
0000
0001
0000
0000
0000
0000
,
1000
0000
0000
1000
0000
0000
0100
0000
,
0010
0000
0000
0010
0000
0000
0001
0000
,
0100
0000
0000
0100
0000
0000
0010
0000
,
1000
0000
0000
1000
0000
0000
0001
0000
,
1000
0100
0010
0001
,
0100
0001
0010
0100
,
0010
0001
1000
0001
,
0100
0010
0001
0010
,
0100
0000
0010
1000
,
0001
0000
0010
0001
,
0100
0000
0010
0000
,
0110
0000
0100
0000
,
0001
0100
0010
1000
,
0100
1000
0010
0100
,
0010
1000
0001
1000
,
0100
0010
1000
0010
,
0100
0000
0010
0001
,
1000
0000
0010
1000
,
0100
0000
0010
0000
,
0110
0000
0100
0000
,
1001
0000
0000
0000
;

//---------------dance-single - ----------------
#NOTES:
     dance-single:
     :
     Medium:
     12:
     0.523096,0.544616,0.200851,0.000000,0.084976,474.000000,448.000000,26.000000,0.000000,0.000000,0.000000,0.523096,0.544616,0.200851,0.000000,0.084976,474.000000,448.000000,26.000000,0.000000,0.000000,0.000000:
0000
0000
0000
0000
,
0000
0000
0000
0000
,
0000
0000
0000
0000
,
0000
0000
0000
0000
,
0001
0000
1000
0000
0001
0010
0100
1000
,
0010
0000
1000
0001
0000
0010
0001
1000
,
0010
0000
0100
0000
0010
1000
0001
0010
,
0100
0000
0010
0001
0000
1000
0001
0000
,
0100
0000
0010
0000
1000
0010
0100
0001
,
1000
0000
0000
1100
0000
0000
0100
0000
,
0010
0001
1000
0010
0100
0001
1000
0000
,
0001
1000
0100
1000
0010
0100
0001
0000
,
1000
0000
0000
0000
,
0000
0000
0000
0000
,
0001
0010
0001
0100
,
0110
0000
0000
0010
0000
0000
0100
0010
0100
0001
0000
1000
,
0100
0000
0010
0000
0001
0000
1000
0010
,
1000
0010
0100
0001
,
1001
0000
1000
0100
0010
0000
0001
0000
,
0100
0000
0010
1000
0001
0000
0010
0000
,
0110
0000
0100
0000
1000
0000
0010
0100
,
0001
1000
1100
0001
,
1000
0010
1000
0100
,
0110
0000
0000
0010
0000
0000
0100
0010
0100
1000
0000
0001
,
0100
0000
0010
0000
1000
0000
0001
0010
,
0001
0010
0100
1000
,
1001
0000
0001
0100
0010
0000
1000
0000
,
0100
0000
0010
0001
1000
0000
0010
0000
,
0110
0000
0100
0000
0001
0000
0010
0100
,
1000
0001
0101
1000
,
1010
0000
0010
0100
0000
0010
1000
0001
,
0010
0000
0100
1000
0000
0001
1000
0010
,
0100
0000
1000
0000
0100
0010
0000
1001
,
0000
0001
0000
0011
0000
0010
0100
1000
,
0010
0000
1000
0000
0001
0100
0000
0110
,
0000
0010
0000
1010
0000
1000
0100
0010
,
0001
0010
0001
1000
,
0001
0100
0000
0010
1000
0000
0010
0000
,
1000
0001
0010
0100
1000
0001
0100
0010
,
1000
0000
0000
0010
0000
0000
0100
0000
0010
0000
1000
0000
0001
0000
0000
0000
,
0010
0100
1000
0100
0010
0000
0100
1000
,
0010
0000
0000
0100
0000
0000
0010
0000
0001
0000
0000
0010
0000
0000
1000
0000
,
0001
0000
0010
0000
0100
0000
0010
0001
,
1000
0010
0100
0010
,
1000
0000
0001
1000
0100
0000
0010
0001
,
1000
0010
0110
1000
,
0001
1000
0010
0100
0001
1000
0100
0010
,
0001
0000
0000
0010
0000
0000
0100
0000
0010
0000
0001
0000
1000
0000
0000
0000
,
0010
0100
0001
0100
0010
0000
0100
0001
,
0010
0000
0000
0100
0000
0000
0010
0000
1000
0000
0000
0010
0000
0000
0001
0000
,
1000
0000
0010
0000
0100
0000
0010
1000
,
0001
0010
0011
0001
,
0010
0000
0001
1000
0010
0000
0100
0001
,
1000
0000
0100
0010
0001
0000
1000
0000
,
1001
0000
0000
0000
,
0000
0000
0000
0001
0000
0000
1000
0000
0010
0000
1000
0000
,
0001
0000
0000
0000
,
0010
0000
0000
0100
0000
0000
1000
0000
,
1100
0000
0000
0000
,
0001
0000
0000
0100
0000
0000
0010
0000
,
1010
0000
0000
1001
0000
0000
0000
0000
,
0000
0001
0000
0001
0000
0001
1000
0000
,
0100
0000
0010
0100
0010
0000
0001
0000
,
1000
0000
0000
0010
0000
0000
0100
0000
0010
0000
1000
0000
,
0100
0010
0100
1000
,
1001
0000
0001
0100
0010
0000
1000
0000
,
1100
0100
1000
0001
,
0100
0000
0010
1000
0001
0000
0010
0000
,
0100
0000
0010
0001
1000
0000
0010
0000
,
0100
0000
0000
0000
,
0001
0100
0000
0001
0100
0000
0010
0000
,
1000
0001
0000
1000
0001
0000
0010
0000
,
0100
1000
0000
0100
1000
0000
0001
0000
,
0100
0010
0000
0100
0010
0000
1000
0000
,
0100
0010
0000
0001
1000
0000
0010
0000
,
0100
0001
0000
0010
0100
0000
1000
0000
,
0100
0010
0000
0001
1000
0000
0010
0000
,
0100
0010
0000
1000
0001
0000
1000
0000
,
0100
0010
0001
1000
0100
1000
0010
0100
,
1000
0000
0000
0100
0000
0000
0010
0000
1000
0000
0001
0000
0010
0000
0000
0000
,
0100
0010
0001
1000
0010
0000
0100
0001
,
0010
0000
0000
0001
0000
0000
0100
0000
1000
0000
0000
0100
0000
0000
0001
0000
,
0010
0000
0100
0000
1000
0000
0010
1000
,
0100
0010
1100
1000
,
0001
0000
0100
0001
1000
0000
0100
0010
,
0001
1000
0110
0001
,
0100
0010
1000
0001
0100
0001
0010
0100
,
0001
0000
0000
0100
0000
0000
0010
0000
0001
0000
1000
0000
0010
0000
0000
0000
,
0100
0010
1000
0001
0010
0000
0100
1000
,
0010
0000
0000
1000
0000
0000
0100
0000
0001
0000
0000
0100
0000
0000
1000
0000
,
0010
0000
0100
0000
0001
0000
0010
0001
,
0100
0010
0101
0001
,
1000
0000
0100
1000
0001
0000
0100
0010
,
1000
0001
1000
0010
0100
0001
0100
0000
,
1010
0000
0000
0000
;

//---------------dance-single - ----------------
#NOTES:
     dance-single:
     :
     Hard:
     16:
     0.811130,0.835078,0.193126,0.000000,0.498266,735.000000,710.000000,25.000000,0.000000,0.000000,0.000000,0.811130,0.835078,0.193126,0.000000,0.498266,735.000000,710.000000,25.000000,0.000000,0.000000,0.000000:
0000
0000
0000
0000
,
0000
0000
0000
0000
,
0000
0000
0000
0000
,
0000
0000
0000
0000
,
0001
0000
1000
0000
0010
0000
1000
0000
0100
0010
0100
0010
0100
0000
1000
0000
,
0001
1000
0010
0100
0010
1000
0001
0010
,
0100
0000
0010
0000
0001
0000
1000
0000
0010
0100
0010
0100
0010
0000
0100
0000
,
0001
0100
0010
1000
0001
0010
0100
0010
,
0001
0000
1000
0000
0010
0000
1000
0000
0100
0010
0001
0010
0100
0000
1000
0000
,
0010
1000
0001
0010
0100
1000
0010
1000
,
0001
0100
0001
0000
0100
0000
0010
0000
1000
0001
1000
0001
1000
0000
0000
0000
,
0100
1000
0100
0000
0010
0000
0001
0000
0100
0010
0100
0010
0100
0000
0000
0000
,
0010
0000
0000
0000
,
0000
0000
0000
0000
,
1000
0010
0100
0010
1000
0010
1000
0001
,
0010
0000
0000
0100
0000
0000
0010
0000
0000
0001
0000
0000
1000
0000
0001
0000
1000
0000
0010
0000
0100
0000
0010
0000
,
1000
0000
0001
0010
0100
1000
0010
0100
,
0001
0100
0010
1000
0100
0010
0001
1000
,
0010
0100
0010
0001
0010
1000
0001
0010
,
0100
0010
0001
1000
0010
1000
0100
0010
,
1000
0010
0100
1000
0001
1000
0010
0100
,
0101
0001
1001
1000
,
0001
0010
0100
0010
0001
0010
0001
1000
,
0010
0000
0000
0100
0000
0000
0010
0000
0000
1000
0000
0000
0001
0000
1000
0000
0001
0000
0010
0000
0100
0000
0010
0000
,
0001
0000
1000
0010
0100
0001
0010
0100
,
1000
0100
0010
0001
0100
0010
1000
0001
,
0010
0100
0010
1000
0010
0001
1000
0010
,
0100
0010
1000
0001
0010
0001
0100
0010
,
0001
0010
0100
0001
1000
0000
0100
0010
,
0011
0001
0101
0100
,
0010
1000
0100
0100
0010
0001
1000
0010
,
0100
0010
1000
1000
0010
0100
0001
0010
,
0100
0010
1000
0010
0001
0001
0100
1000
,
0100
0000
0001
0000
0100
0000
1000
0000
0100
0000
0010
0000
1000
0001
1000
0001
,
1000
0000
0010
1000
0001
0010
0001
0100
,
0001
1000
0010
0001
0010
1000
0100
0010
,
0001
0010
0001
0010
0100
1000
0100
1000
,
0001
0101
0000
0100
0110
0000
1000
0000
,
0001
1000
0000
0010
1000
0000
0010
0100
0000
0001
1000
0000
0100
0010
0001
1000
,
0010
0100
0000
0010
1000
0000
0100
0000
0010
0000
0001
0000
1000
0000
0010
0000
,
0100
0010
0000
1000
0010
0000
1000
0001
1000
0000
0001
0000
0010
0000
0001
0000
,
1000
0010
0000
1000
0001
0010
0100
0000
0001
0100
0000
0010
0100
1000
0001
0000
,
0100
0000
0001
0000
1000
0000
0010
0000
0100
0000
0010
0000
1000
0001
1000
0001
,
0010
0100
0010
0001
0100
0010
1000
0001
,
0010
0000
0100
1000
0100
0000
0010
0000
0001
0000
1000
0010
1000
0000
0001
0000
,
0101
0100
0010
1000
1001
0000
0001
0000
,
1000
0001
0000
0010
0001
0000
0010
0100
0000
1000
0001
0000
0100
0010
1000
0001
,
0010
0100
0000
0010
0001
0000
0100
0000
0010
0000
1000
0000
0001
0000
0010
0000
,
0100
0010
0000
0001
0010
0000
0001
1000
0001
0000
1000
0000
0010
0000
1000
0000
,
0001
0010
0000
0001
1000
0010
0100
0000
1000
0100
0000
0010
0100
0001
1000
0000
,
0100
0000
1000
0000
0001
0000
0010
0000
0100
0000
0010
0000
0001
1000
0001
1000
,
0010
0100
0010
1000
0100
0010
0001
1000
,
0010
0000
0100
0001
0100
0000
0010
0000
1000
0000
0001
0010
0001
0000
1000
0000
,
1100
0100
0010
0001
1001
0000
0100
0000
,
0110
0000
0000
0001
0000
0000
0000
0000
,
0000
0000
0000
1000
0000
0000
1100
0000
1000
0000
0001
0000
,
0101
0000
0000
0000
,
1001
0000
0000
1010
0000
0000
0010
0000
,
0110
0000
0000
0000
,
0100
0000
0000
0101
0000
0000
0001
0000
,
0011
0000
0000
0110
0000
0000
0000
0000
,
0000
1000
0000
1000
0000
1000
0001
0100
,
0010
0100
0010
1000
0001
0010
0100
0010
,
0001
0000
0000
1000
0000
0000
0010
0000
0000
0000
0000
0000
0110
0000
0000
0000
0100
0000
0000
0000
0001
0000
0000
0000
,
1001
0000
1000
0100
1000
0001
0100
0001
,
0010
0100
1000
0010
0100
0010
0001
0010
,
1000
0000
0010
1000
0001
0010
0100
0010
,
0001
1000
0010
0100
0010
1000
0100
0010
,
1000
0010
0001
0100
0010
1000
0100
0010
,
0011
0000
0000
0000
,
0001
1000
0001
0000
0000
0000
1000
0010
1000
0000
0000
0000
0010
0000
0000
0000
,
0100
0001
0100
0000
0000
0000
0001
1000
0001
0000
0000
0000
0010
0000
0000
0000
,
0100
0010
0100
0000
0000
0000
1000
0001
1000
0000
0000
0000
0010
0000
0000
0000
,
0100
0001
0100
0000
0000
0000
0010
1000
0010
0000
0000
0000
1000
0000
0000
0000
,
0001
0010
0100
0000
0010
0000
0001
1000
0010
0000
0100
0000
0001
0000
0000
0000
,
1000
0010
0100
0000
0010
0000
1000
0001
0010
0000
0100
0000
1000
0000
0000
0000
,
0100
0010
0001
0000
1000
0000
0010
0100
0001
0000
1000
0000
0010
0000
0000
0000
,
0100
0010
1000
0000
0001
0000
0010
0100
1000
0000
0001
0000
0010
0000
0000
0000
,
0100
0010
0000
0001
1000
0000
0010
1000
0000
0100
0010
0000
0001
0010
0100
1000
,
0010
0100
0000
0001
0100
0000
0010
0000
0001
0000
0010
0000
0100
0000
0001
0000
,
1000
0100
0000
0010
0001
0000
0100
0010
0100
0000
0001
0000
0010
0000
0100
0000
,
0001
0100
0000
0010
0001
1000
0010
0000
0001
0010
0000
1000
0001
0100
0010
0000
,
1000
0000
0001
0000
0010
0000
0100
0000
1000
0000
0001
0000
0100
0010
1000
0001
,
0010
0001
1000
0100
0010
0001
0100
0001
,
1000
0000
0010
1000
0001
0000
0010
0000
0100
0000
1000
0001
0100
0000
0010
0000
,
0110
0100
0001
1000
1100
0000
0001
0000
,
0100
0010
0000
1000
0001
0000
0010
0001
0000
0100
0010
0000
1000
0010
0100
0001
,
0010
0100
0000
1000
0100
0000
0010
0000
1000
0000
0010
0000
0100
0000
1000
0000
,
0001
0100
0000
0010
1000
0000
0100
0010
0100
0000
1000
0000
0010
0000
0100
0000
,
1000
0100
0000
0010
1000
0001
0010
0000
1000
0010
0000
0001
1000
0100
0010
0000
,
0001
0000
1000
0000
0010
0000
0100
0000
0001
0000
1000
0000
0100
0010
0001
1000
,
0010
1000
0001
0100
0010
1000
0100
1000
,
0001
0000
0010
0001
1000
0000
0010
0000
0100
0000
0001
1000
0100
0000
0010
0000
,
0110
0000
0100
1000
0010
0000
0100
0001
0010
0000
0100
0000
1000
0001
0010
0000
,
0100
0000
0000
0000
;

//---------------dance-single - ----------------
#NOTES:
     dance-single:
     :
     Challenge:
     18:
     1.040675,1.198155,0.332177,0.000000,1.015844,943.000000,900.000000,43.000000,0.000000,0.000000,0.000000,1.040675,1.198155,0.332177,0.000000,1.015844,943.000000,900.000000,43.000000,0.000000,0.000000,0.000000:
// measure 0
0000
0000
0000
0000
,  // measure 1
0000
0000
0000
0000
,  // measure 2
0000
0000
0000
0000
,  // measure 3
0000
0000
0000
0000
,  // measure 4
0001
0000
0010
0000
0100
0000
1000
0000
0001
0100
0001
1000
0010
1000
0100
0010
,  // measure 5
0001
1000
0001
0100
0010
0100
0001
1000
,  // measure 6
0100
0000
0010
0000
0100
0000
1000
0000
0001
0010
0001
1000
0100
1000
0010
0100
,  // measure 7
0001
0100
0010
1000
0010
0100
0001
1000
,  // measure 8
1100
0000
0100
0000
0010
0000
0001
0000
0100
0001
0010
0001
1000
0100
1000
0001
,  // measure 9
0100
0010
0100
0001
1000
0100
0010
0100
,  // measure 10
1000
0001
1000
0001
0100
0010
1000
0100
0010
0001
1000
0100
0010
0001
1000
0000
,  // measure 11
0010
0100
0010
0100
0001
1000
0100
1000
0010
0100
0001
0100
0010
1000
0001
0000
,  // measure 12
1000
0000
0000
0000
,  // measure 13
0000
0000
0000
0000
,  // measure 14
1100
0100
0010
0001
1000
0010
0100
0010
,  // measure 15
1010
0000
0000
1000
0000
0000
0001
0000
0000
0010
0000
0000
0100
0000
1000
0000
0010
0000
0100
0000
0001
0000
0100
0000
,  // measure 16
1000
0100
0001
1000
0010
1000
0001
0010
,  // measure 17
1000
0010
0001
0100
1000
0100
0010
0100
,  // measure 18
0101
0001
0010
0100
1000
0001
1000
0010
,  // measure 19
0110
0100
0001
0010
0100
1000
0001
1000
,  // measure 20
1010
0010
0100
0001
0100
0010
1010
1000
,  // measure 21
1100
0100
1001
0001
,  // measure 22
0101
0100
0010
1000
0001
0010
0100
0010
,  // measure 23
0011
0000
0000
0001
0000
0000
1000
0000
0000
0010
0000
0000
0100
0000
0001
0000
0010
0000
0100
0000
1000
0000
0100
0000
,  // measure 24
0001
0100
1000
0001
0010
0001
1000
0010
,  // measure 25
0001
0010
1000
0100
0001
0100
0010
0100
,  // measure 26
1100
1000
0010
0100
0001
1000
0001
0010
,  // measure 27
0110
0100
1000
0010
0100
0001
1000
0001
,  // measure 28
0011
0010
0100
1000
0100
0010
0011
0001
,  // measure 29
0101
0100
1010
1000
,  // measure 30
0100
0010
0001
0000
1000
0000
0010
0100
0001
0000
0100
0000
0010
0000
1000
0000
,  // measure 31
0010
0100
0001
0000
1000
0000
0100
0010
0001
0000
0010
0000
0100
0000
1000
0000
,  // measure 32
0010
0000
0100
0000
1000
0000
0100
0010
1000
0001
0010
0000
0100
0000
0010
0001
,  // measure 33
0100
0000
0010
1000
0100
0000
0010
0001
0100
0000
0001
0000
1000
0100
0010
0100
,  // measure 34
0001
0000
0100
0000
1000
0000
0001
0000
1000
0000
0001
0010
0001
0000
0100
0010
,  // measure 35
1000
0000
0100
1000
0010
0000
0100
0001
0010
0000
0100
1000
0010
0000
1000
0000
,  // measure 36
0100
0010
0001
1000
0100
1000
0010
0100
,  // measure 37
0001
0000
0101
0000
0100
0000
0010
0000
1010
0000
1000
0000
0100
1000
0100
0000
,  // measure 38
0010
0100
0010
0001
1000
0001
0100
0010
1000
0001
0010
0100
1000
0001
0100
0010
,  // measure 39
0001
0010
0100
0001
1000
0100
0010
0001
0100
0000
0010
0000
1000
0000
0001
0000
,  // measure 40
1000
0100
1000
0001
0100
0001
0010
0100
1000
0001
0100
0010
0100
0001
0010
0100
,  // measure 41
0001
0100
0010
0001
1000
0010
0100
0010
0001
0010
1000
0001
0010
0100
1000
0001
,  // measure 42
0100
0000
0010
0000
0100
0010
0100
0010
1000
0000
0001
0000
0010
0100
1000
0001
,  // measure 43
0100
0000
0010
0000
1000
0001
1000
0001
0100
0000
0010
0000
1000
0000
0001
0000
,  // measure 44
0010
0000
0100
0010
0001
0010
0100
0010
0001
0000
1000
0010
0100
0010
1000
0010
,  // measure 45
0100
0001
1000
0100
0110
0001
1000
0000
,  // measure 46
0010
0100
0010
1000
0001
1000
0100
0010
0001
1000
0010
0100
0001
1000
0100
0010
,  // measure 47
1000
0010
0100
1000
0001
0100
0010
1000
0100
0000
0010
0000
0001
0000
1000
0000
,  // measure 48
0001
0100
0001
1000
0100
1000
0010
0100
0001
1000
0100
0010
0100
1000
0010
0100
,  // measure 49
1000
0100
0010
1000
0001
0010
0100
0010
1000
0010
0001
1000
0010
0100
0001
1000
,  // measure 50
0100
0000
0010
0000
0100
0010
0100
0010
0001
0000
1000
0000
0010
0100
0001
1000
,  // measure 51
0100
0000
0010
0000
0001
1000
0001
1000
0100
0000
0010
0000
0001
0000
1000
0000
,  // measure 52
0010
0000
0100
0010
1000
0010
0100
0010
1000
0000
0001
0010
0100
0010
0001
0010
,  // measure 53
0100
0000
1000
0000
0001
0000
0100
0000
0110
0000
1000
0000
0001
1000
0001
0000
,  // measure 54
0100
0000
0000
0010
0000
0000
0000
0000
,  // measure 55
0000
0000
0000
1000
0000
0000
1100
0000
0100
0000
0010
0000
,  // measure 56
0011
0000
0000
0000
,  // measure 57
1001
0000
0000
0101
0000
0000
0110
0000
,  // measure 58
1010
0000
0000
0000
,  // measure 59
1001
0000
0000
0011
0000
0000
0110
0000
,  // measure 60
1100
0000
0000
1010
0000
0000
0000
0000
,  // measure 61
0000
0000
0010
0000
0000
0000
0010
0000
0000
0000
0010
0000
1000
0001
1000
0001
,  // measure 62
0010
0100
0010
0001
1000
0001
0100
0010
,  // measure 63
0100
0000
0000
0001
0000
0000
0010
0000
0000
0100
0000
0000
1100
0000
0000
0000
1001
0000
0000
0000
0101
0000
0000
0000
,  // measure 64
0110
0010
1000
0100
0010
0001
1000
0010
,  // measure 65
0110
0100
0001
1000
0100
0010
1000
0010
,  // measure 66
0110
0100
1000
0001
0100
0010
0100
0001
,  // measure 67
1001
1000
0100
0010
0100
1000
0001
0100
,  // measure 68
0101
0001
1000
0100
1000
0001
0011
0010
,  // measure 69
0110
0000
0000
0000
,  // measure 70
1000
0100
1000
0100
1000
0000
0100
1000
0100
1000
0100
0000
0010
0000
0001
0000
,  // measure 71
1000
0010
1000
0010
1000
0000
0010
1000
0010
1000
0010
0000
0100
0000
0001
0000
,  // measure 72
0010
0100
0010
0100
0010
0000
0100
0010
0100
0010
0100
0000
1000
0000
0001
0000
,  // measure 73
0100
0001
0100
0001
0100
0000
0001
0100
0001
0100
0001
0000
1000
0010
1000
0000
,  // measure 74
0001
0010
0100
1000
0001
0000
1000
0100
0010
0001
1000
0000
0001
1000
0001
1000
,  // measure 75
0010
0100
0001
1000
0010
0000
0100
0010
1000
0001
0100
0000
0001
1000
0001
1000
,  // measure 76
0100
0010
0001
1000
0100
0000
0010
0001
1000
0100
0010
0000
0100
1000
0100
1000
,  // measure 77
0001
0100
0010
1000
0100
0000
0010
0100
1000
0001
0100
0000
0010
1000
0010
1000
,  // measure 78
0001
0100
0001
0010
0100
1000
0010
0100
0001
0100
0010
1000
0100
0010
0001
0010
,  // measure 79
1000
0010
0100
1000
0001
0100
0010
0100
0001
0000
1000
0000
0100
0000
0010
0000
,  // measure 80
0100
1000
0001
0010
0100
1000
0010
1000
0100
0010
0001
1000
0010
0100
0001
0100
,  // measure 81
1000
0100
0010
0100
0001
1000
0001
0010
1000
0010
0100
0010
0001
1000
0010
0100
,  // measure 82
0001
0000
1000
0000
0100
0010
0100
0010
0001
0000
1000
0000
0010
1000
0100
1000
,  // measure 83
0010
0000
0100
0000
0001
1000
0100
1000
0001
0000
1000
0000
0010
0000
0100
0000
,  // measure 84
0001
0000
0010
0100
1000
0100
0010
0001
1000
0000
0010
0100
0001
0100
0010
1000
,  // measure 85
0001
0010
0100
1000
1010
0100
0001
0000
,  // measure 86
1000
0100
1000
0010
0100
0001
0010
0100
1000
0100
0010
0001
0100
0010
1000
0010
,  // measure 87
0001
0010
0100
0001
1000
0100
0010
0100
1000
0000
0001
0000
0100
0000
0010
0000
,  // measure 88
0100
0001
1000
0010
0100
0001
0010
0001
0100
0010
1000
0001
0010
0100
1000
0100
,  // measure 89
0001
0100
0010
0100
1000
0001
1000
0010
0001
0010
0100
0010
1000
0001
0010
0100
,  // measure 90
1000
0000
0001
0000
0100
0010
0100
0010
1000
0000
0001
0000
0010
0001
0100
0001
,  // measure 91
0010
0000
0100
0000
1000
0001
0100
0001
1000
0000
0001
0000
0010
0000
0100
0000
,  // measure 92
1000
0000
0010
0100
0001
0100
0010
1000
0001
0000
0010
0100
1000
0100
0010
0001
,  // measure 93
1000
0000
0001
0100
1000
0000
0001
0010
1000
0000
0001
0000
0010
0100
0010
0100
,  // measure 94
1000
0000
0000
0000
;
