#VERSION:0.83;
#TITLE:Paradisus-Paradoxum;
#SUBTITLE:;
#ARTIST:MYTH & ROID;
#TITLETRANSLIT:;
#SUBTITLETRANSLIT:;
#ARTISTTRANSLIT:;
#GENRE:;
#CREDIT:;
#MUSIC:Paradisus-Paradoxum.ogg;
#BANNER:;
#BACKGROUND:;
#CDTITLE:;
#SAMPLESTART:59.400;
#SAMPLELENGTH:20.000;
#SELECTABLE:YES;
#OFFSET:-0.313;
#BPMS:0.000=201.000;
#STOPS:;
#SPEEDS:0.000=1.000=0.000=0;
#SCROLLS:0.000=1.000;
#TICKCOUNTS:0.000=4;
#TIMESIGNATURES:0.000=4=4;
#LABELS:0.000=Song Start;
#COMBOS:0.000=1;
#ORIGIN:;
#TAGS:;
#PREVIEWVID:;
#JACKET:;
#CDIMAGE:;
#DISCIMAGE:;
#BGCHANGES:;
#FGCHANGES:;

//--------------- dance-single - ----------------
#NOTEDATA:;
#STEPSTYPE:dance-single;
#DESCRIPTION:;
#DIFFICULTY:Beginner;
#METER:2;
#RADARVALUES:0.093817,0.122717,0,0.044523,0,59,59,0,4,0,0,0,0,0,0.093817,0.122717,0,0.044523,0,59,59,0,4,0,0,0,0,0;
#CHARTNAME:;
#CHARTHASH:1170172773;
#BANNER:;
#CHARTSTYLE:;
#METERF:0.000000;
#LASTSECONDHINT:88.074203;
#CREDIT:ZSL;
#NOTES:
0000
0000
0000
0000
,
0000
0000
0000
0000
,
0000
0000
0000
0000
,
0000
0000
0000
0000
,
0000
0000
0000
0000
,
0000
0000
0000
0000
,
0001
0000
0000
0000
,
0000
0000
0000
0000
,
1000
0000
0000
0000
,
0000
0000
0000
0000
,
0010
0000
0000
0000
,
0000
0000
0000
0000
,
0100
0000
0000
0000
,
0000
0000
0000
0000
,
0020
0000
0000
0000
0000
0000
0000
0030
,
0000
0000
0000
0000
,
1000
0000
0000
0000
,
0001
0000
0000
0000
,
0010
0000
0000
0000
,
0100
0000
0000
0000
,
0010
0000
0000
0000
,
0001
0000
0000
0000
,
1000
0000
0000
0000
,
0010
0000
0000
0000
,
0100
0000
0000
0000
,
0000
0000
0000
0000
,
0001
0000
0000
0000
,
0000
0000
0000
0000
,
1000
0000
0000
0000
,
0000
0000
0000
0000
,
0200
0000
0000
0000
,
0320
0000
0030
0000
,
0001
0000
0000
0000
,
1000
0000
0000
0000
,
0010
0000
0000
0000
,
0100
0000
0000
0000
,
0001
0000
0000
0000
,
1000
0000
0000
0000
,
0100
0000
0000
0000
,
0010
0000
0000
0000
,
0100
0000
0000
0000
,
1000
0000
0000
0000
,
0001
0000
0000
0000
,
0100
0000
0000
0000
,
0010
0000
0000
0000
,
0100
0000
0000
0000
,
0001
0000
0000
0000
,
0010
0000
0000
0000
,
0100
0000
0000
0000
,
0000
0000
0000
0000
,
1000
0000
0000
0000
,
0001
0000
0000
0000
,
0100
0000
0000
0000
,
0001
0000
0000
0000
,
0010
0000
0000
0000
,
0100
0000
0000
0000
,
0010
0000
0000
0000
,
0001
0000
0000
0000
,
1000
0000
0000
0000
,
0010
0000
0000
0000
,
0100
0000
0000
0000
,
0001
0000
0000
0000
,
1000
0000
0000
0000
,
0100
0000
0000
0000
,
0020
0000
0000
0000
0000
0000
0000
0030
,
0000
0000
0000
0000
,
0100
0000
0000
0000
,
1000
0000
0000
0000
,
0001
0000
0000
0000
,
0100
0000
0000
0000
,
0010
0000
0000
0000
,
1000
0000
0000
0000
,
0001
0000
0000
0000
,
0010
0000
0010
0000
,
0010
0000
0000
0000
;

//--------------- dance-single - ----------------
#NOTEDATA:;
#STEPSTYPE:dance-single;
#DESCRIPTION:;
#DIFFICULTY:Easy;
#METER:7;
#RADARVALUES:0.322792,0.370655,0,0.044523,0,203,203,0,4,0,0,0,0,0,0.322792,0.370655,0,0.044523,0,203,203,0,4,0,0,0,0,0;
#CHARTNAME:;
#CHARTHASH:1708559299;
#BANNER:;
#CHARTSTYLE:;
#METERF:0.000000;
#LASTSECONDHINT:88.671211;
#CREDIT:ZSL;
#NOTES:
0000
0000
0000
0000
,
0000
0000
0000
0000
,
0000
0000
0000
0000
,
0000
0000
0000
0000
,
0000
0000
0000
0000
,
0000
0000
0000
0000
,
1000
0000
0000
0000
0001
0000
0000
0100
,
0000
0000
0010
1000
,
0001
0000
0000
0010
0000
0001
0000
0010
,
0000
0000
0100
1000
,
0001
0000
0000
1000
0000
0010
0000
1000
,
0000
0000
0010
0100
,
0001
0000
1000
0100
,
0010
0000
0100
1000
,
0002
0000
0000
0000
0000
0000
0000
1003
,
0000
0000
0010
0000
0000
0100
0000
0000
,
0001
0000
1000
0000
,
0100
0010
0100
1000
,
0010
0000
0100
0000
,
0001
0010
0100
1000
,
0010
0000
1000
0000
,
0001
0100
0010
1000
,
0100
0000
0010
0000
,
0100
1000
0001
0100
,
0010
0100
0000
0000
,
0001
0000
0000
0010
,
0200
0000
0000
1300
,
0000
0001
0000
0000
,
0100
0000
0000
0010
,
0000
1000
0000
0100
,
2000
0000
0000
0000
,
3001
1000
0001
0000
,
0010
0000
0001
0000
0000
0100
0000
0000
,
0010
0000
0000
1000
0000
0000
0001
0000
,
0010
0100
0010
0001
,
1000
0000
0010
0000
0000
0100
0000
0000
,
0001
1000
0100
0010
,
0001
0000
1000
0000
0000
0010
0000
0000
,
0100
0001
0100
0010
,
1000
0000
0001
0010
,
0100
0000
1000
0010
,
0100
0000
0010
1000
,
0001
0000
0010
0100
,
1000
0000
0001
0100
,
0010
0000
1000
0001
,
0010
0000
0100
1000
,
0010
0100
0010
0100
,
0001
0001
1000
1000
,
0001
0000
0000
0000
0010
0000
0000
0100
,
0000
0000
1000
0001
,
0100
0000
0000
0010
0000
1000
0000
0010
,
0000
0000
1000
0100
,
0010
0000
0000
0100
0000
1000
0000
0100
,
0000
0000
0010
0001
,
1000
0000
0010
0100
,
0010
1000
0001
0010
,
0100
0010
0100
0010
,
0001
0000
1000
0010
,
0100
0000
0000
0010
0000
1000
0000
0001
,
0000
0000
0010
0001
,
0100
0000
0000
0001
0000
0010
0000
0100
,
0000
0000
1000
0001
,
0100
0000
0010
0100
,
0001
0000
0010
0100
,
2000
0000
0000
0000
0000
0000
0000
3001
,
0000
0000
0100
0000
0000
0010
0000
0000
,
1000
0001
0010
0000
,
0100
1000
0010
1000
,
0100
0010
0001
0000
,
1000
0010
0100
0001
,
0010
0001
0100
0010
,
1000
0001
0010
0100
,
1000
0001
0100
0010
,
0100
0001
0010
0100
,
1000
0000
0000
0000
;

//--------------- dance-single - ----------------
#NOTEDATA:;
#STEPSTYPE:dance-single;
#DESCRIPTION:;
#DIFFICULTY:Medium;
#METER:11;
#RADARVALUES:0.477033,0.53539,0.155831,0.077915,0,300,286,14,7,0,0,0,0,0,0.477033,0.53539,0.155831,0.077915,0,300,286,14,7,0,0,0,0,0;
#CHARTNAME:;
#CHARTHASH:3868838394;
#BANNER:;
#CHARTSTYLE:;
#METERF:0.000000;
#LASTSECONDHINT:88.671211;
#CREDIT:ZSL;
#NOTES:
0000
0000
0000
0000
,
0000
0000
0000
0000
,
0000
0000
0000
0000
,
0000
0000
0000
0000
,
0000
0000
0000
0000
,
0000
0000
0000
0000
,
1000
0001
0000
0001
1000
0000
0000
0010
,
0000
0100
0010
0000
0100
0000
0001
0000
,
1000
0000
0100
1000
0000
0001
0000
0010
,
0001
1000
0010
0100
,
0010
0000
1000
0100
0000
0010
0000
0001
,
1000
0000
0010
0000
0100
0001
0100
0001
,
1000
0100
0010
0001
,
1000
0010
0100
0001
,
0201
0000
0000
0000
0000
0000
0000
0310
,
0000
0000
1000
0000
0000
0100
0000
0000
,
0110
0010
0001
1000
,
0010
0100
0001
0100
0000
0001
0000
1000
,
0100
0010
0001
1000
,
0001
0100
0010
0100
0000
0010
1000
0010
,
0100
0001
1000
0100
,
0010
0100
0010
0001
0000
0010
0000
0001
,
1000
0010
0100
0001
,
0100
0010
0100
0001
0000
0010
0100
1000
,
0100
0000
1000
0000
0000
0010
0000
0000
,
0100
0000
0000
0001
0000
0000
0100
0000
,
0020
0000
0000
1030
,
0000
0000
0001
0000
0000
0010
0000
0000
,
0200
0000
0300
0010
,
0000
0000
0001
0000
0000
0000
1000
0010
,
0200
0000
0000
0000
,
0320
0100
0130
0000
,
0001
0000
0100
0010
0000
0100
0001
0000
,
0100
0010
0000
0100
0001
0000
1000
0000
,
0100
0000
0010
0100
0000
0010
0001
0000
,
1000
0000
0010
0000
0100
0001
0100
0001
,
1000
0100
0010
0100
,
1000
0000
0001
0100
0000
0001
1000
0000
,
0010
0000
0100
0001
0100
0000
0010
0000
,
1000
0001
0010
0100
,
1100
0000
1000
0001
,
0101
0000
0100
0010
,
1010
0000
1000
0100
,
0110
0000
0010
0001
,
1001
0000
1000
0010
,
0110
0000
0100
0001
,
0010
0000
0100
1000
0100
0000
1000
0000
,
2001
0100
0001
0100
,
3010
0100
0000
0100
0010
0000
0000
1000
,
0000
0001
0010
0000
0100
0000
1000
0000
,
0010
0000
0100
0010
0000
1000
0000
0100
,
0010
0100
1000
0001
,
0100
0000
0010
1000
0000
0100
0000
0010
,
0100
0000
1000
0000
0001
0100
0001
0100
,
0010
1000
0100
0010
,
0100
1000
0010
0100
,
0101
0001
0010
0100
,
1100
0000
1000
0000
0001
0100
0010
1000
,
0001
0000
0010
0100
0000
1000
0000
0010
,
0100
0001
1000
0001
,
0010
0000
0100
1000
0000
0010
0000
0100
,
0001
1000
0001
1000
,
0100
0010
0100
1000
,
1001
0001
1000
0010
,
0210
0000
0000
0000
0000
0000
0000
0301
,
0000
0000
0010
0000
0000
0100
0000
0000
,
1001
0001
0100
0010
,
1000
0100
0010
0100
0000
1000
0000
0001
,
0100
0010
1000
0100
,
0010
0001
1000
0001
0100
0000
0010
0000
,
1000
0001
1000
0001
0010
0000
0000
0100
,
0000
1000
0001
1000
0010
0000
0000
0100
,
0000
0001
0000
0010
0100
0000
0000
0010
,
0000
0100
1000
0001
0100
0010
0000
0000
,
0100
0000
0000
0000
;

//--------------- dance-single - ----------------
#NOTEDATA:;
#STEPSTYPE:dance-single;
#DESCRIPTION:;
#DIFFICULTY:Hard;
#METER:14;
#RADARVALUES:0.674207,0.74131,0.367316,0.089046,0.016696,424,391,33,8,0,0,0,0,0,0.674207,0.74131,0.367316,0.089046,0.016696,424,391,33,8,0,0,0,0,0;
#CHARTNAME:;
#CHARTHASH:3753687797;
#BANNER:;
#CHARTSTYLE:;
#METERF:0.000000;
#LASTSECONDHINT:88.671211;
#CREDIT:ZSL;
#NOTES:
0000
0000
0000
0000
,
0000
0000
0000
0000
,
0000
0000
0000
0000
,
0000
0000
0000
0000
,
0000
0000
0000
0000
,
0000
0000
0000
0000
,
1000
1000
0000
0010
0100
0100
0000
0001
,
0000
0010
0010
0000
0100
0000
1000
0000
,
1001
0000
0001
0100
0010
0100
0001
0010
,
0100
0000
1000
0000
0010
0100
0001
1000
,
0100
0000
0010
0100
1000
0010
0100
0001
,
1000
0000
0001
0000
0100
0010
1000
0001
,
0010
0001
1001
1000
,
1100
0010
0011
1000
,
2020
0000
0000
0000
0000
3030
0000
0110
,
0000
0000
1001
0000
0000
1100
0000
0000
,
1010
0000
0010
0100
0001
0000
0100
0000
,
0010
1000
0100
1000
0010
0100
0001
1000
,
0100
0000
0010
0100
1000
0000
0001
0000
,
0100
0010
1000
0001
0010
0100
1000
0001
,
0010
0000
0100
1000
0001
0000
0100
0000
,
0010
0100
0001
0010
0100
1000
0001
1000
,
0010
0000
0100
0001
0100
0000
0010
0000
,
1000
0001
1000
0100
0010
0001
0100
0010
,
0100
0000
0001
0100
0000
0100
0010
0000
,
0010
1000
0000
1000
0100
0000
0010
0001
,
2000
0000
0000
3010
,
0000
0000
0100
0001
0000
0001
0010
0000
,
0200
0000
0300
0110
,
0000
0000
2100
0000
0000
0000
3010
0100
,
0002
0000
0000
0000
,
1003
0010
1000
0100
0010
0000
0000
0000
,
1001
0000
1000
0010
0100
0010
1000
0100
,
0010
0001
0010
0100
1000
0001
0100
0001
,
0010
0100
1000
0001
0100
0010
1000
0000
,
0001
0000
0010
0100
1000
0010
0100
0001
,
1000
0000
0100
1000
0100
0000
0010
0001
,
0010
0000
0011
0000
0001
0101
0000
0100
,
0110
0000
0000
0000
0010
0000
1000
0010
1000
0000
0001
0000
0010
0000
0100
0000
,
1000
0001
1000
0000
0010
0000
0100
0000
,
0101
0000
0001
0000
1000
0100
0010
0100
,
1000
0000
0010
0000
0001
0010
0100
0001
,
0010
0000
0100
0000
1000
0100
0010
0001
,
1000
0000
0010
0000
0100
0010
1000
0001
,
0010
0000
0100
0000
0001
0100
0010
0001
,
0100
0010
1010
1000
,
1100
0000
0100
0010
0001
1000
0010
0100
,
1000
0100
0001
0010
1000
0010
0001
0100
,
0110
0010
0000
1000
1100
0100
0000
0010
,
0000
0001
1001
0000
1000
0000
0010
0000
,
0110
0000
0100
0001
1000
0100
0010
1000
,
0010
0000
0100
0000
1000
0001
0010
0001
,
0100
0000
1000
0100
0010
0100
0001
1000
,
0100
0000
1000
0000
0010
0100
0001
0100
,
0110
0000
1000
0100
0010
0001
1000
0001
,
0100
0001
0010
0100
1000
0010
0100
0001
,
0100
0010
0100
0010
1000
0001
1000
0001
,
0010
0000
0000
0000
0100
0000
0000
0000
1000
0001
1000
0001
1000
0000
0001
0000
,
0010
0000
0100
0010
0001
1000
0010
0001
,
0010
0000
0100
0000
0010
1000
0001
1000
,
0100
0000
0001
0100
1000
0010
0100
0101
,
0001
0000
1000
0000
0100
0010
0100
0010
,
0001
0000
1000
0010
0100
0000
0010
0000
,
1000
0000
0100
0010
0001
0000
0100
0000
,
0220
0000
0000
0000
0000
0330
0000
0101
,
0000
0000
1100
0000
0000
1001
0000
0000
,
0011
0000
0010
0001
0100
0000
0010
0000
,
1000
0001
1000
0100
0010
1000
0010
0001
,
1000
0000
0100
1000
0001
0000
1000
0000
,
0010
0100
0010
1000
0001
0010
0100
1000
,
0010
1000
0100
1000
0010
0000
0100
0110
,
0000
0010
1000
0001
0011
0010
0000
1100
,
0000
1000
0001
0100
0110
0000
0010
0001
,
0010
1000
0100
0010
0001
1000
0001
0100
,
0010
0000
0000
0000
;

//--------------- dance-single - ----------------
#NOTEDATA:;
#STEPSTYPE:dance-single;
#DESCRIPTION:;
#DIFFICULTY:Challenge;
#METER:17;
#RADARVALUES:0.949296,1.111964,0.812547,0.111308,0.56767,597,524,73,10,0,0,0,0,0,0.949296,1.111964,0.812547,0.111308,0.56767,597,524,73,10,0,0,0,0,0;
#CHARTNAME:;
#CHARTHASH:2827757489;
#BANNER:;
#CHARTSTYLE:;
#METERF:0.000000;
#LASTSECONDHINT:88.671211;
#CREDIT:ZSL;
#NOTES:
0000
0000
0000
0000
,
0000
0000
0000
0000
,
0000
0000
0000
0000
,
0000
0000
0000
0000
,
0000
0000
0000
0000
,
0000
0000
0000
0000
,
1001
0001
0000
0010
0110
0110
0000
1000
,
0000
1010
0101
0000
0001
0000
1000
0000
,
0010
0000
0000
0000
0100
0000
0001
1000
0010
0000
1000
0000
0100
0000
0010
0000
,
0011
0000
0000
0000
0001
0000
1000
0000
0010
0000
0100
0001
0010
0000
0100
0000
,
1100
0000
0000
0000
1000
0000
0100
0010
0001
0000
0010
0000
0100
0000
1000
0000
,
0010
1000
0010
1000
0001
0000
0100
0000
0010
0100
0010
0100
0001
0010
0100
1000
,
0001
0000
1000
0010
0101
0000
0010
0000
,
1000
0000
0100
0010
1001
0000
0001
0000
,
0202
0000
0000
0000
0000
0303
0000
0110
,
0000
0000
1010
0000
0000
1100
0000
0000
,
0011
0000
0000
0000
0001
0000
1000
0100
0010
0000
0000
0000
0001
0000
0000
0000
,
1100
0000
1000
0000
1010
0000
0010
0100
0001
0000
1000
0000
0100
0000
0010
0001
,
0100
0000
0000
0000
0010
0000
1000
0001
0010
0000
0000
0000
0100
0000
0000
0000
,
0110
0000
0100
0000
1100
0000
1000
0001
0010
0000
0100
0000
1000
0000
0010
1000
,
0100
0000
0000
0000
0010
0000
0001
0100
0010
0000
0000
0000
1000
0000
0000
0000
,
1010
0000
0010
0000
0110
0000
0100
0001
0010
0000
0100
0000
1000
0000
1001
0000
,
0101
0000
0000
0000
0010
0000
1000
0001
0010
0000
0000
0000
0100
0000
0000
0000
,
1000
0000
0010
0000
0100
0010
0100
0010
1000
0001
1000
0001
0010
0100
1000
0001
,
0010
0000
0000
0000
0100
1000
0001
0000
0000
0000
0100
0001
1000
0000
0000
0000
,
0010
1000
0100
0000
0000
0000
0010
0001
0100
0000
0000
0000
0010
1000
0001
0000
,
0010
0001
2000
0000
0000
0000
0000
0000
0000
0000
0000
0000
3010
0000
0000
0000
,
0000
0000
0000
0000
1000
0001
0010
0000
0000
0000
0100
1000
0010
0000
0000
0000
,
1000
0100
0020
0000
0000
0000
0000
0000
0030
0000
0000
0000
0001
1000
0100
0000
,
0000
0000
0000
0000
1000
0010
0200
0000
0000
0000
0000
0000
0310
0000
0100
0000
,
2002
0000
0003
0000
,
3001
1000
0001
1000
0001
0100
0001
0100
0010
0000
0000
0000
0000
0000
0000
0000
,
1001
0000
0000
0000
1000
0010
0100
0000
0001
0000
0010
0001
1000
0000
0010
0000
,
0100
0001
0010
0000
0001
0000
1000
0100
0010
0000
0001
0000
0100
0010
1000
0000
,
0100
0010
0001
0000
1000
0000
0010
1000
0001
0000
0100
0000
0110
0000
0010
0000
,
1000
0000
0000
0000
0011
0000
0001
0000
1000
0001
1000
0001
0100
0010
0100
0010
,
1000
0000
0000
0000
0001
0000
0010
0001
1000
0000
0010
0000
0100
0000
0001
0010
,
0100
0000
0000
0000
1000
0100
0010
0000
0001
0000
0100
0010
1000
0000
0001
0000
,
0010
0001
1000
0000
0010
0000
0100
0001
0010
0000
0100
0000
1000
0000
0010
0000
,
0100
0001
0100
0000
1010
0000
1000
0000
,
1100
0000
0000
0000
0100
0000
1000
0010
0100
0000
0001
0000
0010
0000
0001
0000
,
0110
0000
0000
0000
1000
0000
0010
0100
0001
0000
1000
0000
0100
0000
0010
0000
,
1001
0000
0000
0000
0001
0000
0100
0010
1000
0000
0001
0000
0010
0000
0100
0000
,
0011
0000
0000
0000
1000
0000
0010
0000
0100
0001
0100
0001
0010
0001
1000
0100
,
0010
0000
0000
0000
0001
0000
1000
0010
0100
0000
0001
0000
0010
0000
0100
0000
,
1001
0000
0001
0010
1100
0001
0100
0010
,
1010
1000
0100
0010
1001
0001
0100
0010
,
2001
0010
0001
3010
1002
0010
1000
0013
,
1100
1100
0000
0001
0101
0110
0000
1000
,
0000
1010
0110
0000
0001
0000
0010
0000
,
1100
0000
0000
0000
0001
0000
1000
0010
0100
0000
0010
0000
1000
0000
1001
0000
,
0001
0000
0000
0000
0100
0000
0010
0000
1000
0000
0100
0010
0001
0000
0100
0000
,
0110
0000
0000
0000
1000
0000
0010
0100
0001
0000
0010
0000
0100
0000
1100
0000
,
1000
0000
0000
0000
0001
0000
1000
0000
0001
0100
0010
1000
0100
0010
0001
1000
,
0010
0000
1000
0001
1001
1000
0100
0010
,
0011
0001
0010
0100
1100
1000
0010
0100
,
0101
0000
0001
1000
0010
0000
1000
0001
0010
0000
0100
1000
0010
0000
0100
0001
,
0010
0000
0100
0000
1000
0000
0010
0000
1000
0100
0010
0001
0100
0010
1000
0001
,
0010
0000
0000
0000
0001
0000
0100
0001
0010
0000
0100
0000
1000
0000
1010
0000
,
0010
0000
0000
0000
1000
0000
0010
0000
0100
0000
0001
0010
0100
0000
1000
0000
,
1010
0000
0000
0000
0001
0000
1000
0010
0100
0000
0001
0000
0010
0000
0110
0000
,
1000
0000
0000
0000
0001
0000
0100
0000
0010
0100
0010
0100
0001
1000
0001
1000
,
0100
0000
0010
0001
0101
0000
0010
0000
,
1100
0000
0001
1000
0110
0000
0010
0000
,
2002
0000
0000
0000
0000
3003
0000
1100
,
0000
0000
0101
0000
0000
1001
0000
0000
,
1010
0000
0000
0000
0010
0000
0100
0001
0010
0000
0000
0000
0100
0000
0000
0000
,
0110
0000
0010
0000
1001
0000
0001
0010
0100
0000
1000
0000
0010
0000
0100
0001
,
0010
0000
0000
0000
0100
0000
1000
0001
0100
0000
0000
0000
0010
0000
0000
0000
,
1001
0000
1000
0000
0101
0000
0001
0000
1000
0100
1000
0001
0100
0001
0010
0001
,
0100
0001
0101
0100
0110
0010
1000
1100
,
0001
1000
0100
0010
0011
1001
1000
1010
,
0010
0101
1000
0100
0011
0010
0001
1000
,
0010
1000
0100
0010
0001
1000
0001
0010
0100
1000
0010
0100
0001
1000
0100
1000
,
0010
0000
0000
0000
;
