#VERSION:0.83;
#TITLE:序号1127;
#SUBTITLE:;
#ARTIST:邹天恒;
#TITLETRANSLIT:No.1127;
#SUBTITLETRANSLIT:;
#ARTISTTRANSLIT:Zou Tianheng;
#GENRE:;
#CREDIT:;
#MUSIC:No.1127.ogg;
#BANNER:;
#BACKGROUND:;
#CDTITLE:;
#SAMPLESTART:0.315;
#SAMPLELENGTH:20.000;
#SELECTABLE:YES;
#OFFSET:0.448;
#BPMS:0.000=232.000;
#STOPS:;
#SPEEDS:0.000=1.000=0.000=0;
#SCROLLS:0.000=1.000;
#TICKCOUNTS:0.000=4;
#TIMESIGNATURES:0.000=4=4;
#LABELS:0.000=Song Start;
#COMBOS:0.000=1;
#ORIGIN:;
#TAGS:;
#PREVIEWVID:;
#JACKET:;
#CDIMAGE:;
#DISCIMAGE:;
#BGCHANGES:;
#FGCHANGES:;

//--------------- dance-single - ----------------
#NOTEDATA:;
#STEPSTYPE:dance-single;
#DESCRIPTION:;
#DIFFICULTY:Beginner;
#METER:6;
#RADARVALUES:0.225845,0.242483,0,0.007637,0,207,207,0,1,0,0,0,0,0,0.225845,0.242483,0,0.007637,0,207,207,0,1,0,0,0,0,0;
#CHARTNAME:;
#CHARTHASH:1750741818;
#BANNER:;
#CHARTSTYLE:;
#METERF:0.000000;
#LASTSECONDHINT:130.931320;
#CREDIT:ZSL;
#NOTES:
0000
0000
0000
0000
,
0000
0000
0000
0000
,
0000
0000
0000
0000
,
0001
0000
1000
0000
,
0010
0000
0000
0000
,
1000
0000
0010
0000
,
0100
0000
0000
0000
,
0001
0000
1000
0000
,
0001
0000
0000
0000
,
0010
0000
0100
0000
,
1000
0000
0100
0000
,
0010
0000
0001
0000
,
1000
0000
0000
0000
,
0010
0000
0100
0000
,
0001
0000
0010
0000
,
0100
0000
1000
0000
,
0001
0000
0000
0000
,
0100
0000
0010
0000
,
1000
0000
0001
0000
,
0010
0000
0100
0000
,
0010
0000
0000
0000
,
0100
0000
1000
0000
,
0001
0000
1000
0000
,
0010
0000
0100
0000
,
0001
0000
0000
0000
,
0100
0000
0100
0000
,
0010
0000
0010
0000
,
1000
0000
1000
0000
,
0001
0000
0000
0000
,
0010
0000
0010
0000
,
0100
0000
0100
0000
,
1000
0000
1000
0000
,
0001
0000
0000
0000
,
1000
0000
1000
0000
,
0010
0000
0010
0000
,
0100
0000
0100
0000
,
0001
0000
0000
0000
,
0010
0000
0010
0000
,
0100
0000
0100
0000
,
1000
0000
1000
0000
,
0100
0000
0000
0000
,
1000
0000
0000
0000
,
0001
0000
0000
0000
,
0100
0000
0000
0000
,
0010
0000
0000
0000
,
1000
0000
0001
0000
,
0100
0000
0000
0000
,
0010
0000
1000
0000
,
0100
0000
0010
0000
,
0100
0000
1000
0000
,
0010
0000
0100
0000
,
0010
0000
1000
0000
,
0100
0000
0010
0000
,
0100
0000
1000
0000
,
0010
0000
0100
0000
,
0001
0000
1000
0000
,
0100
0000
0000
0000
,
0010
0000
0001
0000
,
1000
0000
0000
0000
,
0010
0000
0010
0000
,
1000
0000
0000
0000
,
0001
0000
1000
0000
,
0100
0000
0000
0000
,
0010
0000
0100
0000
,
1000
0000
0000
0000
,
0001
0000
1000
0000
,
0010
0000
0000
0000
,
0100
0000
0001
0000
,
0010
0000
0000
0000
,
0001
0000
0100
0000
,
0010
0000
0100
0000
,
0001
0000
1000
0000
,
0010
0000
0000
0000
,
1000
0000
0100
0000
,
0010
0000
0100
0000
,
1000
0000
0001
0000
,
0100
0000
0000
0000
,
0010
0000
0100
0000
,
0001
0000
0010
0000
,
0100
0000
0010
0000
,
0001
0000
0000
0000
,
0010
0000
0100
0000
,
1000
0000
0010
0000
,
0100
0000
0001
0000
,
1000
0000
0000
0000
,
0100
0000
0100
0000
,
1000
0000
1000
0000
,
0001
0000
0001
0000
,
0100
0000
0010
0000
,
1000
0000
1000
0000
,
0001
0000
0001
0000
,
0010
0000
0010
0000
,
0001
0000
0000
0000
,
0100
0000
0100
0000
,
0010
0000
0010
0000
,
1000
0000
1000
0000
,
0100
0000
0010
0000
,
0100
0000
0100
0000
,
1000
0000
1000
0000
,
0010
0000
0010
0000
,
0100
0000
0000
0000
,
0001
0000
1000
0000
,
0100
0000
0000
0000
,
1000
0000
0010
0000
,
0100
0000
0100
0000
,
0001
0000
1000
0000
,
0100
0000
0000
0000
,
0010
0000
0001
0000
,
0100
0000
0010
0000
,
0100
0000
0001
0000
,
0010
0000
0100
0000
,
0010
0000
0001
0000
,
0100
0000
0010
0000
,
0100
0000
0001
0000
,
0010
0000
0100
0000
,
1000
0000
0001
0000
,
0100
0000
0000
0000
,
0010
0000
1000
0000
,
0001
0000
0000
0000
,
0010
0000
0100
0000
,
1000
0000
0000
0000
,
0001
0000
0100
0000
,
0010
0000
1000
0000
,
0002
0000
0000
0000
,
0000
0000
0000
0000
,
0000
0000
0000
0000
,
0000
0000
0000
0000
,
0003
0000
0000
0000
;

//--------------- dance-single - ----------------
#NOTEDATA:;
#STEPSTYPE:dance-single;
#DESCRIPTION:;
#DIFFICULTY:Easy;
#METER:9;
#RADARVALUES:0.457145,0.436469,0,0.007637,0,419,419,0,1,0,0,0,0,0,0.457145,0.436469,0,0.007637,0,419,419,0,1,0,0,0,0,0;
#CHARTNAME:;
#CHARTHASH:3205619134;
#BANNER:;
#CHARTSTYLE:;
#METERF:0.000000;
#LASTSECONDHINT:130.931320;
#CREDIT:ZSL;
#NOTES:
0000
0000
0000
0000
,
0000
0000
0000
0000
,
0000
0000
0000
0000
,
0001
0100
0010
1000
,
0001
0000
1000
0000
,
0100
0010
0001
1000
,
0100
0000
0010
0000
,
0100
1000
0010
0100
,
0001
0000
0100
0000
,
0010
1000
0001
0010
,
0001
1000
0010
0000
,
0100
0010
1000
0001
,
0010
0100
0010
0000
,
0100
1000
0010
0100
,
0001
0100
0010
0000
,
1000
0001
0010
0001
,
0100
0010
1000
0000
,
0100
1000
0100
1000
,
0010
0100
0001
0000
,
1000
0010
0100
0001
,
0010
0100
1000
0000
,
0100
1000
0001
1000
,
0010
0100
0001
0000
,
0010
0100
0010
0001
,
0100
0010
1000
0000
,
0001
0010
0001
1000
,
0100
1000
0001
1000
,
0100
0010
0100
1000
,
0001
1000
0010
0000
,
1000
0010
1000
0001
,
0100
0001
1000
0001
,
0100
0010
0100
0001
,
1000
0001
0010
0000
,
0001
0100
0001
1000
,
0010
1000
0001
1000
,
0010
0100
0010
1000
,
0001
1000
0100
0000
,
1000
0100
1000
0001
,
0010
0001
1000
0001
,
0010
0100
0010
0001
,
1000
0001
0100
0000
,
0010
0000
1000
0000
,
0100
0000
0010
0000
,
0001
0000
1000
0000
,
0010
0000
0100
0000
,
0001
1000
0010
0100
,
0001
0010
0100
0000
,
1000
0001
0010
0100
,
0010
1000
0010
0001
,
1000
0001
0100
0010
,
0100
1000
0100
0001
,
0010
0100
1000
0100
,
0010
1000
0010
0001
,
0100
0010
1000
0010
,
0100
1000
0100
0001
,
1000
0100
1000
0000
,
0001
0100
0001
0000
,
0010
0100
1000
0100
,
0010
0001
1000
0000
,
0010
0010
0100
0100
,
0001
0000
0000
0000
,
1000
0100
0010
0000
,
0100
1000
0001
0000
,
0100
0010
0100
0001
,
0010
0000
0001
0000
,
1000
0010
1000
0001
,
0010
0000
0100
0000
,
1000
0001
0010
0001
,
0100
0000
0010
0000
,
1000
0001
1000
0100
,
0010
0100
1000
0000
,
0001
0100
0001
1000
,
0100
1000
0001
0000
,
0100
0001
0100
0010
,
1000
0000
1000
0000
,
0100
0010
0001
0010
,
0100
1000
0001
0000
,
0100
0010
0100
0010
,
1000
0100
0010
0000
,
0001
0010
0100
1000
,
0010
1000
0100
0000
,
0010
0100
1000
0001
,
0100
0010
1000
0000
,
0100
1000
0010
0100
,
1000
0100
0010
0000
,
1000
0100
0010
0001
,
0100
0001
0010
0100
,
1000
0100
0010
0001
,
0100
0001
1000
0000
,
0001
0100
0010
1000
,
0100
1000
0010
0100
,
0001
0100
0010
1000
,
0100
1000
0001
0000
,
1000
0010
0100
0001
,
0010
0001
0100
0010
,
1000
0010
0100
0001
,
0010
0001
1000
0000
,
0001
0010
0100
1000
,
0010
1000
0100
0010
,
0001
0010
0100
1000
,
0010
1000
0001
0000
,
0100
0001
0010
0000
,
0100
1000
0010
0000
,
1000
0100
0010
0001
,
0100
0010
0100
0001
,
1000
0001
0010
0100
,
1000
0010
0100
0000
,
0001
1000
0010
0100
,
0010
0001
0010
1000
,
0001
1000
0100
0010
,
0100
0001
0100
1000
,
0010
0100
0001
0100
,
0010
0001
0010
1000
,
0100
0010
0001
0010
,
0100
0001
0100
1000
,
0001
0100
0010
0000
,
0100
0001
0010
0000
,
0100
1000
0100
0010
,
0100
1000
0010
0000
,
0100
0001
0100
0001
,
1000
0100
0010
0000
,
0100
1000
0010
1000
,
0100
0100
0010
0000
,
0002
0000
0000
0000
,
0000
0000
0000
0000
,
0000
0000
0000
0000
,
0000
0000
0000
0000
,
0003
0000
0000
0000
;

//--------------- dance-single - ----------------
#NOTEDATA:;
#STEPSTYPE:dance-single;
#DESCRIPTION:;
#DIFFICULTY:Medium;
#METER:12;
#RADARVALUES:0.574977,0.630456,0.015275,0.022912,0,527,525,2,3,0,0,0,0,0,0.574977,0.630456,0.015275,0.022912,0,527,525,2,3,0,0,0,0,0;
#CHARTNAME:;
#CHARTHASH:3415955005;
#BANNER:;
#CHARTSTYLE:;
#METERF:0.000000;
#LASTSECONDHINT:130.931320;
#CREDIT:ZSL;
#NOTES:
0000
0000
0000
0000
,
0000
0000
0000
0000
,
0000
0000
0000
0000
,
0001
0010
0100
1000
,
0010
0100
0001
0000
,
1000
0100
0010
0100
,
1000
0001
0100
0000
,
0010
0100
0001
0010
,
0100
1000
0001
1000
,
0010
0100
0001
1000
,
0100
0000
0010
0100
0010
0000
0000
0000
,
0001
1000
0010
0100
,
1000
0000
0100
0010
0100
0000
0000
0000
,
0001
1000
0100
0010
,
0001
0000
1000
0010
1000
0000
0000
0000
,
0010
0100
0001
1000
,
0100
0000
0010
0001
0010
0000
0000
0000
,
0100
1000
0010
0100
,
0001
0000
1000
0100
0010
0000
0000
0000
,
0001
1000
0010
0100
,
0001
0000
0010
0100
1000
0000
0000
0000
,
0001
1000
0010
0100
,
0001
0000
1000
0010
1000
0000
0001
0000
,
0010
0100
1000
0100
,
0001
0000
0100
0010
0001
0000
0000
0000
,
1000
0000
0010
0000
1000
0001
1000
0000
,
0100
0000
0010
0000
0001
0010
0001
0000
,
0100
0000
0010
0000
1000
0010
1000
0000
,
0001
0010
0100
0000
,
1000
0000
0100
0000
1000
0001
1000
0000
,
0010
0000
0100
0000
0001
0100
0001
0000
,
0010
0000
0100
0000
1000
0100
1000
0000
,
0001
0100
0010
1000
,
0001
0000
0010
0000
0001
1000
0001
0000
,
0100
0000
0010
0000
1000
0010
1000
0000
,
0100
0000
0010
0000
0001
0010
0001
0000
,
1000
0010
0100
0000
,
0001
0000
0100
0000
0001
1000
0001
0000
,
0010
0000
0100
0000
1000
0100
1000
0000
,
0010
0000
0100
0000
0001
0100
0001
0000
,
1000
0100
0010
0100
,
1000
0000
0001
0000
0100
0000
0000
0010
,
0000
0000
0100
0000
0001
0000
0000
1000
,
0000
0000
0100
0000
0010
0000
0000
0001
,
0000
0100
0000
0000
0001
0000
1000
0000
,
0100
0010
0001
0010
,
0100
0000
1000
0000
0001
0100
0001
0000
,
0010
0000
0100
0000
1000
0001
0100
0000
,
0010
0000
0001
0000
0010
1000
0001
0000
,
0100
0000
0010
0000
1000
0001
0010
0000
,
0100
0000
0001
0000
0100
1000
0001
0000
,
1000
0000
0100
0000
0010
0001
1000
0000
,
0010
0000
0001
0000
0010
0100
0001
0000
,
1000
0000
0010
0000
0100
0001
1000
0000
,
0100
0000
0001
0000
0100
0010
0001
0000
,
1000
0000
0010
0000
0100
0000
0001
0100
,
0000
0001
0100
0000
0010
0000
1000
0000
,
0001
0000
0010
0000
0100
0000
1000
0100
,
0000
1000
0100
0010
0001
0000
1000
0000
,
0010
0100
0101
0001
,
2001
0000
0000
3001
,
0100
0010
0100
0001
,
0010
0100
1000
0000
,
0100
0010
0001
1000
,
0010
0100
0001
0000
,
0100
0010
1000
0001
,
0010
0001
0100
0000
,
0010
0100
0001
0010
,
1000
0010
0100
1000
,
0001
0100
0001
0010
,
0100
0000
0010
0001
0010
0000
0000
0000
,
0001
0100
0010
1000
,
0100
0000
0010
0100
0010
0000
0000
0000
,
0001
1000
0010
0100
,
0002
0000
0000
1003
0100
0000
0010
0000
,
0100
1000
0010
0100
,
0001
0000
1000
0100
1000
0000
0000
0000
,
0010
0100
0001
1000
,
0100
0000
0010
0001
1000
0000
0000
0000
,
0001
0100
0010
1000
,
0100
0000
1000
0001
0100
0000
0000
0000
,
0010
0100
0001
1000
,
0100
0000
1000
0010
0100
0000
0001
0000
,
1000
0010
1000
0100
,
0001
0000
0100
1000
0001
0000
0000
0000
,
1000
0000
0010
0000
0100
0001
1000
0000
,
0100
0000
0010
0000
0100
1000
0001
0000
,
0100
0000
0010
0000
0100
0001
0010
0000
,
0100
1000
0001
0000
,
1000
0000
0100
0000
0010
0001
1000
0000
,
0010
0000
0100
0000
0010
1000
0001
0000
,
0010
0000
0100
0000
0010
0001
0100
0000
,
0010
1000
0100
0010
,
0001
0000
0010
0000
0100
1000
0001
0000
,
0100
0000
0010
0000
0100
0001
1000
0000
,
0100
0000
0010
0000
0100
1000
0010
0000
,
0100
0001
1000
0000
,
0001
0000
0100
0000
0010
1000
0001
0000
,
0010
0000
0100
0000
0010
0001
1000
0000
,
0010
0000
0100
0000
0010
1000
0100
0000
,
0010
0001
1000
0001
,
0100
0000
0010
0000
1000
0000
0001
1000
,
0001
1000
0001
0000
0010
0000
0100
1000
,
0100
1000
0100
0000
0010
0000
0001
0000
,
1000
0010
0100
0000
0001
0010
0100
0000
,
1000
0001
1000
0010
,
0100
0000
0001
0000
1000
0100
1000
0000
,
0010
0000
0100
0000
0001
1000
0100
0000
,
0010
0000
1000
0000
0010
0001
1000
0000
,
0100
0000
0010
0000
0001
1000
0010
0000
,
0100
0000
1000
0000
0100
0001
1000
0000
,
0001
0000
0100
0000
0010
1000
0001
0000
,
0010
0000
1000
0000
0010
0100
1000
0000
,
0001
0000
0010
0000
0100
1000
0001
0000
,
0100
0000
1000
0000
0100
0010
1000
0000
,
0001
0000
0010
0000
0100
0000
0010
0001
,
0000
1000
0010
0000
0100
0000
0001
0000
,
1000
0000
0100
0000
0010
0000
0100
1000
,
0000
0001
0100
0010
1000
0000
0001
0000
,
0010
0001
0100
0010
,
1000
0001
0010
0100
,
1000
0001
1000
0000
0010
0100
0010
0000
,
0100
0001
0010
0000
0100
0000
0000
0000
,
2000
0000
0000
0000
,
0000
0000
0000
0000
,
0000
0000
0000
0000
,
0000
0000
0000
0000
,
3000
0000
0000
0000
;

//--------------- dance-single - ----------------
#NOTEDATA:;
#STEPSTYPE:dance-single;
#DESCRIPTION:;
#DIFFICULTY:Hard;
#METER:16;
#RADARVALUES:0.917562,0.921436,0.038186,0.022912,0.015275,841,836,5,3,0,0,0,0,0,0.917562,0.921436,0.038186,0.022912,0.015275,841,836,5,3,0,0,0,0,0;
#CHARTNAME:;
#CHARTHASH:3057292395;
#BANNER:;
#CHARTSTYLE:;
#METERF:0.000000;
#LASTSECONDHINT:130.931320;
#CREDIT:ZSL;
#NOTES:
0000
0000
0000
0000
,
0000
0000
0000
0000
,
0000
0000
0000
0000
,
0001
0100
0010
1000
0001
0010
0100
1000
,
0100
0010
0001
1000
0010
0000
0000
0000
,
1000
0001
0010
0001
0100
0010
1000
0000
,
0100
0010
0100
1000
0010
0000
0000
0000
,
0100
0001
0100
0010
1000
0001
0010
0100
,
1000
0001
0100
0010
1000
0000
0001
0000
,
0010
0100
1000
0100
0010
0001
0100
0010
,
1000
0100
1000
0001
0010
0000
0000
0000
,
0001
0100
0010
1000
0010
1000
0100
0010
,
1000
0010
0001
1000
0010
0000
0000
0000
,
0100
0001
1000
0100
0010
0100
1000
0000
,
0001
0100
0010
1000
0100
0000
0000
0000
,
1000
0010
1000
0010
0100
0001
0100
0001
,
1000
0100
0010
0001
0100
0000
0000
0000
,
0010
1000
0001
0010
0001
0100
0010
0100
,
0001
0010
1000
0010
0001
0000
0000
0000
,
0100
0010
1000
0001
0010
0100
1000
0000
,
0010
0100
1000
0100
0001
0000
0000
0000
,
1000
0100
0010
0001
0100
0010
1000
0000
,
0010
0100
0001
0010
0001
1000
0010
0000
,
0001
0010
0100
0010
1000
0001
1000
0100
,
0001
0100
1000
0001
0010
0000
0000
0000
,
0100
0100
0001
1000
0010
0100
0001
1000
,
0100
0100
0010
1000
0100
0010
0001
1000
,
0100
0100
0001
1000
0010
0100
0001
0010
,
0100
0100
0010
1000
0001
0000
0100
0000
,
0010
0010
0001
1000
0100
0010
0001
1000
,
0010
0010
0100
1000
0010
0100
0001
1000
,
0010
0010
0001
1000
0100
0010
0001
0100
,
0010
0010
0100
1000
0010
0100
0001
0000
,
0100
0100
1000
0001
0010
0100
1000
0001
,
0100
0100
0010
0001
0100
0010
1000
0001
,
0100
0100
1000
0001
0010
0100
1000
0010
,
0100
0100
0010
0001
1000
0000
0001
0000
,
0010
0010
1000
0001
0100
0010
1000
0001
,
0010
0010
0100
0001
0010
0100
1000
0001
,
0010
0010
1000
0001
0100
0010
1000
0100
,
0010
0010
0100
0001
0010
0001
1000
0000
,
0100
0000
0010
0000
0001
0000
1000
0010
,
0000
0100
0010
0000
1000
0000
0001
0010
,
0000
0100
0010
0000
0001
0000
1000
0010
,
0000
0100
0000
0001
0010
0000
0001
0000
,
1000
0001
0010
0100
1000
0100
0010
0001
,
0100
0010
0100
0001
0010
0100
1000
0000
,
0001
0100
0100
1000
0001
0100
0100
1000
,
0001
0100
1000
0100
0001
0010
1000
0010
,
0001
0010
0010
1000
0001
0010
0010
1000
,
0001
0010
1000
0010
0001
0100
1000
0100
,
0001
0100
0100
0010
0001
0100
0100
0010
,
0001
0100
1000
0100
0001
0010
1000
0010
,
0001
0010
0010
0100
0001
0010
0010
0100
,
0001
0010
1000
0010
0001
0100
1000
0100
,
0001
1000
0001
1000
0010
0100
0001
0100
,
0000
0001
1000
0100
0010
0100
1000
0000
,
0001
0100
0001
0100
0010
1000
0001
0010
,
0000
0100
1000
0100
1000
0001
0100
0001
,
0010
0110
1100
1001
,
0201
0000
0000
0000
0000
0000
0310
1000
,
0001
0000
0010
0000
0100
1000
0100
0010
,
0001
1000
0010
0000
,
1000
0100
0010
0001
1000
0010
0100
0001
,
0010
0100
1000
0001
0100
0000
0000
0000
,
0001
1000
0010
1000
0100
0010
0001
0000
,
1000
0010
0100
0001
0010
0000
0000
0000
,
0100
1000
0100
0010
0001
1000
0010
0100
,
1000
0100
0010
1000
0001
0000
1000
0000
,
0100
0010
0100
1000
0010
1000
0001
0010
,
0001
1000
0100
1000
0010
0000
0000
0000
,
1000
0100
0010
0001
0100
0001
1000
0010
,
0001
0010
1000
0001
0010
0000
0000
0000
,
0001
1000
0010
1000
0100
0010
0001
0000
,
2000
0000
0000
3001
0100
0010
1000
0000
,
0001
0010
0100
1000
0010
0100
0001
1000
,
0100
0010
0001
0100
0010
0000
0000
0000
,
0100
0010
1000
0001
1000
0100
0010
0001
,
1000
0010
0001
0010
1000
0000
0000
0000
,
0100
0010
0001
1000
0010
0100
0001
0000
,
0010
0100
0001
0100
1000
0000
0000
0000
,
0001
0100
0010
1000
0100
0010
0001
0000
,
0010
0100
1000
0001
0100
0001
0010
0000
,
1000
0010
0100
1000
0001
0010
0001
0100
,
1000
0100
0001
1000
0010
0000
0000
0000
,
0100
0100
0010
0001
1000
0010
0100
0001
,
0100
0100
1000
0001
0010
0100
1000
0010
,
0100
0100
0010
0001
1000
0010
1000
0001
,
0100
0100
0010
0010
1000
0000
0001
0000
,
0010
0010
0100
0001
1000
0100
0010
0001
,
0010
0010
1000
0001
0100
0010
1000
0100
,
0010
0010
0100
0001
1000
0100
1000
0001
,
0010
0010
0100
0100
1000
0001
0010
0000
,
0100
0100
0010
1000
0001
0010
0100
1000
,
0100
0100
0001
1000
0010
0100
0001
0010
,
0100
0100
0010
1000
0001
0010
0001
1000
,
0100
0100
0010
0010
0001
0000
1000
0000
,
0010
0010
0100
1000
0001
0100
0010
1000
,
0010
0010
0001
1000
0100
0010
0001
0100
,
0010
0010
0100
1000
0001
0100
0001
1000
,
0010
0010
0100
0100
0001
1000
0001
0000
,
0010
0100
1000
0001
0100
0000
0010
0100
,
0001
1000
0100
1000
0010
0000
0100
0001
,
0010
0100
1000
0100
0010
0000
0001
1000
,
0010
0100
0001
1000
0010
0000
0000
0000
1000
0100
0010
0001
1000
0000
0000
0000
,
0001
1000
0010
0100
0001
0100
0010
1000
,
0100
0010
0100
1000
0010
0100
0001
0000
,
1000
0100
0100
0001
1000
0100
0100
0001
,
1000
0100
0001
0100
1000
0010
0001
0010
,
1000
0010
0010
0001
1000
0010
0010
0001
,
1000
0010
0001
0010
1000
0100
0001
0100
,
1000
0100
0100
0010
1000
0100
0100
0010
,
1000
0100
0001
0100
1000
0010
0001
0010
,
1000
0010
0010
0100
1000
0010
0010
0100
,
1000
0010
0001
0010
1000
0100
0001
0100
,
1000
0001
1000
0010
0100
0001
0010
0100
,
0000
1000
0010
1000
0100
0010
0001
0000
,
0100
0010
1000
0001
0010
0100
1000
0010
,
0000
0100
0010
1000
0100
0010
0001
0000
,
1000
0100
0010
0001
0100
0100
1000
0000
,
0001
0100
0010
1000
0100
0100
0001
0000
,
1000
0010
0100
0001
0010
0010
1000
0100
,
0001
0100
1000
0000
1001
0000
0000
0000
,
0020
0000
0000
0000
,
0000
0000
0000
0000
,
0000
0000
0000
0000
,
0000
0000
0000
0000
,
0030
0000
0000
0000
;
