#VERSION:0.83;
#TITLE:Lights of Muse;
#SUBTITLE:;
#ARTIST:Ayatsugu_Otowa;
#TITLETRANSLIT:;
#SUBTITLETRANSLIT:;
#ARTISTTRANSLIT:;
#GENRE:;
#CREDIT:;
#MUSIC:Lights of Muse.ogg;
#BANNER:;
#BACKGROUND:;
#CDTITLE:;
#SAMPLESTART:53.418;
#SAMPLELENGTH:20.000;
#SELECTABLE:YES;
#OFFSET:0.572;
#BPMS:0.000=180.000;
#STOPS:;
#SPEEDS:0.000=1.000=0.000=0;
#SCROLLS:0.000=1.000;
#TICKCOUNTS:0.000=4;
#TIMESIGNATURES:0.000=4=4;
#LABELS:0.000=Song Start;
#COMBOS:0.000=1;
#ORIGIN:;
#TAGS:;
#PREVIEWVID:;
#JACKET:;
#CDIMAGE:;
#DISCIMAGE:;
#BGCHANGES:;
#FGCHANGES:;

//--------------- dance-single - ----------------
#NOTEDATA:;
#STEPSTYPE:dance-single;
#DESCRIPTION:;
#DIFFICULTY:Beginner;
#METER:4;
#RADARVALUES:0.176543,0.250593,0.029424,0,0,126,123,3,0,0,0,0,0,0,0.176543,0.250593,0.029424,0,0,126,123,3,0,0,0,0,0,0;
#CHARTNAME:;
#CHARTHASH:2147483647;
#BANNER:;
#CHARTSTYLE:;
#METERF:0.000000;
#LASTSECONDHINT:96.761337;
#CREDIT:ZSL;
#NOTES:
0000
0000
0000
0000
,
1000
0000
0000
0000
,
0001
0000
0000
0000
,
0010
0000
0000
0000
,
0100
0000
0000
0000
,
1000
0000
0000
0000
,
0001
0000
0000
0000
,
0100
0000
0000
0000
,
0010
0000
0010
0000
,
1000
0000
0000
0000
,
0001
0000
0010
0000
,
0001
0000
0000
0000
,
1000
0000
0010
0000
,
0100
0000
0000
0000
,
0001
0000
1000
0000
,
0100
0000
0000
0000
,
0110
0000
0000
0000
,
0010
0000
0001
0000
,
1000
0000
0000
0000
,
0010
0000
1000
0000
,
0001
0000
0000
0000
,
0100
0000
0010
0000
,
1000
0000
0000
0000
,
0001
0000
0010
0000
,
0100
0000
0100
0000
,
0010
0000
0100
0000
,
1000
0000
0000
0000
,
0001
0000
0100
0000
,
0010
0000
0000
0000
,
1000
0000
0010
0000
,
0100
0000
0001
0000
,
1000
0000
0000
0100
,
0100
0000
0000
0000
,
1000
0000
0001
0000
,
0010
0000
0000
0000
,
0100
0000
1000
0000
,
0010
0000
0000
0000
,
0100
0000
0001
0000
,
0100
0000
0010
0000
,
1000
0000
0001
0000
,
1000
0000
0000
0000
,
0001
0000
0010
0000
,
0100
0000
0010
0000
,
0001
0000
1000
0000
,
0010
0000
0100
0000
,
0010
0000
1000
0000
,
0100
0000
0010
0000
,
0100
0000
1000
0000
,
0010
0000
0100
0000
,
0001
0000
0010
0000
,
0100
0000
1000
0000
,
0010
0000
0100
0000
,
0001
0000
1000
0000
,
0001
0001
0001
0000
,
1000
1000
1000
0000
,
0100
0000
0010
0000
,
0000
0000
0000
0001
,
0001
0000
0000
0000
,
1000
0000
0010
0000
,
1000
0000
0000
0000
,
0001
0000
0010
0000
,
0100
0000
0000
0000
,
1000
0000
0001
0000
,
0100
0000
0000
0000
,
0110
0000
0000
0000
,
0001
0000
1000
0000
,
0010
0000
0100
0000
,
0001
0000
0010
0000
,
0100
0000
0010
0000
,
0100
0100
0100
0000
,
1000
1000
1000
0000
,
0010
0010
0100
0100
,
0000
0000
0000
0001
,
1001
0000
0000
0000
;

//--------------- dance-single - ----------------
#NOTEDATA:;
#STEPSTYPE:dance-single;
#DESCRIPTION:;
#DIFFICULTY:Easy;
#METER:7;
#RADARVALUES:0.364296,0.39379,0.009808,0,0,260,259,1,0,0,0,0,0,0,0.364296,0.39379,0.009808,0,0,260,259,1,0,0,0,0,0,0;
#CHARTNAME:;
#CHARTHASH:2147483647;
#BANNER:;
#CHARTSTYLE:;
#METERF:0.000000;
#LASTSECONDHINT:96.761337;
#CREDIT:ZSL;
#NOTES:
0000
0000
0000
0000
,
1000
0001
0010
0001
,
1000
0010
0100
0001
,
1000
0000
0100
0000
,
0010
0100
0010
0000
,
0001
0100
0001
0010
,
0100
1000
0010
0100
,
0001
1000
0100
0010
,
0100
0100
0100
0000
,
1000
0001
0100
0010
,
1000
0001
0010
0000
,
0100
0010
0001
1000
,
0010
0100
0001
0000
,
0100
0010
1000
0100
,
0010
0100
1000
0000
,
0001
0000
0000
1000
0000
0000
0001
0000
,
0100
0100
0000
0000
,
0010
0000
0000
1000
0000
0001
0000
0010
,
0000
0100
0000
0010
0000
0000
0000
0000
,
0100
0000
0000
1000
0000
0001
0000
0100
,
0000
0010
0000
0100
0000
0000
0000
0000
,
0001
0000
0000
1000
0000
0100
0000
0010
,
0000
0001
0000
1000
0000
0010
0000
0100
,
0000
0000
0000
0001
,
0100
0000
0010
0010
,
1000
0000
0000
0100
0000
0000
0000
0010
,
0000
0100
0000
1000
0000
0000
0000
0000
,
0001
0000
0100
0000
0010
0000
0000
0100
,
0000
0001
0000
0010
0000
0000
0000
0000
,
0100
0010
0001
1000
,
0010
0100
0010
1000
,
0100
0010
0001
0100
,
0010
0100
0001
0001
,
1000
0000
0000
0100
0000
0000
0010
0000
,
0001
1000
0000
0000
,
0001
0000
0000
0100
0000
0000
0010
0000
,
1000
0000
0000
0010
0000
0000
0100
0000
,
0001
1000
0100
0010
,
0001
1000
0010
0100
,
0001
0001
1000
1000
,
0100
0010
0100
0000
,
1000
0000
0001
0000
1000
0000
0000
0010
,
0000
1000
0000
1000
0000
0001
0010
0000
,
0100
0000
1000
0000
0001
1000
0000
0001
,
0000
0001
0000
0100
0000
0000
0000
0000
,
0001
0000
1000
0000
0001
0000
0000
0010
,
0000
0001
0000
0001
0000
1000
0010
0000
,
0100
0000
0001
0000
1000
0001
0000
1000
,
0000
1000
0000
0100
0000
0000
0000
0000
,
0010
0000
0100
0000
1000
0000
0000
0001
,
0000
0100
0000
0100
0000
0010
0100
0000
,
0001
0000
0010
0000
0100
1000
0000
1000
,
0000
0010
0000
0100
0001
0000
1000
0000
,
0001
0100
0010
0100
,
0001
1000
0100
0010
,
0001
0000
1000
0000
0010
0000
0100
0001
,
0000
0100
0000
0100
0000
0001
1000
0000
,
0001
1000
0100
0010
,
0001
1000
0010
0000
,
0100
0010
1000
0001
,
0010
0100
1000
0000
,
0100
0010
0001
0100
,
0010
0100
0001
0000
,
1000
0000
0000
0001
0000
0000
1000
0000
,
0100
0000
0100
0000
1000
0000
0001
1000
,
0000
0000
0010
0000
0100
0000
0010
1000
,
0000
0001
0000
0001
0000
0010
0100
0000
,
1000
0000
0001
0000
0100
0000
0010
1000
,
0000
0100
0000
0100
0010
0000
0100
0000
,
1000
0010
0100
0001
,
0010
0001
0100
0010
,
1000
0000
0001
0000
0010
0000
0100
1000
,
0000
0010
0000
0010
0000
1000
0001
0000
,
1001
0000
0000
0000
;

//--------------- dance-single - ----------------
#NOTEDATA:;
#STEPSTYPE:dance-single;
#DESCRIPTION:;
#DIFFICULTY:Medium;
#METER:11;
#RADARVALUES:0.538037,0.536986,0.04904,0,0.063752,384,379,5,0,0,0,0,0,0,0.538037,0.536986,0.04904,0,0.063752,384,379,5,0,0,0,0,0,0;
#CHARTNAME:;
#CHARTHASH:2147483647;
#BANNER:;
#CHARTSTYLE:;
#METERF:0.000000;
#LASTSECONDHINT:96.761337;
#CREDIT:ZSL;
#NOTES:
0000
0000
0000
0000
,
1000
0001
0000
0001
0000
0100
0000
0100
,
0000
0010
0000
0010
0000
1000
0000
0001
,
1000
0100
0000
0010
0100
0000
1000
0000
,
0001
0000
0100
0010
1000
0000
0010
0000
,
0100
0100
0001
0001
,
0010
0010
0100
0100
,
1000
0100
1000
0100
0010
0001
0010
0001
,
1000
1001
1001
0000
,
0001
0000
0100
0010
1000
0000
0010
0100
,
0001
0000
0000
1000
0000
0001
0000
0000
1000
0000
0100
0000
0010
0000
0000
0000
,
0100
0000
1000
0001
0100
0000
0010
1000
,
0100
0000
1000
0000
0010
0100
0010
0100
,
0001
0000
0010
0100
1000
0000
0100
0010
,
0001
0000
0000
1000
0000
0001
0000
0000
1000
0000
0010
0000
0100
0000
0000
0000
,
0001
0000
0000
0010
0000
0000
0001
0000
0000
0100
0000
0000
0010
0000
1000
0000
,
0001
0010
0001
0000
0010
0000
0100
0000
,
1000
0000
0001
0100
0000
0001
0000
0100
,
0000
0010
0000
1000
0000
0001
0010
0000
,
0001
0000
1000
0100
0000
1000
0000
0100
,
0000
0010
0000
0001
0000
1000
0010
0000
,
0100
0000
0001
1000
0000
0100
0000
0010
,
0000
0100
0000
1000
0000
0001
0000
0100
,
0010
0000
1000
0010
0000
0000
0100
0000
,
0001
1000
0000
0000
0001
0000
0010
0000
,
0100
0000
1000
0100
0000
1000
0000
0010
,
0000
0100
0000
0001
0000
1000
0001
0000
,
0100
0000
0010
0000
1000
0000
0001
0010
,
0000
0001
0000
0100
0000
0010
1000
0000
,
0001
0000
1000
0000
0100
0000
1000
0010
,
1000
0000
0001
0000
0100
0000
0001
0010
,
0001
1000
0100
0001
,
0100
0000
1000
0000
0001
1000
0001
1000
,
0010
0000
0100
0010
0000
0000
1000
0001
,
0010
0000
0100
0000
1000
0000
0001
0010
,
0001
0000
1000
0010
0000
0000
0100
0000
,
0010
0000
0000
1000
0000
0000
0001
0000
0010
0000
0000
0000
0100
0000
0000
0000
,
1000
0001
1000
0001
0100
0000
0010
0000
,
1000
0100
0010
0001
,
1000
0010
1000
0010
0100
0001
0100
0001
,
1000
0000
0001
0000
1000
0100
0010
0001
,
0000
0000
1000
0000
0010
1000
0000
0010
,
1000
0001
0010
0100
0000
1000
0001
0000
,
0100
0000
0001
0000
0010
0100
0000
1000
,
0000
0100
0000
0010
0001
0100
0010
1000
,
0000
0000
0001
0000
0010
0001
0000
0010
,
0001
1000
0010
0100
0000
0001
1000
0000
,
0100
0000
1000
0000
0010
0100
0000
0001
,
0000
0100
0000
0010
1000
0001
0010
0100
,
0000
0000
1000
0000
0010
0100
0000
0010
,
1000
0100
0010
0001
0000
1000
0010
0000
,
0100
0000
0001
0000
0010
0100
0000
1000
,
0000
0001
0000
1000
0100
1000
0001
0100
,
0010
0000
1000
0001
1000
0000
0100
0000
,
0010
0000
0100
1000
0010
0000
0100
0000
,
0001
0000
0100
0010
0100
0000
0001
1000
,
0000
1001
0000
0101
0000
0001
1000
0000
,
1000
0000
0100
0010
0001
0000
0010
0100
,
1000
0000
0000
0001
0000
1000
0000
0000
0001
0000
0100
0000
0010
0000
0000
0000
,
0100
0000
0001
1000
0100
0000
0010
0001
,
0100
0000
0001
0000
0010
0100
0010
0100
,
1000
0000
0010
0100
0001
0000
0100
0010
,
1000
0000
0000
0001
0000
1000
0000
0000
0001
0000
0010
0000
0100
0000
0000
0000
,
1000
0000
0000
0010
0000
0000
1000
0000
0000
0100
0000
0000
0010
0000
0001
0000
,
1000
0010
1000
0000
0010
0000
0100
0001
,
1000
0000
0100
0000
0010
0100
0010
0100
,
1000
0001
0100
0010
0000
1000
0010
0000
,
0100
0000
0001
0000
0010
0100
0001
0100
,
0000
1000
0000
0010
0000
0100
0001
0000
,
1000
0000
0100
1000
0010
0000
0100
0001
,
0010
0000
0100
1000
0001
0000
0010
0001
,
1000
0001
0100
0010
0001
0010
0100
0001
,
0000
1000
0000
0100
0000
0010
0001
0000
,
1001
0000
0000
0000
;

//--------------- dance-single - ----------------
#NOTEDATA:;
#STEPSTYPE:dance-single;
#DESCRIPTION:;
#DIFFICULTY:Hard;
#METER:14;
#RADARVALUES:0.783236,0.75178,0.598286,0,0.289335,559,498,61,0,0,0,0,0,0,0.783236,0.75178,0.598286,0,0.289335,559,498,61,0,0,0,0,0,0;
#CHARTNAME:;
#CHARTHASH:2147483647;
#BANNER:;
#CHARTSTYLE:;
#METERF:0.000000;
#LASTSECONDHINT:96.761337;
#CREDIT:ZSL;
#NOTES:
0000
0000
0000
0000
,
1000
0001
0000
0001
0000
0010
0000
0010
,
0000
0100
0000
0100
0000
1000
0000
1000
,
0010
0000
0100
0000
0000
0000
0010
1000
0001
0000
0000
0000
0010
0000
0001
1000
,
0100
0010
0001
0100
0010
0000
1000
0000
,
0001
0100
0001
0010
1000
0010
0001
0100
,
0010
1000
0001
0100
1000
0100
0001
1000
,
0100
0000
0010
0000
0001
0000
0100
0000
0010
1000
0010
1000
0010
1000
0010
1000
,
0010
0110
0101
0001
,
1000
0100
0010
0001
1000
0100
0010
0001
,
0100
0010
0000
1000
0000
0001
0000
0100
0001
0000
1000
0000
0010
0000
0100
0000
,
0001
0010
0100
0010
0001
1000
0010
0100
,
0001
0000
1000
0000
0100
0000
1000
0000
0100
0010
0100
0000
0010
0001
0010
0000
,
0001
0100
0010
1000
0001
0100
0010
1000
,
0100
0010
0000
0001
0000
1000
0000
0100
1000
0000
0001
0000
0010
0000
0100
0000
,
1000
0001
0000
0100
0010
0000
1000
0010
0000
1000
0100
0000
0010
0000
0001
0000
,
1000
0001
1000
0001
1000
0000
0000
0000
0010
0000
0100
0000
0001
0000
0000
0000
,
1001
0000
1000
1100
0000
0010
0000
0011
,
0000
0100
0000
1100
0000
0100
0010
0000
,
0011
0000
1000
1010
0000
0100
0000
0101
,
0000
0010
0000
1010
0000
0010
0100
0000
,
1001
0000
0100
0110
0000
1000
0000
1001
,
0000
0100
0000
0110
0000
0001
0000
0110
,
1000
0000
0001
0100
0001
0000
0110
0000
,
1000
0010
1000
0000
0100
0010
0001
1000
,
1100
0100
0000
1001
0000
0001
0000
0101
,
0000
0100
0000
1010
0000
1000
0010
0000
,
0110
0000
0100
0000
1001
0000
1000
1100
,
0000
0010
0000
1001
0000
0001
0100
0000
,
0010
0000
0100
0001
0010
0000
0100
1000
,
0010
0000
1000
0100
0010
0000
1000
0010
,
0001
0100
0010
1000
0001
0100
1000
0100
,
0001
0000
0010
0000
0100
0000
1000
0000
0100
1000
0100
1000
0100
1000
0100
1000
,
0001
0000
0100
0110
0010
0000
1000
0100
,
0011
0000
1001
0000
1000
0010
0100
0000
,
0001
0100
0001
0010
0100
0000
1000
0001
,
0011
0000
0000
0110
0000
0000
1100
0000
1000
0000
0000
0000
1001
0000
0000
0000
,
0001
0100
0010
0001
0010
1000
0001
0010
,
1000
0010
0001
1000
0010
0100
0001
1000
,
0010
0000
1000
0000
0100
0000
0010
0000
0001
0000
1000
0000
0010
1000
0001
0100
,
0010
0000
1010
0000
0001
1000
0100
0010
,
0001
0000
0000
0000
1000
0000
0000
0000
1010
0000
1000
0000
0000
0000
0001
0100
,
0010
1000
0100
0010
0000
0001
0100
0000
,
0110
0000
0010
0000
0101
0100
0000
1100
,
0000
0011
0000
0001
1000
0001
0010
0001
,
0100
0000
0000
0000
0010
0000
0000
0000
1001
0000
0001
0000
0000
0000
1000
0100
,
0010
0001
0100
0010
0000
1000
0100
0000
,
0110
0000
0010
0000
1100
0100
0000
0101
,
0000
1010
0000
1000
0010
0100
0001
0010
,
0100
0000
0000
0000
1000
0000
0000
0000
1010
0000
0100
0000
0000
0000
0001
1000
,
0010
1000
0100
0010
0000
0001
0100
0000
,
0110
0000
1001
0000
0011
1000
0000
0110
,
0000
1000
0000
1001
0001
1000
0010
0000
,
0100
0001
0010
0001
1000
0010
1000
0100
,
0001
0100
1000
0010
0001
0010
0100
0001
,
1000
0000
0010
0000
0100
0000
0001
0000
0010
0100
0010
0100
0010
0100
0010
0000
,
0000
0110
0000
0100
0000
0010
1001
0000
,
0001
0010
0100
1000
0001
0010
0100
1000
,
0010
0100
0000
0001
0000
1000
0000
0010
1000
0000
0001
0000
0100
0000
0010
0000
,
1000
0100
0010
0100
1000
0001
0100
0010
,
1000
0000
0001
0000
0010
0000
0001
0000
0010
0100
0010
0000
0100
1000
0100
0000
,
1000
0010
0100
0001
1000
0010
0100
0001
,
0010
0100
0000
1000
0000
0001
0000
0010
0001
0000
1000
0000
0100
0000
0010
0000
,
0001
1000
0000
0010
0100
0000
0001
0100
0000
0001
0010
0000
0100
0000
1000
0000
,
0001
1000
0001
1000
0001
0000
0000
0000
1000
0000
0001
0000
0100
0000
0101
0000
,
0000
0000
0000
0000
0001
0000
1000
0000
0100
0010
0100
0010
0001
0010
0001
0010
,
0001
1000
0010
0100
0000
0010
0110
0000
,
0101
0000
0000
0000
1010
0000
0000
0000
1000
0000
0100
0000
0010
0001
1000
0000
,
0000
0010
0000
0110
0000
1000
1001
0000
,
0001
0100
1000
0100
0010
1000
0100
0010
,
1000
0010
0001
0100
1000
0100
0001
0010
,
0100
0000
1000
0000
0001
0000
1000
0000
0010
0100
0001
0100
0010
0100
0001
0000
,
0000
0101
0000
0011
0000
1100
1001
0000
,
0110
0000
0000
0000
;

//--------------- dance-single - ----------------
#NOTEDATA:;
#STEPSTYPE:dance-single;
#DESCRIPTION:;
#DIFFICULTY:Challenge;
#METER:17;
#RADARVALUES:1.099893,1.181369,0.608094,0,0.951372,785,723,62,0,0,0,0,0,0,1.099893,1.181369,0.608094,0,0.951372,785,723,62,0,0,0,0,0,0;
#CHARTNAME:;
#CHARTHASH:967878130;
#BANNER:;
#CHARTSTYLE:;
#METERF:0.000000;
#LASTSECONDHINT:96.761337;
#CREDIT:ZSL;
#NOTES:
0000
0000
0000
0000
,
1000
0100
1000
0010
1000
0001
0100
0010
,
1000
0100
0010
0001
1000
0010
0100
0001
,
0010
0000
0100
0000
1000
0000
0001
1000
0100
0000
0010
0000
0001
0000
1000
0010
,
0100
0000
0001
0000
1000
0000
0001
0000
0010
0000
0100
0000
1000
0000
0001
0100
,
0010
0000
1000
0000
0100
0000
0010
0100
1000
0000
0001
0000
0100
0000
0010
0100
,
0001
0000
1000
0000
0100
0000
0010
0001
0100
0000
0001
0000
1000
0000
0010
0000
,
1000
0100
1000
0100
0010
0001
0010
0001
1000
0010
1000
0010
0100
0001
0100
0001
,
0010
0110
1001
1000
,
0001
0100
0001
0100
0001
1000
0100
0000
1000
0100
1000
0100
1000
0001
0100
0000
,
0010
1000
0000
0010
0000
0100
0000
0001
0010
0100
1000
0001
1000
0001
0100
0000
,
0010
1000
0001
1000
0100
0000
0010
0000
0100
1000
0001
0000
0100
0000
0010
0000
,
0001
0010
0100
0010
1000
0001
0010
0100
1000
0100
1000
0000
0001
0100
0001
0000
,
0010
0100
1000
0100
0010
0001
1000
0000
0010
0100
0001
0100
0010
1000
0001
0000
,
0010
0001
0000
0100
0000
0010
0000
1000
0100
0010
0100
1000
0010
0100
0001
0000
,
1000
0001
0000
0010
0100
0000
0001
0100
0000
1000
0001
0000
0100
0010
0100
0010
,
0001
0010
0100
0001
1000
0000
0000
0000
0001
1000
0001
1000
0001
0000
0000
0000
,
0011
0010
0100
1100
1000
0001
0100
0110
,
0010
1000
0100
0110
0010
0001
1000
0000
,
1010
0010
0100
0101
0001
0010
0100
1100
,
1000
0001
0100
0010
0100
0001
1000
0100
0010
0001
1000
0010
0100
0000
0001
0000
,
1001
1000
0100
0011
0001
0100
0010
1001
,
1000
0000
0001
0000
0100
0000
1010
0000
1000
0000
0100
0000
0010
0000
0100
1000
,
0010
0000
0000
0000
0100
0000
0001
0000
1000
0000
0001
1000
0100
0000
0000
0000
,
0010
0000
0001
0000
0100
0000
0010
0000
1000
0001
0100
0000
0001
0000
0000
0000
,
1100
1000
0001
0110
1000
0001
0100
1010
,
0010
0100
0001
0011
0010
0100
1000
0000
,
0101
0001
1001
1000
1100
0100
0010
1001
,
0001
0100
0010
1000
0100
1000
0010
0100
0001
1000
0100
0010
0001
0000
1000
0000
,
0010
1000
0100
1000
0010
1000
0100
0010
,
0001
0010
0100
1000
0010
0100
0001
0010
,
0100
0010
0100
1000
0001
0000
0100
0000
0010
0100
0010
1000
0001
0000
0010
0000
,
0100
1000
0001
0010
0100
0000
1000
0000
0001
0100
0010
1000
0001
0010
0100
0000
,
0110
0010
0001
1001
1000
0010
0110
0100
,
0101
0001
1001
0000
1000
0000
0100
0010
,
0011
0001
1000
1010
0010
0000
1000
0100
,
0011
0000
0000
0101
0000
0000
1010
0000
0001
0000
0000
0000
1000
0000
0010
0000
,
1000
0100
1000
0100
1000
0000
0001
0000
0100
0010
0100
0010
0100
0000
0001
0000
,
1000
0100
0010
0001
1000
0000
0010
0000
0100
0001
1000
0010
0100
0000
0001
0000
,
0010
0100
1000
0100
0010
0001
1000
0001
0100
0010
0100
0001
0010
0100
1000
0001
,
0100
0000
0000
0000
0010
0000
0100
0000
0001
1000
0100
0010
0001
0000
0011
0000
,
0010
0000
0100
0000
1000
0000
0001
0000
0101
0000
0100
0000
0010
0000
1000
0001
,
0010
0100
1000
1001
0000
0001
0100
0010
,
1010
0000
1000
0000
0100
0000
0010
0000
0110
0000
0100
0000
1000
0000
0010
0100
,
0001
0000
0010
0100
1000
0000
0010
0100
0001
0000
1000
0000
0010
0000
1010
0000
,
1000
0000
0001
0000
0010
0000
0100
0000
1100
0000
1000
0000
0010
0000
0100
0001
,
1000
0001
0010
0110
0000
0100
1000
0001
,
0101
0000
0100
0000
0010
0000
1000
0000
1100
0000
0100
0000
0010
0000
0100
0010
,
0001
0000
0100
0010
1000
0000
0100
0010
0001
0000
1000
0000
0010
0000
0101
0000
,
0100
0000
0001
0000
0010
0000
0100
0000
0011
0000
0010
0000
0001
0000
1000
0001
,
0100
0001
0010
1100
0000
1000
0010
0100
,
1001
0000
0001
0000
0010
0000
0100
0000
0110
0000
0010
0000
0001
0000
0100
0010
,
1000
0000
0100
0010
0001
0000
0100
0010
1000
0000
0010
0000
0100
0000
0001
0000
,
1001
1000
0100
0010
0011
0001
1000
0010
,
0110
0100
0001
1000
1100
0100
0010
0001
,
0100
0001
0100
0001
1000
0010
1000
0010
1000
0100
0010
0001
0100
0010
1000
0000
,
0000
1010
0000
0101
0000
0001
1001
0000
,
1000
0100
1000
0100
1000
0001
0100
0000
0001
0100
0001
0100
0001
1000
0100
0000
,
0010
0001
0000
0010
0000
0100
0000
1000
0010
0100
0001
1000
0001
1000
0100
0000
,
0010
0001
1000
0001
0100
0000
0010
0000
0100
0001
1000
0000
0100
0000
0010
0000
,
1000
0010
0100
0010
0001
1000
0010
0100
0001
0100
0001
0000
1000
0100
1000
0000
,
0010
0100
0001
0100
0010
1000
0001
0000
0010
0100
1000
0100
0010
0001
1000
0000
,
0010
1000
0000
0100
0000
0010
0000
0001
0100
0010
0100
0001
0010
0100
1000
0000
,
0001
1000
0000
0010
0100
0000
1000
0100
0000
0001
1000
0000
0100
0010
0100
0010
,
1000
0010
0100
1000
0001
0000
0000
0000
0010
0000
0100
0000
1000
0000
1010
0000
,
0010
0000
0100
0000
1000
0000
0100
0000
0001
1000
0100
0010
0001
0100
0010
1000
,
0100
0000
0010
0000
0001
0000
1001
0000
1000
0000
0010
0000
0100
0000
0001
0010
,
0100
0000
1000
0001
0100
0000
0001
0000
1000
0000
0100
0000
0001
0100
1000
0000
,
0000
1100
0000
0011
0001
1000
0001
0100
,
0001
1000
0010
1000
0001
1000
0010
1000
0100
0010
0001
0010
0100
0010
0001
0010
,
0100
1000
0001
0100
0010
1000
0001
0010
0100
1000
0010
0100
0001
1000
0100
0010
,
0001
1000
0001
1000
0010
0100
0001
0100
1000
0100
0001
0100
1000
0100
0001
0000
,
0000
0011
0000
1100
0000
1010
0101
0000
,
1001
0000
0000
0000
;
