#VERSION:0.83;
#TITLE:LiftOff;
#SUBTITLE:;
#ARTIST:MAYA AKAI;
#TITLETRANSLIT:;
#SUBTITLETRANSLIT:;
#ARTISTTRANSLIT:;
#GENRE:;
#ORIGIN:;
#TAGS:;
#CREDIT:;
#BANNER:;
#BACKGROUND:;
#PREVIEWVID:;
#JACKET:;
#CDIMAGE:;
#DISCIMAGE:;
#LYRICSPATH:;
#CDTITLE:;
#MUSIC:LiftOff.ogg;
#OFFSET:0.483000;
#SAMPLESTART:22.275000;
#SAMPLELENGTH:20.000000;
#SELECTABLE:YES;
#BPMS:0.000000=137.000000
;
#STOPS:;
#DELAYS:;
#WARPS:;
#TIMESIGNATURES:0.000000=4=4
;
#TICKCOUNTS:0.000000=4
;
#COMBOS:0.000000=1
;
#SPEEDS:0.000000=1.000000=0.000000=0
;
#SCROLLS:0.000000=1.000000
;
#FAKES:;
#LABELS:0.000000=Song Start
;
#BGCHANGES:;
#KEYSOUNDS:;
#ATTACKS:
;

//---------------dance-single - ----------------
#NOTEDATA:;
#CHARTNAME:;
#CHARTHASH:1548092726;
#STEPSTYPE:dance-single;
#BANNER:;
#DESCRIPTION:;
#CHARTSTYLE:;
#DIFFICULTY:Beginner;
#METER:5;
#METERF:0.000000;
#LASTSECONDHINT:132.655685;
#RADARVALUES:0.194328,0.219963,0.000000,0.028943,0.000000,188.000000,188.000000,0.000000,4.000000,0.000000,0.000000,0.000000,0.000000,0.000000,0.194328,0.219963,0.000000,0.028943,0.000000,188.000000,188.000000,0.000000,4.000000,0.000000,0.000000,0.000000,0.000000,0.000000;
#CREDIT:ZSL;
#NOTES:
0000
0000
0000
0000
,
0000
0000
0000
0000
,
0000
0000
0000
0000
,
0000
0000
0000
0000
,
2000
0000
0000
0000
,
3001
0000
0100
0000
,
0010
0000
1000
0000
,
0001
0000
0010
0000
,
0001
0000
1000
0000
,
0010
1000
0000
1000
,
0100
0100
0000
0010
,
0001
0000
1000
0000
,
0001
0000
0010
0010
,
0100
0000
1000
0001
,
1000
0000
0001
0100
,
0001
0000
0100
0010
,
0100
0000
0010
1000
,
0001
0000
1000
0001
,
0100
0000
0010
0100
,
0001
0000
1000
0001
,
0010
0000
0001
0001
,
0100
0000
0001
1000
,
0001
0000
1000
0100
,
1000
0000
0100
0010
,
0100
0000
0010
0001
,
1000
0000
0001
1000
,
0100
0000
0010
0100
,
1000
0000
0001
1000
,
0010
0000
0100
0100
,
0001
0000
0000
0000
,
0000
0000
0000
0000
,
0000
0000
0000
0000
,
2000
0000
0000
0000
,
3010
0000
0100
0010
,
0100
0000
0001
1000
,
0100
0000
0010
0001
,
1000
0000
0100
1000
,
0010
0000
0100
0001
,
1000
0000
0100
0010
,
0001
0000
0010
0100
,
1000
0000
0001
0000
,
1000
0000
0010
0100
,
0001
0000
0100
0010
,
1000
0000
0100
0010
,
0001
0000
0010
0100
,
1000
1000
1000
0000
,
0001
0001
0001
0000
,
0100
0100
0010
0010
,
1000
0000
0001
0002
,
0003
0000
0010
0001
,
1000
0000
1000
0001
,
0010
0000
0100
1000
,
0001
0000
0100
0010
,
0100
0000
0010
1000
,
0001
0000
0001
1000
,
0010
0000
0100
0001
,
1000
0000
0100
0010
,
0100
0000
0010
0001
,
0100
0000
0100
0001
,
0010
0000
0100
1000
,
0001
0000
0100
0010
,
1000
0000
0010
1000
,
0100
0000
0100
1000
,
0010
0000
0100
0001
,
1000
1000
0001
0001
,
0010
0000
0100
0000
,
1000
0000
0100
0000
,
0010
0000
0001
0000
,
1000
0000
0010
0000
,
1000
0000
0001
0000
,
0010
0001
0000
0001
,
0100
0100
0000
0010
,
1000
0000
0001
0000
,
1000
0000
0010
0010
,
0200
0000
0000
0000
,
0000
0000
0000
0000
,
0300
0000
0000
0000
;

//---------------dance-single - ----------------
#NOTEDATA:;
#CHARTNAME:;
#CHARTHASH:384901607;
#STEPSTYPE:dance-single;
#BANNER:;
#DESCRIPTION:;
#CHARTSTYLE:;
#DIFFICULTY:Easy;
#METER:7;
#METERF:0.000000;
#LASTSECONDHINT:132.655685;
#RADARVALUES:0.320435,0.384935,0.094063,0.173655,0.007236,310.000000,297.000000,13.000000,24.000000,0.000000,0.000000,0.000000,0.000000,0.000000,0.320435,0.384935,0.094063,0.173655,0.007236,310.000000,297.000000,13.000000,24.000000,0.000000,0.000000,0.000000,0.000000,0.000000;
#CREDIT:ZSL;
#NOTES:
0000
0000
0000
0000
,
0000
0000
0000
0000
,
0000
0000
0000
0000
,
0000
0000
0000
0000
,
2000
0000
0000
0000
,
3001
0100
0010
0100
,
0001
1000
0100
1000
,
0001
0100
0010
0100
,
0001
0010
0100
1000
,
0001
1001
0000
1010
,
0010
0110
0000
0101
,
0001
1000
0100
0010
,
0100
0000
0000
1000
0001
1000
0200
0000
,
1300
0000
0010
1000
0010
0000
1000
0000
,
0100
0000
0010
0001
1000
0000
0010
0000
,
0100
0000
0001
0100
0001
0000
0100
0000
,
0010
0000
1000
0001
1000
0000
0001
0000
,
1000
0000
0100
1000
0100
0000
1000
0000
,
0010
0000
0100
0001
1000
0000
0100
0000
,
0010
0000
0001
0010
0001
0000
0010
0000
,
0100
0000
0000
0000
1000
0000
0000
0001
0000
0000
0001
0000
0100
0000
0000
0000
,
0001
0000
0010
0001
0010
0000
0001
0000
,
0100
0000
0010
1000
0001
0000
0010
0000
,
0100
0000
1000
0100
1000
0000
0100
0000
,
0010
0000
0001
1000
0001
0000
1000
0000
,
0001
0000
0100
0001
0100
0000
0001
0000
,
0010
0000
0100
1000
0001
0000
0100
0000
,
0010
0000
1000
0010
1000
0000
0010
0000
,
0100
0000
0000
0001
0000
0000
1000
0000
0100
0000
1000
0000
0001
0000
0000
0000
,
0010
0000
0000
0000
,
0000
0000
0000
0000
,
0000
0000
0000
0000
,
0200
0000
0000
0000
,
1300
0000
0000
0010
0100
0010
1000
0000
,
0001
0000
0000
0000
0010
0000
0100
1000
,
0001
0000
0000
0000
0100
0001
0010
0000
,
0001
0000
0000
0000
1000
0010
0100
0010
,
1000
0000
0000
0000
0001
0000
0020
0230
,
1300
0000
0000
0000
0001
0000
1000
0001
,
0100
0000
0000
0001
0100
0010
0100
0010
,
1000
0000
1001
0000
,
0001
0000
0000
0010
0100
1000
0001
0000
,
0100
0000
0000
0000
0010
0000
1000
0010
,
0100
0000
0000
0000
0001
0000
0010
0100
,
1000
0000
0000
0000
0001
1000
0010
1000
,
0100
0110
0010
0110
,
1000
1001
0001
1001
,
1000
0010
1000
0000
0001
0010
0001
0000
,
0100
0000
0010
0200
,
0300
0000
0000
0000
0001
1000
0001
1000
,
0200
0000
0300
0000
0010
0001
0010
0001
,
2000
0000
3000
0000
0010
1000
0010
1000
,
0020
0000
0000
0230
0000
0000
0301
1000
,
0100
0000
0100
0000
1000
0001
1000
0001
,
0200
0000
0300
0000
0010
1000
0010
1000
,
0002
0000
0003
0000
0010
0001
0010
0001
,
0020
0000
0000
0230
0000
0000
1300
0001
,
0100
0000
0100
0000
0001
0010
0100
1000
,
0002
0000
0003
0000
0001
0100
0010
1000
,
0200
0000
0300
0000
0010
0100
1000
0001
,
2000
0000
0000
3002
0000
0000
0103
0010
,
0100
0000
0001
0000
1000
0010
0100
0001
,
2000
0000
3000
0000
1000
0100
0010
0001
,
0200
0000
0300
0000
0010
0100
0001
1000
,
0002
0000
0000
0023
0000
0000
0130
0010
,
0001
0000
1000
0002
,
1003
0100
0010
0100
,
1000
0001
0100
0001
,
1000
0100
0010
0100
,
1000
0010
0100
0001
,
1000
1001
0000
0011
,
0010
0110
0000
1100
,
1000
0001
0100
0010
,
0100
0000
0000
0001
1000
0001
0010
0000
,
0200
0000
0000
0000
,
0000
0000
0000
0000
,
0300
0000
0000
0000
;

//---------------dance-single - ----------------
#NOTEDATA:;
#CHARTNAME:;
#CHARTHASH:644279893;
#STEPSTYPE:dance-single;
#BANNER:;
#DESCRIPTION:;
#CHARTSTYLE:;
#DIFFICULTY:Medium;
#METER:12;
#METERF:0.000000;
#LASTSECONDHINT:132.655685;
#RADARVALUES:0.510629,0.549908,0.094063,0.202598,0.441373,494.000000,481.000000,13.000000,28.000000,0.000000,0.000000,0.000000,0.000000,0.000000,0.510629,0.549908,0.094063,0.202598,0.441373,494.000000,481.000000,13.000000,28.000000,0.000000,0.000000,0.000000,0.000000,0.000000;
#CREDIT:ZSL;
#NOTES:
0000
0000
0000
0000
,
0000
0000
0000
0000
,
0000
0000
0000
0000
,
0000
0000
0000
0000
,
2000
0000
0000
0000
,
3001
0100
0001
1000
0100
1000
0100
0010
,
0001
0010
0001
1000
0010
1000
0010
0100
,
0001
0100
0001
0010
0100
0010
0100
1000
,
0010
1000
0010
0100
0001
1000
0100
0010
,
0001
0000
0000
0000
1001
0000
0000
1000
0000
0000
0001
0000
0101
0000
0000
0000
,
0100
0000
0000
0000
0110
0000
0000
0010
0000
0000
1000
0000
1010
0000
0000
0000
,
0001
0010
0100
1000
0010
1000
0100
0010
,
0001
0000
0000
1000
0000
0000
0001
0000
0100
0010
0100
0000
0020
0000
0000
0000
,
1030
0000
0001
0100
0000
0000
0010
0000
1000
0001
0000
0000
0010
0000
0000
0100
,
1000
0000
0100
0010
0000
0000
1000
0000
0000
0010
0100
0000
1000
0000
0000
0001
,
0100
0000
0010
1000
0000
0000
0100
0000
0000
0010
0001
0000
0100
0000
0000
0001
,
0010
0000
0100
0010
0000
0000
0001
0000
0000
0100
0010
0000
1000
0000
0001
0000
,
1000
0000
0001
0010
0000
0000
0100
0000
1000
0001
0000
0000
0100
0000
0000
0010
,
1000
0000
0010
0100
0000
0000
1000
0000
0000
0100
0010
0000
1000
0000
0000
0001
,
0010
0000
0100
1000
0000
0000
0010
0000
0000
0100
0001
0000
0010
0000
0000
0001
,
1000
0000
0100
0000
0010
0000
0000
0001
0000
1000
0001
0000
0100
0000
0100
0000
,
0001
0000
1000
0100
0000
0000
0010
0000
0001
1000
0000
0000
0010
0000
0000
0100
,
0001
0000
0100
0010
0000
0000
0001
0000
0000
0010
0100
0000
0001
0000
0000
1000
,
0100
0000
0010
0001
0000
0000
0100
0000
0000
0010
1000
0000
0100
0000
0000
1000
,
0010
0000
0100
0010
0000
0000
1000
0000
0000
0100
0010
0000
0001
0000
1000
0000
,
0001
0000
1000
0010
0000
0000
0100
0000
0001
1000
0000
0000
0100
0000
0000
0010
,
0001
0000
0010
0100
0000
0000
0001
0000
0000
0100
0010
0000
0001
0000
0000
1000
,
0010
0000
0100
0001
0000
0000
0010
0000
0000
0100
1000
0000
0010
0000
0000
1000
,
0001
0000
0000
0100
0000
0000
0010
0000
1000
0001
1000
0000
0200
0000
0000
0310
,
0001
0000
0000
0000
,
0000
0000
0000
0000
,
0000
0000
0000
0000
,
2000
0000
0000
0000
,
3010
0000
0000
0010
0000
0000
1000
0100
1000
0000
0001
0000
0200
0000
0302
0000
,
1003
0000
0100
0000
0010
0100
0000
0000
0110
0000
0000
0000
1000
0000
0001
0000
,
0010
0000
0100
0000
0010
0000
0100
1000
0100
0000
1000
0000
0002
0000
0203
0000
,
0310
0000
0000
0010
0000
0000
1000
0000
0001
0000
0100
0000
0010
0000
1000
0000
,
0100
0000
0000
0100
0000
0000
0010
0001
0010
0000
0100
0000
2000
0000
3020
0000
,
0130
0000
0001
0000
0100
0010
0000
0000
1000
0000
0000
0000
0100
0000
0010
0000
,
0001
0000
0000
1000
0000
0000
0010
0000
1000
0000
0001
0000
0010
0000
0100
0010
,
0100
0000
0000
0100
0000
0000
0000
0000
1000
0000
0000
1000
0000
0000
0000
0000
,
0001
0000
0000
0001
0000
0000
0100
0001
1000
0000
0100
0000
0020
0000
0230
0000
,
1300
1000
0001
0001
0100
0000
0001
0010
,
0100
0000
0000
0100
0000
0000
1000
0001
0100
0000
0010
0000
2000
0000
3002
0000
,
0023
0000
0000
0000
0130
1000
0001
0100
,
0010
0000
0110
0000
1000
0001
1001
0000
,
0100
0000
0110
0000
0001
0010
0110
0000
,
0010
0001
0100
0001
0010
0001
0100
0010
,
1000
0000
0000
1000
0000
0000
0001
0000
0010
0000
0100
0000
2000
0000
0000
0000
,
3000
0000
0000
0000
0000
0000
0001
0100
0001
1000
0001
1000
,
0200
0000
0000
1300
0000
0000
0001
0010
0001
1000
0001
1000
,
0020
0000
0000
0130
0000
0000
0010
1000
0010
0100
0010
0100
,
0001
0000
1000
0200
0000
0000
1300
0001
,
0100
0000
0000
0001
0000
0000
1000
0100
1000
0001
1000
0001
,
0200
0000
0000
0301
0000
0000
1000
0010
1000
0001
1000
0001
,
0020
0000
0000
0130
0000
0000
0010
0001
0010
0100
0010
0100
,
1000
0000
0001
0200
0000
0000
0301
0010
,
0100
0000
0000
1000
0000
0000
0100
1000
0001
0100
0010
0100
,
0002
0000
0000
0103
0000
0000
0010
1000
0001
0010
0100
0010
,
0002
0000
0000
0013
0000
0000
0001
1000
0010
0100
0010
0100
,
0001
0000
0010
0002
0000
0000
1003
0010
,
0100
0000
0000
0010
0000
0000
0100
0001
1000
0100
0010
0100
,
1000
0000
0000
0000
0000
0000
0000
0000
0000
0100
0000
0000
0000
0000
0000
0000
0000
0000
0000
0000
0000
0000
0000
0000
0010
0000
0000
0000
0001
0000
0000
0000
1000
0000
0000
0000
0010
0000
0000
0000
0100
0000
0000
0000
0010
0000
0000
0000
,
1000
0000
0000
0000
0000
0000
0010
0000
0000
0000
0000
0000
0000
0000
0000
0100
0000
0000
0000
0000
0000
0000
0000
0000
0001
0000
0000
0000
0010
0000
0000
0000
0001
0000
0000
0000
0100
0000
0000
0000
0010
0000
0000
0000
0100
0000
0000
0000
,
0001
0001
0001
0010
0010
0010
1000
0010
,
0100
0000
0000
0010
0000
0000
0001
0000
0100
0010
0100
0000
0002
0000
0000
0000
,
1003
0100
1000
0001
0100
0001
0100
0010
,
1000
0010
1000
0001
0010
0001
0010
0100
,
1000
0100
1000
0010
0100
0010
0100
0001
,
0010
0001
0010
0100
1000
0001
0100
0010
,
1000
0000
0000
0000
1001
0000
0000
0001
0000
0000
1000
0000
1100
0000
0000
0000
,
0100
0000
0000
0000
0110
0000
0000
0010
0000
0000
0001
0000
0011
0000
0000
0000
,
1000
0010
0100
0001
0010
0001
0100
0010
,
1000
0000
0000
0001
0000
0000
0010
0000
0100
1000
0100
0000
2000
0000
0000
0000
,
3002
0000
0000
0000
,
0000
0000
0000
0000
,
0003
0000
0000
0000
;

//---------------dance-single - ----------------
#NOTEDATA:;
#CHARTNAME:;
#CHARTHASH:2890595223;
#STEPSTYPE:dance-single;
#BANNER:;
#DESCRIPTION:;
#CHARTSTYLE:;
#DIFFICULTY:Hard;
#METER:14;
#METERF:0.000000;
#LASTSECONDHINT:132.655685;
#RADARVALUES:0.640870,0.714880,0.101299,0.195362,0.752505,620.000000,606.000000,14.000000,27.000000,0.000000,0.000000,0.000000,0.000000,0.000000,0.640870,0.714880,0.101299,0.195362,0.752505,620.000000,606.000000,14.000000,27.000000,0.000000,0.000000,0.000000,0.000000,0.000000;
#CREDIT:ZSL;
#NOTES:
0000
0000
0000
0000
,
0000
0000
0000
0000
,
0000
0000
0000
0000
,
0000
0000
0000
0000
,
2000
0000
0000
0000
,
3001
0000
0100
0000
0010
0000
1000
0010
1000
0000
0001
0000
0010
0000
0100
0010
,
0100
0000
1000
0000
0001
0000
0100
0001
0100
0000
0010
0000
1000
0000
0001
1000
,
0001
0000
0010
0000
0100
0000
0010
0001
0010
0000
0100
0000
1000
0000
0010
1000
,
0010
0000
0100
0000
0001
0000
1000
0100
1000
0000
0100
0000
0010
0000
0001
1000
,
0001
0000
0000
0000
1001
0000
0000
1000
0000
0000
0010
0000
0110
0000
0000
0000
,
0100
0000
0000
0000
0101
0000
0000
0001
0000
0000
1000
0000
1100
0000
0000
0000
,
0100
0000
0010
0000
0001
0000
1000
0001
1000
0000
0010
0000
0100
0000
0001
0100
,
0001
0000
0000
1000
0000
0000
0100
0000
0010
0100
0010
0100
0020
0000
0000
0000
,
0031
0000
1000
0010
0000
1000
0001
0000
0010
0001
0000
0010
0100
0000
0010
0001
,
0100
0000
0010
1000
0000
0010
0001
0000
0010
0100
0000
0001
1000
0000
0100
0010
,
0001
0000
0100
0010
0000
1000
0001
0000
0010
0100
0000
1000
0010
0000
0100
0010
,
1000
0000
0100
0010
0000
0001
0100
0000
0010
1000
0000
0001
0010
0000
0100
1000
,
0001
0000
1000
0100
0000
1000
0001
0000
0100
0001
0000
0100
0010
0000
0100
0001
,
0010
0000
0100
1000
0000
0100
0001
0000
0100
0010
0000
0001
1000
0000
0010
0100
,
0001
0000
0010
0100
0000
1000
0001
0000
0100
0010
0000
1000
0100
0000
0010
0100
,
1000
0000
0001
0000
1000
0001
0000
0100
0000
0010
0100
0000
0010
0000
0010
0000
,
1000
0000
0001
0010
0000
0001
1000
0000
0010
1000
0000
0010
0100
0000
0010
1000
,
0100
0000
0010
0001
0000
0010
1000
0000
0010
0100
0000
1000
0001
0000
0100
0010
,
1000
0000
0100
0010
0000
0001
1000
0000
0010
0100
0000
0001
0010
0000
0100
0010
,
0001
0000
0100
0010
0000
1000
0100
0000
0010
0001
0000
1000
0010
0000
0100
0001
,
1000
0000
0001
0100
0000
0001
1000
0000
0100
1000
0000
0100
0010
0000
0100
1000
,
0010
0000
0100
0001
0000
0100
1000
0000
0100
0010
0000
1000
0001
0000
0010
0100
,
1000
0000
0010
0100
0000
0001
1000
0000
0100
0010
0000
0001
0100
0000
0010
0100
,
0001
0000
0000
1000
0000
0000
0010
0000
1000
0001
1000
0001
2000
0000
0000
3100
,
0010
0000
0000
0000
,
0000
0000
0000
0000
,
0000
0000
0000
0000
,
0002
0000
0000
0000
,
0103
0000
0000
0100
0000
0000
0010
1000
0001
0000
1000
0001
0020
0000
0230
0000
,
1300
0000
0001
0000
0100
0010
0000
0000
0101
0000
0000
0000
1000
0000
0100
0000
,
0010
0100
1000
0100
0000
1000
0001
1000
0100
0000
0010
0000
0002
0000
2003
0000
,
3001
0000
0000
0001
0000
0000
0100
0010
0100
0000
0001
0000
1000
0000
0100
0000
,
0010
0000
0000
0010
0000
0000
0100
1000
0001
0000
0100
0010
2000
0000
3200
0000
,
0310
0000
0100
0000
1000
0001
0000
0000
0101
0000
0000
0000
0100
0000
0010
0000
,
1010
0000
0000
1001
0000
0000
0001
0000
0010
0000
0100
1000
0100
1000
0100
0000
,
0010
0000
0000
0011
0000
0000
0000
0000
0001
0000
0000
1001
0000
0000
0000
0000
,
1000
0000
0000
1000
0000
0000
0010
1000
0010
0000
0010
0000
0200
0000
0302
0000
,
1003
0100
0010
0100
0000
1000
0001
0100
0010
0000
1000
0000
0002
0000
0023
0000
,
0130
0000
0000
0100
0000
0000
0010
0001
1000
0000
0010
0100
0002
0000
0203
0000
,
0320
0000
0000
0000
1030
0001
0010
0100
,
0010
0001
0010
0001
0000
1000
0001
1000
0000
0010
1000
0010
0000
1000
0100
1000
,
0000
0001
0100
0001
0000
0010
0100
0010
0000
0100
1000
0100
0000
1000
0001
0100
,
0010
0010
1000
1000
0100
0100
0010
0010
,
0001
0000
1000
0010
0100
0000
0001
0000
1000
0001
1000
0001
0200
0000
0000
0000
,
0300
0000
0000
0000
0000
0000
0000
0000
0000
0000
0000
0000
0001
0010
0001
0010
0000
0000
0100
0000
0000
1000
0100
1000
,
0200
0000
0000
0000
0000
0000
1300
0000
0000
0000
0000
0000
0001
0100
0001
0100
0000
0000
0010
0000
0000
1000
0010
1000
,
0020
0000
0000
0000
0000
0000
0130
0000
0000
0000
0000
0000
0001
1000
0001
1000
0000
0000
0100
0000
0000
0010
0001
0010
,
0001
0000
1000
0001
0100
0000
0100
0010
,
1000
0000
0000
0000
0000
0000
0100
0000
0000
0000
0000
0000
1000
0010
1000
0010
0000
0000
0100
0000
0000
0001
0100
0001
,
0200
0000
0000
0000
0000
0000
0301
0000
0000
0000
0000
0000
1000
0100
1000
0100
0000
0000
0010
0000
0000
0001
0010
0001
,
0020
0000
0000
0000
0000
0000
0130
0000
0000
0000
0000
0000
1000
0001
1000
0001
0000
0000
0100
0000
0000
0010
1000
0010
,
1000
0000
0001
1000
0100
0000
0100
0010
,
0001
0000
0000
0000
0000
0000
0100
0000
0000
0000
0000
0000
0010
1000
0010
0100
0000
0000
0001
0000
0000
1000
0001
1000
,
0200
0000
0000
0000
0000
0000
0310
0000
0000
0000
0000
0000
0100
1000
0100
0010
0000
0000
0001
0000
0000
1000
0001
1000
,
0020
0000
0000
0000
0000
0000
0130
0000
0000
0000
0000
0000
0001
0010
0100
0010
0000
0000
0001
0000
0000
1000
0001
0100
,
0010
0000
0100
0001
1000
0000
1000
0100
,
0010
0000
0000
0000
0000
0000
0001
0000
0000
0000
0000
0000
0010
0001
0010
0100
0000
0000
1000
0000
0000
0001
1000
0001
,
0100
0000
0000
0000
0000
0000
0000
0000
0000
0010
0000
0000
0000
0000
0000
0000
0000
0000
0000
0000
0000
0000
0000
0000
0100
0000
0001
0000
0100
0000
0010
0000
0000
0000
0000
0000
1000
0000
0000
0000
0000
0000
0001
0000
1000
0000
0001
0000
,
0010
0000
0000
0000
0000
0000
0100
0000
0000
0000
0000
0000
0000
0000
0000
1000
0000
0000
0000
0000
0000
0000
0000
0000
0001
0000
0100
0000
0010
0000
1000
0000
0000
0000
0000
0000
0100
0000
0000
0000
0000
0000
0010
0000
0001
0000
1000
0000
,
0010
0000
0010
0000
0010
0000
0100
0000
0100
0000
0100
0000
1000
0100
0010
0000
,
1000
0000
0000
0001
0000
0000
0010
0000
0100
1000
0100
1000
0002
0000
0000
0000
,
1003
0000
0100
0000
0010
0000
0001
0010
0001
0000
1000
0000
0010
0000
0100
0010
,
0100
0000
0001
0000
1000
0000
0100
1000
0100
0000
0010
0000
0001
0000
1000
0001
,
1000
0000
0010
0000
0100
0000
0010
1000
0010
0000
0100
0000
0001
0000
0010
0001
,
0010
0000
0100
0000
1000
0000
0001
0100
0001
0000
0100
0000
0010
0000
1000
0001
,
1000
0000
0000
0000
1001
0000
0000
0001
0000
0000
0010
0000
0110
0000
0000
0000
,
0100
0000
0000
0000
1100
0000
0000
1000
0000
0000
0001
0000
0101
0000
0000
0000
,
0100
0000
0010
0000
1000
0000
0001
1000
0001
0000
0010
0000
0100
0000
1000
0100
,
1000
0000
0000
0001
0000
0000
0100
0000
0010
1000
0001
1000
0200
0000
0000
0000
,
0320
0000
0000
0000
,
0000
0000
0000
0000
,
0030
0000
0000
0000
;

//---------------dance-single - ----------------
#NOTEDATA:;
#CHARTNAME:;
#CHARTHASH:2648603863;
#STEPSTYPE:dance-single;
#BANNER:;
#DESCRIPTION:;
#CHARTSTYLE:;
#DIFFICULTY:Challenge;
#METER:17;
#METERF:0.000000;
#LASTSECONDHINT:132.655685;
#RADARVALUES:0.914790,1.017329,0.188126,0.180891,1.497775,885.000000,859.000000,26.000000,25.000000,0.000000,0.000000,0.000000,0.000000,0.000000,0.914790,1.017329,0.188126,0.180891,1.497775,885.000000,859.000000,26.000000,25.000000,0.000000,0.000000,0.000000,0.000000,0.000000;
#CREDIT:ZSL;
#NOTES:
// measure 0
0000
0000
0000
0000
,  // measure 1
0000
0000
0000
0000
,  // measure 2
0000
0000
0000
0000
,  // measure 3
0000
0000
0000
0000
,  // measure 4
2000
0000
0000
0000
,  // measure 5
3001
0000
0100
0010
1000
0010
0100
0001
1000
0000
0100
0010
0001
0010
0100
1000
,  // measure 6
0001
0000
1000
0001
0010
0001
0100
0010
1000
0000
0001
1000
0010
1000
0100
0010
,  // measure 7
0001
0000
1000
0001
0010
0100
1000
0010
0100
0000
0001
1000
0010
0100
0001
0010
,  // measure 8
0100
0000
0010
0001
0100
0010
1000
0100
0010
0000
0100
1000
0010
0100
0001
1000
,  // measure 9
0100
0000
0000
0000
1100
0000
0000
1000
0000
0000
0001
0000
0101
0000
0100
0010
,  // measure 10
1000
0000
0000
0000
1001
0000
0000
0001
0000
0000
0010
0000
0110
0100
0000
0000
,  // measure 11
1000
0001
0100
0010
1000
0001
0100
0010
1000
0100
0010
0001
0100
0001
0010
0100
,  // measure 12
1000
0000
0000
0000
0001
0000
0100
0000
0000
0000
0100
0000
0010
1000
0010
1000
0010
0000
0100
0000
0001
0000
1000
0000
0200
0000
0000
0000
0000
0000
0000
0000
,  // measure 13
1300
0010
1000
0001
0100
0001
0010
0100
0010
0001
1000
0001
0100
0010
1000
0100
,  // measure 14
0100
0001
1000
0010
1000
0100
0001
0100
1000
0001
0100
0010
0100
0001
1000
0100
,  // measure 15
0100
0010
1000
0001
0010
0001
0100
0010
0100
0001
1000
0001
0010
0100
1000
0100
,  // measure 16
0100
0001
1000
0010
1000
0010
0100
0001
0100
0010
1000
0001
0010
0100
1000
0001
,  // measure 17
1000
0100
1000
0001
0010
0001
0100
0010
0100
0001
1000
0001
0010
0100
1000
0010
,  // measure 18
0010
0001
1000
0100
1000
0010
0001
0010
1000
0001
0010
0100
0010
0001
1000
0010
,  // measure 19
0010
0100
1000
0001
0100
0001
0010
0100
0010
0001
1000
0001
0100
0010
1000
0100
,  // measure 20
0010
0000
0001
0000
0001
0001
0000
1000
0000
1000
1000
0000
0010
0100
0010
0100
,  // measure 21
0001
0010
0001
1000
0100
1000
0010
0100
0010
1000
0001
1000
0100
0010
0001
0100
,  // measure 22
0100
1000
0001
0010
0001
0100
1000
0100
0001
1000
0100
0010
0100
1000
0001
0100
,  // measure 23
0100
0010
0001
1000
0010
1000
0100
0010
0100
1000
0001
1000
0010
0100
0001
0100
,  // measure 24
0100
1000
0001
0010
0001
0010
0100
1000
0100
0010
0001
1000
0010
0100
0001
1000
,  // measure 25
0001
0100
0001
1000
0010
1000
0100
0010
0100
1000
0001
1000
0010
0100
0001
0010
,  // measure 26
0010
1000
0001
0100
0001
0010
1000
0010
0001
1000
0010
0100
0010
1000
0001
0010
,  // measure 27
0010
0100
0001
1000
0100
1000
0010
0100
0010
1000
0001
1000
0100
0010
0001
0100
,  // measure 28
0010
0000
0000
0000
1000
0000
0010
0000
0000
0000
0010
0000
1000
0001
1000
0001
1000
0000
0100
0000
0010
0000
0001
0000
2000
0000
0000
0000
0000
0000
3001
0000
,  // measure 29
0100
0000
0000
0000
,  // measure 30
0000
0000
0000
0000
,  // measure 31
0000
0000
0000
0000
,  // measure 32
0020
0000
0000
0000
,  // measure 33
1030
0000
0000
0000
0000
0000
0000
0000
0000
1000
0000
0000
0000
0000
0000
0000
0000
0000
0010
0000
0000
0100
0000
0000
0001
0000
0000
0010
0000
0000
0100
0000
0000
1000
0000
0000
0100
0000
0010
0000
0100
0000
0010
0000
0100
0000
0010
0000
,  // measure 34
0001
0000
1000
0001
1000
0010
0000
0000
0110
0000
0100
0000
0001
0000
1000
0000
,  // measure 35
0100
0000
0000
1000
0000
0000
0100
0000
0000
0010
0000
0000
0001
0000
0000
1000
0000
0000
0010
0000
0000
0100
0000
0000
0010
0000
0000
0001
0000
0000
0010
0000
0000
0001
0000
0000
0010
0000
0100
0000
0010
0000
0100
0000
0010
0000
0100
0000
,  // measure 36
0001
0000
0000
0000
0000
0000
1000
0000
0000
0000
0000
0000
0001
0100
0001
0100
0001
0000
0000
0000
1000
0000
0000
0000
0100
0000
0000
0000
0010
0000
0000
0000
,  // measure 37
0001
0000
0000
0001
0000
0000
0010
0001
0100
0010
1000
0100
2000
0000
3002
0000
,  // measure 38
0103
0000
0001
1000
0001
0010
0000
0000
0110
0000
0100
0000
1000
0000
0001
0000
,  // measure 39
0101
0000
0000
0011
0000
0000
1000
0000
1010
0000
0010
0100
1000
0100
1000
0100
,  // measure 40
0001
0000
0000
0000
0000
0000
0101
0000
0000
0000
0000
0000
0000
0000
1000
0100
1000
0000
0000
0000
0000
0000
1100
0000
0000
0000
0000
0000
0000
0000
0000
0000
,  // measure 41
0010
0000
0000
0000
0000
0000
0000
0000
0000
0010
0000
0000
0000
0000
0000
0000
0000
0000
0001
0000
0000
1000
0000
0000
0001
0000
0100
0000
0001
0000
0200
0000
0000
0000
0000
0000
0310
0000
1000
0000
0010
0000
1000
0000
0010
0000
1000
0000
,  // measure 42
0001
1000
0100
0010
0100
0010
0001
1000
0010
1000
0100
0010
0002
0000
0203
0000
,  // measure 43
0310
0000
0000
0000
0000
0000
0000
0000
0000
0110
0000
0000
0000
0000
0000
0000
0000
0000
0100
0000
0000
0001
0000
0000
0010
0000
0000
1000
0000
0000
0010
0000
0000
1000
0000
0000
0010
0000
0100
0000
0010
0000
0100
0000
0010
0000
0100
0000
,  // measure 44
2000
0000
3002
0000
0203
0000
0320
0000
0230
0000
0302
0000
1003
0000
0000
1001
0000
0000
0011
0000
0000
0110
0000
0000
,  // measure 45
1000
0100
0100
0100
0010
0100
0100
0100
1000
0100
0100
0100
0010
0100
0100
0100
,  // measure 46
1000
0010
0010
0010
1000
0100
0100
0100
1000
0010
0010
0010
1000
0100
0100
0100
,  // measure 47
0010
0110
1100
1010
0110
0101
0011
1100
,  // measure 48
1000
0000
0001
0000
0010
0000
0100
0000
1000
0000
0001
0000
0100
0001
0100
0001
0100
0000
0010
0000
1000
0000
0010
0000
1000
0000
0100
0000
0010
0000
0002
0000
,  // measure 49
0003
0000
0000
0000
0000
0000
0000
0000
0000
0000
0000
0000
1000
0010
1000
0010
1000
0010
0100
0010
0100
0010
0100
0010
,  // measure 50
2000
0000
0000
0000
0000
0000
3001
0000
0000
0000
0000
0000
1000
0100
1000
0100
1000
0100
0010
0100
0010
0100
0010
0100
,  // measure 51
2000
0000
0000
0000
0000
0000
3010
0000
0000
0000
0000
0000
0100
0001
0100
0001
0100
0001
1000
0100
1000
0100
1000
0100
,  // measure 52
0010
0000
0001
1000
0010
0000
0010
0100
,  // measure 53
0001
0000
0000
0000
0000
0000
1000
0000
0000
0000
0000
0000
0001
0010
0001
0010
0001
0010
0100
0010
0100
0010
0100
0010
,  // measure 54
0002
0000
0000
0000
0000
0000
1003
0000
0000
0000
0000
0000
0001
0100
0001
0100
0001
0100
0010
0100
0010
0100
0010
0100
,  // measure 55
0002
0000
0000
0000
0000
0000
0013
0000
0000
0000
0000
0000
0100
1000
0100
1000
0100
1000
0001
0100
0001
0100
0001
0100
,  // measure 56
0010
0000
1000
0001
0010
0000
0010
0100
,  // measure 57
1000
0000
0000
0000
0000
0000
0001
0000
0000
0000
0000
0000
0100
0010
0100
0010
0100
0010
1000
0001
0010
0100
1000
0001
,  // measure 58
0020
0000
0000
0000
0000
0000
0130
0000
0000
0000
0000
0000
0010
0100
0010
0100
0010
0100
1000
0001
0100
0010
1000
0001
,  // measure 59
0200
0000
0000
0000
0000
0000
0310
0000
0000
0000
0000
0000
1000
0001
1000
0010
1000
0010
0100
0001
1000
0100
0010
0001
,  // measure 60
1000
0000
0001
0010
0100
0000
0100
1000
,  // measure 61
0001
0000
0000
0000
0000
0000
1000
0000
0000
0000
0000
0000
0100
0010
0100
0010
0100
0010
0001
1000
0010
0100
0001
1000
,  // measure 62
0010
0000
0000
0000
0000
0000
0000
0000
0000
0100
0000
0000
0000
0000
0000
0000
0000
0000
0000
0000
0000
0000
0000
0000
0010
0000
0100
0000
0010
0000
0100
0000
0010
0000
0100
0000
0001
0000
1000
0000
0100
0000
0010
0000
0001
0000
1000
0000
,  // measure 63
0100
0000
0000
0000
0000
0000
0010
0000
0000
0000
0000
0000
0000
0000
0000
0100
0000
0000
0000
0000
0000
0000
0000
0000
0010
0000
0001
0000
1000
0000
0010
0000
1000
0000
0001
0000
0010
0000
0100
0000
1000
0000
0001
0000
0100
0000
0010
0000
,  // measure 64
1000
0001
1000
0001
1000
0001
0100
0010
0100
0010
0100
0010
0001
1000
0100
0010
,  // measure 65
1000
0000
0000
0000
0001
0000
0010
0000
0000
0000
0010
0000
0100
1000
0100
1000
0100
0000
0010
0000
0001
0000
1000
0000
0020
0000
0000
0000
0000
0000
0000
0000
,  // measure 66
1030
0000
0100
0010
0001
0010
0100
1000
0001
0000
0100
0010
1000
0010
0100
0001
,  // measure 67
1000
0000
0001
1000
0010
1000
0100
0010
0001
0000
1000
0001
0010
0001
0100
0010
,  // measure 68
1000
0000
0001
1000
0010
0100
0001
0010
0100
0000
1000
0001
0010
0100
1000
0010
,  // measure 69
0100
0000
0010
1000
0100
0010
0001
0100
0010
0000
0100
0001
0010
0100
1000
0001
,  // measure 70
0100
0000
0000
0000
0101
0000
0000
0001
0000
0000
1000
0000
1100
0000
0100
0010
,  // measure 71
0001
0000
0000
0000
1001
0000
0000
1000
0000
0000
0010
0000
0110
0100
0000
0000
,  // measure 72
0001
1000
0100
0010
0001
1000
0100
0010
0001
0100
0010
1000
0100
1000
0010
0100
,  // measure 73
0001
0000
0000
0000
1000
0000
0100
0000
0000
0000
0100
0000
1000
0010
1000
0010
1000
0000
0001
0000
0010
0000
0100
0000
2000
0000
0000
0000
0000
0000
0000
0000
,  // measure 74
3020
0000
0000
0000
,  // measure 75
0000
0000
0000
0000
,  // measure 76
0030
0000
0000
0000
;
