#TITLE:Lethal Dose;
#SUBTITLE:;
#ARTIST:sky_delta;
#TITLETRANSLIT:;
#SUBTITLETRANSLIT:;
#ARTISTTRANSLIT:;
#GENRE:;
#CREDIT:;
#MUSIC:Lethal Dose.ogg;
#BANNER:;
#BACKGROUND:;
#CDTITLE:;
#SAMPLESTART:57.159;
#SAMPLELENGTH:20.000;
#SELECTABLE:YES;
#OFFSET:-1.249;
#BPMS:0.000=206.000;
#STOPS:;
#ORIGIN:;
#TAGS:;
#PREVIEWVID:;
#JACKET:;
#CDIMAGE:;
#DISCIMAGE:;
#BGCHANGES:;
#FGCHANGES:;

//--------------- dance-single - ----------------
#NOTES:
     dance-single:
     :
     Beginner:
     5:
     0.159817,0.242745,0.034159,0,0,131,127,4,0,0,0,0,0,0,0.159817,0.242745,0.034159,0,0,131,127,4,0,0,0,0,0,0:
0000
0000
0000
0000
,
0000
0000
0000
0000
,
0000
0000
0000
0000
,
0000
0000
0000
0000
,
0000
0000
0000
0000
,
0000
0000
0000
0000
,
0000
0000
0000
0000
,
0000
0000
0000
0000
,
0001
0000
0000
0000
0000
0000
0000
1000
,
0000
0000
0000
0000
,
0100
0000
0000
0000
0000
0000
0000
0010
,
0000
0000
0000
0000
,
0001
0000
0000
1001
,
0000
0000
1000
0000
,
0010
0000
0000
0000
0000
0000
0000
0100
,
0000
0000
0001
0000
,
1000
0000
0000
0000
,
0000
0000
0000
0000
,
0100
0000
0000
0000
,
0000
0000
0000
0000
,
0010
0000
0000
0000
,
0000
0000
0000
0000
,
0001
0000
1000
0000
,
0010
0000
0000
0000
,
0100
0000
0000
0000
0001
0000
0000
1000
,
0000
0000
0000
0000
,
0100
0000
0000
0000
0010
0000
0000
0001
,
0000
0000
0000
0000
,
0010
0000
0000
0000
0100
0000
0000
1000
,
0000
0000
0000
0000
0000
0000
0000
0001
,
0000
0000
0000
1000
0000
0000
0000
0010
,
0000
0000
0000
0000
,
1000
0000
0000
0000
0100
0000
0000
0010
,
0000
0000
0000
0000
,
0001
0000
0000
0000
0100
0000
0000
0010
,
0000
0000
0000
0000
,
1000
0000
0000
0000
0000
0000
0000
0001
,
0000
0000
0000
0000
0000
0000
0000
0010
,
0000
0000
0000
0000
0100
0000
0000
1000
,
0000
0000
0000
0000
,
0001
0000
0000
0000
0100
0000
0000
0100
,
0000
0000
0000
0000
,
0001
0000
0000
0000
1000
0000
0000
1000
,
0000
0000
0000
0100
0000
0000
0000
0000
,
0010
0000
0000
0000
0001
0000
0000
0001
,
0000
0000
0000
0000
0000
0000
0000
1000
,
0000
0000
0000
0010
0000
0000
0000
0100
,
0000
0000
0000
0000
,
0001
0000
0010
0000
,
0000
0000
0001
0000
,
1000
0000
0010
0000
,
0000
0000
1000
0000
,
0100
0000
0010
0000
,
0000
0000
0100
0000
,
1000
0000
0001
0000
,
0000
0000
1000
0000
,
0010
0000
0100
0000
,
0000
0000
0001
0000
,
0100
0000
0010
0000
,
0000
0000
1000
0000
,
0001
0000
0000
1001
,
0000
0000
1000
0000
,
0010
0000
0000
0110
,
0000
0000
0100
0000
,
0001
0000
0000
0000
,
0000
0000
0000
0000
,
1000
0000
0100
0000
,
0010
0000
0000
0000
,
0100
1000
0000
0001
,
0000
0100
0000
0010
,
0000
0100
0000
0001
,
0000
0010
0000
0000
,
0100
0010
0000
0001
,
0000
1000
0000
0010
,
0000
1000
0000
0100
,
0000
0000
0010
0000
,
0010
0001
0000
1000
,
0000
0100
0000
0010
,
0000
0100
0000
1000
,
0000
0010
0000
0100
,
0000
0000
0000
0001
,
0000
0100
0000
0010
,
0000
1000
0000
0100
,
0000
0000
0010
0000
,
0001
0000
0000
0000
,
0000
0000
1001
0000
,
1000
0000
0000
0000
0010
0000
0000
0100
,
0000
0000
0000
0000
,
0001
0000
0000
0000
1000
0000
0000
0100
,
0000
0000
0000
0000
,
0010
0000
0000
0000
0000
0000
0000
0100
,
0000
0000
0000
0000
0000
1000
0000
0001
,
0000
0000
0000
0100
0000
0000
0000
0010
,
0000
0000
0000
0000
,
1000
0000
0000
0001
;

//--------------- dance-single - ----------------
#NOTES:
     dance-single:
     :
     Easy:
     10:
     0.435533,0.485491,0.170797,0.00854,0.01708,357,337,20,1,0,0,0,0,0,0.435533,0.485491,0.170797,0.00854,0.01708,357,337,20,1,0,0,0,0,0:
0000
0000
0000
0000
,
0000
0000
0000
0000
,
0000
0000
0000
0000
,
0000
0000
0000
0000
,
0000
0000
0000
0000
,
0000
0000
0000
0000
,
0000
0000
0000
0000
,
0000
0000
0000
0000
,
0001
0000
1000
0000
0001
0000
0000
0010
,
0000
0000
0100
1000
0000
0000
0001
0000
,
1000
0000
0010
0000
0100
0010
0000
0100
,
0000
0001
0000
1000
0000
0000
0100
0000
,
1000
0000
0000
0010
0000
0000
0100
0000
,
0000
0001
0000
0000
0010
0000
0001
0000
,
1000
0000
0001
0000
0100
0010
0000
0100
,
0000
0001
0100
0010
,
1000
0000
0000
0000
0001
0000
0000
0010
,
0000
0100
0000
0010
0000
0100
0000
0000
,
1000
0000
0000
0001
0000
0100
0000
0010
,
0000
0000
1000
0000
,
0100
0000
0010
0000
0000
0100
0000
0010
,
0000
0001
0000
1000
0000
0010
0000
0100
,
0000
0010
1000
0001
,
0010
0000
0100
1000
0100
0000
0000
0000
,
1000
0000
0001
0000
1000
0000
0000
0100
,
0000
0000
0010
0001
0000
0000
1000
0000
,
0001
0000
0100
0000
0010
0000
0000
0110
,
0000
0000
0100
0001
0000
1000
0100
0000
,
0010
0000
0000
0000
0001
0000
0000
1000
0000
0000
0001
0000
0000
0000
0100
0000
,
0000
0000
0010
0100
0000
0001
0000
1001
,
0000
0000
0000
1000
0000
0100
0010
0100
,
0000
0000
0010
0001
0000
0000
1000
0000
,
0001
0000
0100
0001
0000
0100
0000
0010
,
0000
1000
0001
1000
0000
0000
0100
0000
,
0010
0001
0000
0010
0100
0000
0000
1100
,
0000
0000
1000
0001
0000
0100
0010
0000
,
1000
0000
0000
0000
0001
0000
0000
0010
0000
0000
0100
0000
0000
0000
1000
0000
,
0000
0000
0001
0010
0000
0001
0000
1001
,
0000
0000
0000
1000
0000
0010
0100
0001
,
0000
1000
0100
0010
,
0110
0000
0100
0000
1000
0000
0001
1000
,
0000
0001
0100
0000
0010
0000
1000
0000
,
0100
0000
0010
0000
0100
0000
0010
0001
,
0000
0000
0010
0100
0000
1000
0001
0000
,
0100
0000
0000
0000
0010
0000
0000
1000
0000
0000
0001
0000
0000
0000
0010
0000
,
0000
0000
0100
1000
0000
0001
0000
1000
,
0001
0000
0100
0000
0010
1000
0010
1000
,
0000
0000
0001
1000
0000
0000
0000
0000
,
1001
0000
0001
0000
0010
0100
0000
1000
,
0000
0000
0001
0100
0000
0000
0010
0000
,
1000
0000
0001
0000
0010
0100
0000
1000
,
0000
0100
0000
0010
0000
0001
1000
0000
,
0010
0000
0000
0110
0000
0000
0100
0000
,
0000
0101
0000
0000
0001
0000
1000
0000
,
0100
0000
0010
0001
0010
0001
0000
1000
,
0000
0010
0000
0100
0000
0000
0001
0000
,
1001
0000
1000
0000
0010
0100
0000
0001
,
0000
0000
1000
0100
0000
0000
0010
0000
,
0001
0000
1000
0000
0010
0100
0000
0001
,
0000
0100
0000
0010
0000
1000
0001
0000
,
0010
0000
0000
0110
0000
0000
0100
0000
,
0000
1100
0000
0000
1000
0000
0001
0000
,
0100
0000
0000
1010
0000
0000
1000
0000
,
0000
1100
0000
0000
0010
0000
0001
0000
,
1000
0000
0000
0010
,
0000
0000
0100
0001
,
1000
0100
0010
0010
,
0001
0000
0000
0000
1000
0000
0010
1000
,
0000
0001
0000
0000
0010
0000
0001
1000
,
0000
0010
0000
0100
0000
0001
0000
1000
,
0000
0000
0100
0010
0000
0100
1000
0001
,
0000
0100
0000
0010
0000
1000
0100
0000
,
0010
0000
0000
0011
0000
0000
0001
1000
,
0000
0010
0000
0100
0000
0001
0000
0010
,
0001
0000
1000
0000
0010
0000
0100
0001
,
0000
0100
0000
0000
0001
0000
0010
0001
,
0000
1000
0000
0000
0010
0000
1000
0001
,
0000
0010
0000
0100
0000
1000
0000
0001
,
0000
0000
0100
0010
0000
0100
0001
1000
,
0000
0100
0000
1000
0001
1000
0001
0100
,
0000
0000
0000
1001
0000
0000
1000
0001
,
0000
0010
0000
0100
0000
1000
0000
0010
,
1000
0000
0001
0000
0010
0000
0100
1000
,
0100
0000
0010
0000
0001
1000
0002
0000
,
1003
0000
0000
0000
,
0000
0000
1001
0000
,
0001
0000
0100
0010
0000
1000
0000
0100
,
0000
0010
0100
0010
0000
0100
0000
0000
,
1000
0000
0001
0000
0010
0100
0000
1000
,
0000
0001
0100
0010
0000
0000
1000
0000
,
1100
0000
0000
0000
0100
0000
0000
1000
0000
0000
0010
0000
0000
0000
0100
0000
,
0000
0010
1000
0001
0000
0010
0000
0110
,
0000
0000
0000
0011
0000
0000
0001
0100
,
0000
0000
0001
0010
0000
0100
1000
0000
,
1001
0000
0000
0001
;

//--------------- dance-single - ----------------
#NOTES:
     dance-single:
     :
     Medium:
     13:
     0.59535,0.649883,0.102478,0.247656,0.01708,488,476,12,29,0,0,0,0,0,0.59535,0.649883,0.102478,0.247656,0.01708,488,476,12,29,0,0,0,0,0:
0000
0000
0000
0000
,
0000
0000
0000
0000
,
0000
0000
0000
0000
,
0000
0000
0000
0000
,
0000
0000
0000
0000
,
0000
0000
0000
0000
,
0000
0000
0000
0000
,
0000
0000
0000
0000
,
1001
0000
1000
0000
0010
0100
0000
0002
,
0000
0000
1003
0100
0000
0000
0010
0100
,
1000
0000
0001
0000
0100
0010
0000
0100
,
0000
0001
0000
1000
0001
1000
0100
0000
,
0010
0000
0100
1000
0000
0100
0010
0000
,
0001
0100
0000
0010
1000
0010
0100
0000
,
0002
0000
1003
0100
0010
0100
0010
0002
,
0000
0000
0000
0000
1003
0001
1000
0001
,
0100
0000
0010
0000
1000
0010
0000
0100
,
0000
0001
0000
0010
0000
0100
0000
0000
,
0010
0000
0001
1000
0000
0001
0000
0010
,
0000
0000
0000
0000
0100
0000
0000
1000
,
0001
0000
0100
0010
0000
0100
0000
0010
,
0000
1000
0000
0001
0000
0010
0000
0001
,
1000
0000
0010
0000
0100
0001
0100
0001
,
1000
0100
1000
0100
0010
0000
0000
0000
,
0110
0000
0100
1000
0001
0100
0000
0010
,
0000
1000
0010
0100
0001
1000
0100
0010
,
0001
0000
1000
0001
1000
0010
0000
0100
,
0010
1000
0001
0010
0100
1000
0010
0000
,
0100
0000
0000
0000
0001
0000
0000
1000
0000
0000
0001
0000
0000
0000
1001
0000
,
0000
1000
0100
0010
0000
0001
1000
0020
,
0000
0000
1030
0001
0010
0100
1000
0200
,
0000
0000
1300
0010
0000
1000
0001
0000
,
1001
0000
0001
0010
0100
1000
0000
0010
,
0000
1000
0100
0010
0001
1000
0010
0000
,
0100
2000
0000
3100
0010
1000
0001
0020
,
0000
0130
1000
0002
0000
1003
0100
0010
,
0001
0000
0000
0000
0011
0000
0000
0010
0000
0000
0100
0000
0000
0000
1100
0000
,
0000
1000
0001
0100
0010
1000
0010
0200
,
0000
0000
0301
1000
0100
0010
0100
0002
,
0000
0103
0010
0100
1000
0001
0100
0001
,
1000
0000
0001
0100
0010
0100
0010
2000
,
0000
3010
1000
0001
0010
0100
1000
0100
,
0010
0000
0100
1000
0001
1000
0010
0200
,
0000
0000
0301
0010
0000
0001
0100
0000
,
0010
0000
0000
0000
1000
0000
0000
0001
0000
0000
1000
0000
0000
0000
0200
0000
,
0000
0310
0001
0010
0100
1000
0001
0100
,
0020
0000
1030
0001
0100
0001
0010
0200
,
0000
1300
0010
0200
0000
0310
1000
0001
,
0010
0000
0100
0000
1000
0001
0000
0200
,
0000
0000
0310
1000
0010
0000
0100
0001
,
0010
0000
0100
0000
1000
0001
0000
0100
,
0000
0010
0000
1000
0001
0010
0100
0000
,
0010
0000
0001
0100
0000
0000
0010
1000
,
0000
0100
0000
1000
0010
0000
0100
0000
,
0010
0000
0001
0010
0100
0010
1000
0002
,
0000
1000
0000
1003
0001
0000
1000
0000
,
0010
0000
0100
0000
0001
1000
0000
0200
,
0000
0000
0310
0001
0010
0000
0001
0100
,
0001
0010
0100
1000
0001
1000
0000
0010
,
0000
0100
0000
0001
1000
0100
0010
0001
,
0100
0000
0001
0001
0000
0100
0010
0000
,
1000
1000
0000
0001
0010
0100
1000
0001
,
0100
0000
0001
0100
0001
0100
0010
2000
,
0000
0001
0000
3001
1000
0100
0010
0001
,
1000
0000
0000
0001
0000
0000
0100
0000
,
0000
0010
0000
0000
1000
0000
0001
0000
,
0100
0000
0001
1000
0100
0010
0100
0010
,
0001
0000
0000
1000
0010
0100
0001
1000
,
0000
1000
0000
0100
0010
0001
1000
0010
,
0000
0100
0000
0001
0000
0001
0000
1000
,
0000
0100
0010
0001
0100
0010
0100
2000
,
0000
3100
0000
0110
0000
0010
1000
0001
,
0010
0000
0100
0001
0100
0000
1000
0001
,
0000
1000
0000
0010
0000
0010
1000
0100
,
0010
0000
0001
0000
1000
0010
0100
0100
,
0000
0100
0000
0001
0010
0100
1000
0001
,
0000
0001
0000
0100
0010
1000
0001
0010
,
0000
0100
0000
1000
0000
1000
0000
0001
,
0000
0100
0010
1000
0100
0010
0100
0002
,
0000
0103
0000
1000
0001
1000
0001
0200
,
0000
0000
0310
0001
0010
0000
1000
0001
,
0000
1000
0000
0010
0000
0010
1000
0100
,
0010
0000
0001
1000
0010
0000
0100
1000
,
0100
0010
0100
0010
1000
0001
1000
0001
,
0010
0000
0000
0001
0000
0000
2000
0000
,
0000
3000
1001
0000
,
0101
0000
0100
0010
1000
0001
0000
1001
,
0000
1000
0100
0010
0100
0001
0100
0010
,
0001
0000
2000
0000
3010
0100
0001
2000
,
0000
3100
1000
0002
0000
0103
0001
1000
,
0100
0000
0000
0000
0010
0000
0000
0001
0000
0000
1000
0000
0000
0000
1001
0000
,
0000
0001
0100
0010
0000
0100
0001
0020
,
0000
0000
0130
0010
0001
1000
0010
0020
,
0000
0000
0130
0100
0000
0001
1000
0000
,
1001
0000
0000
0001
0000
0000
1000
0000
,
0000
0100
0000
0000
0000
0000
0000
0000
;

//--------------- dance-single - ----------------
#NOTES:
     dance-single:
     :
     Hard:
     17:
     0.832026,0.974825,0.461152,0.213496,0.401373,682,628,54,25,0,0,0,0,0,0.832026,0.974825,0.461152,0.213496,0.401373,682,628,54,25,0,0,0,0,0:
0000
0000
0000
0000
,
0000
0000
0000
0000
,
0000
0000
0000
0000
,
0000
0000
0000
0000
,
0000
0000
0000
0000
,
0000
0000
0000
0000
,
0000
0000
0000
0000
,
0000
0000
0000
0000
,
1001
0000
0001
0000
0010
0100
1000
0020
,
0000
0000
0130
0001
1000
0000
0001
0100
,
0010
1000
0100
0010
0001
0010
0000
0110
,
0000
0000
1100
0000
0000
0000
1000
0001
0100
0000
0010
0000
1000
0010
1000
0010
,
0100
0000
0001
0000
1000
0000
1100
0000
0000
0100
0010
0001
1000
0000
0010
0000
,
0100
0000
0101
0000
0000
0000
0001
1000
0100
0000
0010
0000
0001
0010
0001
0010
,
0200
0000
0000
0000
1300
0000
0001
0000
0100
0010
0100
0010
0100
0010
2000
0000
,
0000
0000
3001
0000
0010
0000
0100
0000
1000
0100
1000
0100
1000
0100
1000
0100
,
0010
0000
0001
0000
1000
0001
1000
0010
,
0000
0100
0000
0001
0000
0100
0000
0000
,
0010
1000
0001
0010
0000
0100
0000
1000
,
0000
0000
0000
0000
0000
0000
0000
0000
0100
0000
0000
0000
0000
0000
0010
0100
,
1000
0000
0001
0100
0000
0010
0000
0100
,
0000
0001
0000
1000
0000
0100
0000
0010
,
0100
0000
0000
0000
1000
0000
0000
0000
0001
0100
0001
0100
0001
0000
0000
0000
,
1000
0010
1000
0010
1000
0010
1000
0010
0100
0000
0000
0000
0000
0000
0000
0000
,
0110
0000
0010
1000
0100
0010
0000
0110
,
0000
0000
0100
0000
1000
0000
0001
0000
0100
0000
0001
0100
0010
0100
0010
0100
,
0001
0000
0000
0000
1000
0000
0100
0000
0010
0000
0001
0000
0000
0000
1000
0001
,
0010
0100
1000
0001
1000
0000
0001
1000
0010
0100
0001
1000
0100
0000
0000
0000
,
1100
0000
0000
0000
1000
0000
0000
0001
0000
0000
1000
0000
0010
0000
0110
0000
,
0000
0000
0100
0001
1000
0000
0100
0000
0010
0000
0100
0000
1000
0000
2001
0000
,
0000
0000
3001
0100
0010
1000
0100
1200
,
0000
0000
0310
0011
0000
0001
1000
0000
,
1001
0000
0000
0000
0001
0000
0100
0000
0010
0000
1000
0001
1000
0001
0010
0000
,
0000
0000
0100
0000
1000
0000
0010
0000
0100
0000
0010
1000
0001
0000
1000
0000
,
1100
0000
0200
0000
0000
0000
0310
0100
1000
0001
0100
0001
1000
0000
0020
0000
,
0000
0130
0010
2010
0000
3001
0011
0010
,
0100
0000
0000
0000
1100
0000
0000
1000
0000
0000
0001
0000
0100
0000
0101
0000
,
0000
0000
0001
1000
0010
0000
0100
0000
0001
0000
1000
0000
0100
0000
0210
0000
,
0000
0000
0310
0100
1000
0001
0100
0020
,
0000
0000
0130
0001
1000
0000
0001
0000
1000
0100
1000
0100
0010
0000
0001
0000
,
1001
0000
1000
0010
0100
0001
0100
2000
,
0000
0000
3100
0010
0100
0000
0001
0000
1000
0000
0100
1000
0100
1000
0100
1000
,
0001
1000
0010
0100
0001
0100
0010
1020
,
0000
0000
1030
1100
0000
0001
0110
0000
,
0001
0000
0000
0000
1001
0000
0000
1000
0000
0000
0100
0000
1000
0000
0001
0000
,
0010
0000
0100
1000
0001
0000
0100
0000
0010
0000
1000
0000
0010
0000
0100
0000
,
0001
0000
1000
0000
0100
0000
0010
0000
0001
0010
0001
0010
0001
0010
0100
0000
,
0000
0000
1000
0000
0010
0000
0100
0000
0001
0000
1000
0100
0010
0001
1000
0001
,
0100
0000
0010
0000
1010
1000
0001
0020
,
0000
0000
0130
1000
1001
0000
0001
0010
,
0100
1000
0010
0100
0101
0001
0000
0110
,
0000
0000
1010
0000
0000
0000
1000
0001
0010
0000
0100
0000
1000
0000
0000
0000
,
0100
0010
0001
1000
1010
0000
0010
0100
,
0001
0010
0000
0100
1100
0000
1000
0000
,
0100
0000
0001
0100
1000
0001
0100
0120
,
0000
0000
0100
0000
0000
0000
1030
0001
1000
0000
0001
0000
0010
0000
0000
0000
,
0110
0000
0100
0000
0011
0001
1000
0020
,
0000
0000
0130
0001
1001
0000
1000
0001
,
0010
1000
0010
0100
1100
1000
0000
0110
,
0000
0000
0011
0000
0000
0000
0001
1000
0010
0000
0100
0001
1000
0100
0010
0001
,
1000
0000
0010
0000
0100
0000
0101
0000
0000
0001
0100
0010
1000
0000
0001
0000
,
0010
0000
0110
0000
0000
0000
1000
0100
0010
0000
0001
0000
0100
0000
0010
1000
,
0002
0000
0000
0000
1003
0000
0001
0000
0010
0100
0010
0100
1000
0001
0100
0000
,
0000
0000
0110
0000
0010
0000
1000
0000
0100
0000
0010
0000
0001
1000
0001
1000
,
0001
0000
0000
1000
0000
0000
0010
0000
,
0000
0100
0000
0000
0001
0000
1000
0000
,
0100
0000
0000
0000
0010
0000
0001
0000
1000
0010
1000
0010
0100
0010
1000
0001
,
0010
0000
0000
0100
1000
0010
0100
1000
,
0100
0001
0010
0100
1000
0001
1000
0010
,
0000
0001
0010
0100
0010
1000
0001
0010
,
0100
0000
1000
0000
0010
0000
0100
0000
0001
0000
1000
0000
0100
1000
0020
0000
,
0000
0031
0010
1000
0010
0100
0001
1000
,
0100
0010
0100
0001
0100
1000
0010
0100
,
0010
0001
0010
1000
0100
0010
0001
0100
,
0010
0000
0100
0000
0001
0000
0010
0000
0100
0000
1000
0000
0010
1000
0001
0000
,
0000
0001
0000
0010
0001
0100
0010
0001
,
0010
1000
0100
0010
0001
1000
0001
0100
,
0000
1000
0100
0010
0100
0001
1000
0100
,
0010
0000
0001
0000
0100
0000
0010
0000
1000
0000
0001
0000
0100
0001
0020
0000
,
0000
0000
1030
0000
0010
0000
0001
0010
0100
1000
0001
0100
0010
0000
2000
0000
,
0000
0000
3010
0001
0010
1000
0100
0010
,
0100
0001
0100
1000
0010
0100
0001
0010
,
0100
1000
0010
0001
0010
1000
0100
0001
,
0100
0010
0100
0010
0100
0000
0000
0000
1000
0001
1000
0001
1000
0001
1000
0001
,
0010
0000
0000
0100
0000
0000
2000
0000
,
0000
3000
1100
0000
,
0110
0000
0010
0001
0100
0010
0100
0001
,
0000
0000
1000
0000
1100
0000
0100
0000
0010
0000
0001
1000
0010
0100
0001
1000
,
0010
0000
0200
0000
0301
0010
0100
1200
,
0000
0000
1300
0000
0010
0000
0120
0000
0000
0000
0130
0001
1000
0000
0001
0000
,
0010
0000
0000
0000
0110
0000
0000
0011
0000
0000
1001
0000
0000
0000
1001
0000
,
0000
0000
0001
0100
0010
0000
1000
0000
0100
0000
0010
0000
0001
0000
0201
0000
,
0000
0000
0310
1000
0001
0010
0100
1200
,
0000
0000
0000
0000
1300
0000
1010
0000
0000
0000
0010
0000
0100
0001
0000
0000
,
1001
0000
0000
1000
0000
0000
0001
0000
,
0000
0010
0000
0000
0000
0000
0000
0000
;
