#VERSION:0.83;
#TITLE:君じゃなきゃダメみたい;
#SUBTITLE:;
#ARTIST:大石 昌良;
#TITLETRANSLIT:Kimi Janakya Dame Mitai;
#SUBTITLETRANSLIT:;
#ARTISTTRANSLIT:Masayoshi Oishi;
#GENRE:;
#CREDIT:;
#MUSIC:Kimi Janakya Dame Mitai.ogg;
#BANNER:;
#BACKGROUND:;
#CDTITLE:;
#SAMPLESTART:44.307;
#SAMPLELENGTH:20.000;
#SELECTABLE:YES;
#OFFSET:-0.354;
#BPMS:0.000=131.000;
#STOPS:;
#SPEEDS:0.000=1.000=0.000=0;
#SCROLLS:0.000=1.000;
#TICKCOUNTS:0.000=4;
#TIMESIGNATURES:0.000=4=4;
#LABELS:0.000=Song Start;
#COMBOS:0.000=1;
#ORIGIN:;
#PREVIEWVID:;
#JACKET:;
#CDIMAGE:;
#DISCIMAGE:;
#BGCHANGES:;
#FGCHANGES:;

//--------------- dance-single - ----------------
#NOTEDATA:;
#STEPSTYPE:dance-single;
#DESCRIPTION:;
#DIFFICULTY:Beginner;
#METER:3;
#RADARVALUES:0.164085,0.188319,0.022303,0,0,103,101,2,0,0,0,0,0,0,0.164085,0.188319,0.022303,0,0,103,101,2,0,0,0,0,0,0;
#CHARTNAME:;
#CHARTSTYLE:;
#CREDIT:ZSL;
#NOTES:
0000
0000
0000
0000
,
0000
0000
0000
0000
,
0000
0000
0000
0000
,
0000
0000
0000
0000
,
1000
0000
0001
0000
,
0010
0000
0100
0100
,
0100
0000
1000
0000
,
0001
0001
0000
0000
,
1000
0000
0010
0000
,
0100
0000
0001
0000
,
0010
0000
0001
0000
,
0100
0000
0010
0010
,
1000
0000
0100
0000
,
0010
0000
0001
0000
,
0100
0000
0001
0000
,
0010
0000
0100
0100
,
1000
0000
0001
0000
,
0100
0000
0010
0000
,
0100
0000
0001
0000
,
1000
0000
0100
0100
,
0010
0000
0000
0000
,
0001
0000
0001
0000
,
1000
0000
0010
0000
,
0100
0000
0000
0001
,
1000
0100
1000
0000
,
0001
0010
0001
0000
,
0000
0100
0010
0000
,
1000
0001
0010
0000
,
0100
0000
0100
0000
,
1000
0000
1000
0000
,
0010
0000
0010
0000
,
0100
0000
0001
0000
,
0100
0010
0100
0000
,
0001
1000
0001
0000
,
0000
0010
0100
0000
,
0010
0001
1000
0000
,
0010
0000
0100
0000
,
0001
0000
1000
0000
,
0100
0000
0010
0000
,
1001
0000
0000
0000
,
0001
0000
0100
0000
,
0010
0000
0100
0100
,
0001
0000
0010
0000
,
0100
0000
1000
0000
,
0001
0000
0010
0000
,
0100
0000
0010
0010
,
0001
0000
0100
0000
,
0010
0010
0100
0100
,
0000
0110
0000
0000
;

//--------------- dance-single - ----------------
#NOTEDATA:;
#STEPSTYPE:dance-single;
#DESCRIPTION:;
#DIFFICULTY:Easy;
#METER:5;
#RADARVALUES:0.235772,0.269027,0.066908,0,0,148,142,6,0,0,0,0,0,0,0.235772,0.269027,0.066908,0,0,148,142,6,0,0,0,0,0,0;
#CHARTNAME:;
#CHARTSTYLE:;
#CREDIT:ZSL;
#NOTES:
0000
0000
0000
0000
,
0000
0000
0000
0000
,
0000
0000
0000
0000
,
0000
0000
0000
0000
,
1000
0001
0100
0000
,
0010
0100
0001
0100
,
0010
1000
0001
0000
,
0010
0010
0000
0000
,
0001
1000
0010
0000
,
0100
0001
1000
0000
,
0100
0010
0100
1000
,
0001
0100
0010
0000
,
1000
0001
0010
0000
,
0100
1000
0001
0000
,
0100
0010
0100
0001
,
1000
0100
0010
0000
,
0100
1000
0001
0000
,
0100
0010
1000
0000
,
0001
0010
0100
1000
,
0010
0100
0010
0000
,
0110
0000
0000
0000
,
0001
0010
0100
1000
,
0010
0000
0100
0010
,
1000
0000
0000
0001
,
0010
0001
1000
0010
,
0100
0001
0010
0000
,
0100
1000
0010
1000
,
0001
0100
0010
1000
,
0100
0000
0010
0001
,
1000
0000
0010
1000
,
0001
0000
0010
0000
,
0100
1000
0001
0000
,
0100
0010
1000
0010
,
0100
0001
0010
0000
,
0100
1000
0010
0100
,
0001
1000
0010
0000
,
1000
0100
0010
0100
,
1000
0001
0100
0010
,
1000
0000
0001
0000
,
1001
0000
0000
0000
,
1000
0100
0010
0000
,
0001
0100
0010
0100
,
0001
1000
0100
0000
,
0010
0100
1000
0010
,
0100
0010
1000
0000
,
0001
0010
0100
0010
,
0001
1000
0010
0000
,
0100
0001
0010
0100
,
0000
1001
0000
0000
;

//--------------- dance-single - ----------------
#NOTEDATA:;
#STEPSTYPE:dance-single;
#DESCRIPTION:;
#DIFFICULTY:Medium;
#METER:10;
#RADARVALUES:0.471544,0.457346,0.223028,0.055757,0.066908,296,276,20,5,0,0,0,0,0,0.471544,0.457346,0.223028,0.055757,0.066908,296,276,20,5,0,0,0,0,0;
#CHARTNAME:;
#CHARTSTYLE:;
#CREDIT:ZSL;
#NOTES:
0000
0000
0000
0000
,
0000
0000
0000
0000
,
0000
0000
0000
0000
,
0000
0000
0000
0000
,
1000
0001
0100
0000
0001
1000
0100
0000
,
0010
0001
1000
0010
0100
0100
0001
0001
,
1000
0100
0010
0000
0001
0100
0010
0000
,
1000
0001
1000
0001
1000
0001
0000
0000
0000
0200
0000
0000
,
0310
1000
0100
0010
0100
0000
0010
0100
,
1000
0010
0100
0001
1000
0100
0010
0100
,
1100
0001
0000
0000
0101
1000
0000
0000
,
1010
0001
0000
0000
0011
1000
0001
0000
,
0010
0100
1000
0001
0100
0000
0001
0010
,
0100
1000
0001
0100
0010
1000
0100
0010
,
0011
1000
0000
0000
1010
0001
0000
0000
,
0101
1000
0000
0000
1100
0001
1000
0000
,
0010
0100
0001
0000
0101
0000
0001
0100
,
1000
0000
0100
0000
0110
0000
1000
0100
,
0110
0001
0000
0000
0110
1000
0000
0000
,
1010
0100
0000
0000
0101
0010
1000
0001
,
0010
0000
0000
0000
0000
0001
0100
0001
,
0010
1000
0010
0001
0100
1000
0100
0001
,
0010
0000
0000
0100
0000
0000
1000
0000
0010
0000
0000
0100
0000
0000
0001
0000
,
0020
0000
0030
0100
,
1000
0001
0100
0001
0010
0100
1000
1010
,
0000
0100
0001
0000
1000
0100
0010
1001
,
0000
0001
0100
0010
1000
0100
1000
0010
,
0000
0100
0010
1000
0100
0010
0001
0100
,
0000
0010
1000
0010
0001
0010
0100
0001
,
0000
0010
0100
1000
0001
1000
0100
0002
,
0000
0103
1000
0010
0100
0000
0010
0201
,
0000
0000
0000
0301
1000
0000
0000
0000
,
0100
0010
0001
0100
1000
0100
0010
1000
,
0000
0100
0010
0000
0001
1000
0001
0101
,
0000
0100
0010
1000
0100
0010
0100
0001
,
0000
0100
1000
0001
0100
0010
0100
0001
,
0000
1000
0100
0010
1000
0010
0100
1000
,
0000
0001
0100
0010
0001
0010
0100
0002
,
0000
0000
0000
1003
0100
0000
0000
0010
,
0011
0001
1000
0010
0100
0010
1000
0000
,
0010
1000
0100
0000
0010
0001
0100
0000
,
0001
0100
0010
1000
0100
0100
0010
0010
,
0100
1000
0010
0000
0100
0001
0010
0000
,
0001
0100
0010
0100
1000
0100
0001
0000
,
0010
0100
1000
0000
0010
0100
0001
0000
,
1000
0001
0010
0001
0100
0100
0010
0010
,
1000
0100
0010
0000
0001
0100
0010
0000
,
1000
0010
1000
0010
0000
0000
0100
0001
0100
0001
0100
0001
,
0000
1001
0000
0000
;

//--------------- dance-single - ----------------
#NOTEDATA:;
#STEPSTYPE:dance-single;
#DESCRIPTION:;
#DIFFICULTY:Hard;
#METER:14;
#RADARVALUES:0.649966,0.676052,0.356844,0.267633,0.496236,408,376,32,24,0,0,0,0,0,0.649966,0.676052,0.356844,0.267633,0.496236,408,376,32,24,0,0,0,0,0;
#CHARTNAME:;
#CHARTSTYLE:;
#CREDIT:ZSL;
#NOTES:
0000
0000
0000
0000
,
0000
0000
0000
0000
,
0000
0000
0000
0000
,
0000
0000
0000
0000
,
0001
0000
0100
0010
1000
0001
0000
0000
0010
0100
1000
0001
0000
0000
0000
0000
,
0100
0000
0000
0000
0000
0000
0010
0000
0000
1000
0000
0000
0100
0000
0000
0010
0000
0000
0000
0000
0000
0000
0000
0000
0001
0000
0100
0000
0001
0000
0100
0000
0000
0000
0000
0000
0010
0000
1000
0000
0010
0000
1000
0000
0000
0000
0000
0000
,
0100
0000
1000
0001
0100
0010
0000
0000
0100
0001
0010
0100
0000
0000
1000
0000
,
0001
0100
1000
0001
0010
1000
0000
0000
0000
0200
0000
0000
,
1300
0000
0001
0000
0100
0000
0010
1000
0002
0000
0000
0000
0013
0000
0100
0000
,
1000
0000
0010
0000
0100
0000
0001
1000
0100
0000
0010
0000
0001
0000
1000
0000
,
2100
3001
0100
0010
2010
3001
0010
0100
,
1200
0310
0001
0100
0120
1030
0001
0000
,
1000
0000
0100
0000
0010
0000
0100
1000
0002
0000
0000
0000
1003
0000
0010
0000
,
0100
0000
0001
0000
0010
0000
0100
0010
0001
0000
1000
0000
0010
0000
1000
0000
,
0210
0301
0010
0100
2100
3001
0100
0010
,
0120
1030
0001
0010
1200
0310
0001
0000
,
0100
0000
0010
0000
1000
0000
0100
1000
0002
0000
0000
0000
0103
0000
0001
0010
,
0100
0000
1000
0000
0010
0000
1000
0010
0100
0000
0001
0000
1000
0000
0010
0000
,
0102
0013
0100
0010
0012
0103
0010
1000
,
2010
3100
0010
0100
2100
3010
0100
0000
,
1001
0000
0000
0000
0000
0001
0100
0010
,
1000
0100
1000
0100
0010
0100
0010
0100
1000
0010
0100
0001
0010
0100
1000
0001
,
0100
0000
0000
0010
0000
0000
1000
0000
1100
0000
0000
0001
0000
0000
0100
0000
,
2020
0000
3030
0100
,
0001
0000
1000
0010
0100
0000
0001
0010
0100
0000
1000
0001
0100
0000
0101
0000
,
0001
0010
0100
1000
1100
0010
0001
1001
,
0000
0000
1000
0100
0010
0000
0001
0100
0010
0000
1000
0000
0001
0000
0110
0000
,
0000
0000
1000
0000
0100
0000
0010
0000
0001
0000
1000
0000
1010
0000
0100
0001
,
1000
0000
0100
0000
0001
0000
0100
0010
0001
0000
1000
0000
0010
0000
0101
0000
,
0000
0000
0001
0000
0100
0000
1000
0100
0010
0000
1000
0000
0100
0000
0120
0000
,
0000
0031
0010
1000
0010
0100
1000
1020
,
0000
0000
0000
0000
0000
0000
0130
0001
0020
0000
0000
0000
0030
0000
0000
0000
,
0100
0000
0010
0001
1000
0000
0010
0100
1000
0000
0100
0001
0010
0000
0110
0000
,
0100
1000
0010
0100
0101
1000
0100
0011
,
0000
0000
0010
0001
1000
0000
0001
0100
1000
0000
0100
0000
0001
0000
0011
0000
,
0000
0000
0010
0000
0100
0000
1000
0000
0001
0000
0100
0000
0110
0000
1000
0100
,
0010
0000
0100
0000
1000
0000
0001
0010
1000
0000
0010
0000
0001
0000
0101
0000
,
0000
0000
0010
0000
1000
0000
0010
0001
1000
0000
0100
0000
0001
0000
2001
0000
,
0000
0000
0000
0000
0000
0000
3100
0010
0001
0000
0000
0000
0000
0000
1000
0000
,
1010
0010
0100
0001
0010
0100
1000
0000
,
0100
0000
0010
0001
0100
0001
0000
0000
1000
0010
1000
0100
0000
0000
0000
0000
,
0010
0000
0000
0000
0000
0000
0001
0000
0000
1000
0000
0000
0010
0000
0000
0100
0000
0000
0000
0000
0000
0000
0000
0000
0001
0000
0010
0000
0001
0000
0010
0000
0000
0000
0000
0000
0100
0000
0010
0000
0100
0000
0010
0000
0000
0000
0000
0000
,
0001
0000
0010
0100
1000
0010
0000
0000
0100
0001
0010
0100
0000
0000
1000
0000
,
0001
0100
0010
1000
0100
0010
0100
1000
,
0010
0000
0001
0010
0100
0001
0000
0000
1000
0100
0010
1000
0000
0000
0000
0000
,
0010
0000
0000
0000
0000
0000
0001
0000
0000
0100
0000
0000
0001
0000
0000
0010
0000
0000
0000
0000
0000
0000
0000
0000
0100
0000
1000
0000
0100
0000
1000
0000
0000
0000
0000
0000
0001
0000
0100
0000
0001
0000
0100
0000
0000
0000
0000
0000
,
0001
0000
0010
0100
0001
0100
0000
0000
1000
0010
0100
1000
0000
0000
0100
0000
,
0001
1000
0100
0010
1000
0001
0100
1000
0010
0001
1000
0100
,
0000
0202
0303
0000
;
