#VERSION:0.83;
#TITLE:Katharsis;
#SUBTITLE:;
#ARTIST:VILA;
#TITLETRANSLIT:;
#SUBTITLETRANSLIT:;
#ARTISTTRANSLIT:;
#GENRE:;
#CREDIT:;
#MUSIC:Katharsis.ogg;
#BANNER:;
#BACKGROUND:;
#CDTITLE:;
#SAMPLESTART:9.010;
#SAMPLELENGTH:20.000;
#SELECTABLE:YES;
#OFFSET:0.501;
#BPMS:0.000=120.100
,8.000=117.000
,8.500=115.000
,9.000=110.000
,9.500=107.000
,10.000=98.000
,11.000=90.500
,12.000=150.000
,86.000=147.000
,246.000=148.000
,250.000=149.000
,254.000=150.000
,258.000=147.000
,270.000=142.000
,274.000=138.000
,278.000=150.000
;
#STOPS:;
#SPEEDS:0.000=1.000=0.000=0;
#SCROLLS:0.000=1.000;
#TICKCOUNTS:0.000=4;
#TIMESIGNATURES:0.000=4=4,
56.000=5=4,
66.000=4=4,
314.000=5=4,
324.000=4=4
;
#LABELS:0.000=Song Start;
#COMBOS:0.000=1;
#DISPLAYBPM:138.000:150.000;
#ORIGIN:;
#PREVIEWVID:;
#JACKET:;
#CDIMAGE:;
#DISCIMAGE:;
#BGCHANGES:;
#FGCHANGES:;

//--------------- dance-single - ----------------
#NOTEDATA:;
#STEPSTYPE:dance-single;
#DESCRIPTION:;
#DIFFICULTY:Beginner;
#METER:2;
#RADARVALUES:0.075409,0.116686,0.027782,0,0,76,72,4,0,0,0,0,0,0,0.075409,0.116686,0.027782,0,0,76,72,4,0,0,0,0,0,0;
#DISPLAYBPM:138.000:150.000;
#CHARTNAME:;
#CHARTSTYLE:;
#CREDIT:ZSL;
#NOTES:
0000
0000
0000
0000
,
0000
0000
0000
0000
,
0000
0000
0000
0000
,
0000
0000
0000
0000
,
0000
0000
0000
0000
,
1000
0000
0000
0000
,
0001
0000
0000
0000
,
0100
0000
0000
0000
,
0010
0000
0000
0000
,
1000
0000
0000
0000
,
0001
0000
0000
0000
,
0010
0000
0000
0000
,
0100
0000
0000
0000
,
0010
0000
0000
0000
,
0001
0000
0000
0000
,
0000
1000
0000
0000
,
0000
0000
0010
0000
,
0000
0000
0100
0000
,
0000
0000
0001
0000
,
0000
0000
1000
0000
,
0000
0000
0001
0000
,
0000
0000
0010
0000
,
0000
0000
0100
0000
,
0000
0000
0000
0000
,
0000
0000
1000
0000
,
0000
0000
0000
0000
,
0000
0000
0001
0000
,
0000
0000
0000
0000
,
0000
0000
0100
0000
,
0000
0000
0010
0000
,
0000
0000
0100
0000
,
0000
0000
0000
0000
,
0000
0000
0001
0000
,
0000
0000
0000
0000
,
0000
0000
1000
0000
,
0000
0000
0000
0000
,
0000
0000
0001
0000
,
0000
0000
0000
0000
,
0000
0000
0100
0000
,
0000
0000
0000
0000
,
0000
0000
0001
0000
,
0000
0000
1000
0000
,
0000
0000
0001
0000
,
0000
0000
0010
0000
,
0000
0000
0100
0000
,
0000
0000
1000
0000
,
0000
0000
0100
0000
,
0000
0000
0010
0000
,
0000
0000
0001
0000
,
0000
0000
0100
0000
,
0000
0000
0010
0000
,
0000
0000
0100
0000
,
0000
0000
0001
0000
,
0000
0000
1000
0000
,
0000
0000
0010
0000
,
0000
0000
1000
0000
,
0000
0000
1001
0000
,
0000
0000
0000
0000
,
0000
0000
0110
0000
,
0000
0000
0000
0000
,
0000
0000
1001
0000
,
0000
0000
1000
0000
,
0000
0000
0001
0000
,
0000
0000
0010
0000
,
0000
0000
0100
0000
,
0000
0000
0000
0000
,
1000
0000
0000
0000
,
0000
0000
0010
0000
,
0000
0000
0100
0000
,
0000
0000
0001
0000
,
0000
0000
1000
0000
,
0000
0000
0100
0000
,
0000
0000
0010
0000
,
0000
0000
0001
0000
,
0000
0000
1000
0000
,
0000
0000
0010
0000
,
0000
0000
0100
0000
,
0000
0000
0010
0000
,
0000
0000
1000
0000
,
0000
0000
0000
0001
,
0000
0000
0000
0000
,
0010
0000
0000
0000
,
0100
0000
0000
0000
,
1000
0000
0000
0000
,
1001
0000
0000
0000
;

//--------------- dance-single - ----------------
#NOTEDATA:;
#STEPSTYPE:dance-single;
#DESCRIPTION:;
#DIFFICULTY:Easy;
#METER:6;
#RADARVALUES:0.237143,0.295622,0.11113,0.013891,0,239,223,16,2,0,0,0,0,0,0.237143,0.295622,0.11113,0.013891,0,239,223,16,2,0,0,0,0,0;
#DISPLAYBPM:138.000:150.000;
#CHARTNAME:;
#CHARTSTYLE:;
#CREDIT:ZSL;
#NOTES:
0000
0000
0000
0000
,
0000
0000
0000
0000
,
0000
0000
0000
0000
,
0000
0000
0000
0000
,
0000
0000
0000
0000
,
1000
0001
0010
0000
,
0100
1000
0010
0000
,
1000
0100
0001
0100
,
0010
0001
1000
0000
,
0001
1000
0010
0000
,
0100
0001
0010
0000
,
0001
0100
1000
0100
,
0010
1000
0001
0000
,
0010
0110
0000
0100
,
1000
1000
1001
0000
,
0001
0100
0100
0110
,
0000
0010
1000
0001
,
0100
0010
1000
0001
,
0010
0100
1000
0001
,
0000
0100
0010
1000
,
0001
0010
0110
0000
,
0000
0000
0200
0000
,
0000
0000
1300
0000
,
0000
0000
0001
0000
,
0000
0000
0100
0000
,
0000
0000
0010
0000
,
0000
0000
0100
0000
,
0000
0000
0001
0000
,
0000
0000
0010
0000
,
0000
0000
0100
0000
,
1000
1000
0000
0001
,
1000
0000
0000
0010
,
1000
0000
0000
0001
,
0010
0000
0000
0001
,
1000
0000
0000
0010
,
0100
0000
0000
0001
,
0010
0000
0000
0100
,
1000
0000
0000
0001
,
0100
0000
0010
0000
,
1000
0000
0001
0010
,
0100
0000
1000
0010
,
0100
0001
0000
0010
,
0001
1000
0000
0010
,
0001
0010
0000
1000
,
0001
0100
0000
0010
,
0100
0001
0000
1000
,
0100
0010
0000
0100
,
0001
0100
0000
1000
,
0001
0100
0000
0010
,
1000
0100
0000
0010
,
0001
0100
0000
0010
,
0001
0010
0000
1000
,
0001
0010
0000
0100
,
1000
0010
0000
0100
,
0001
0010
0000
0100
,
0001
0100
0000
1000
,
0010
1000
1001
0000
,
0001
0000
0100
0010
,
1000
0100
0110
0000
,
0010
0000
0100
1000
,
0010
0100
0101
0000
,
0001
1000
1100
0000
,
0010
0001
0101
0000
,
0100
0010
0100
0100
,
1000
0100
0001
0000
,
0010
0100
1000
0001
,
0101
0000
0100
0001
,
1000
0100
0110
0000
,
0010
0000
0011
0000
,
1000
0000
0001
1000
,
0010
0000
0100
0001
,
0010
0000
0001
0100
,
1000
0100
0010
1000
,
0001
0000
1000
0001
,
0010
0000
0100
1000
,
0010
0000
1000
0100
,
0001
0100
0010
0001
,
1000
0000
0010
0110
,
0000
0100
0001
0001
,
1001
0000
1000
0100
,
0100
0110
0000
0010
,
0001
1000
0100
0010
,
0001
1000
0010
0100
,
0001
1000
0000
0100
,
0011
2000
0000
0000
,
0000
3000
0000
0000
0000
0000
0000
0000
;

//--------------- dance-single - ----------------
#NOTEDATA:;
#STEPSTYPE:dance-single;
#DESCRIPTION:;
#DIFFICULTY:Medium;
#METER:11;
#RADARVALUES:0.434596,0.53212,0.125021,0.013891,0,438,420,18,2,0,0,0,0,0,0.434596,0.53212,0.125021,0.013891,0,438,420,18,2,0,0,0,0,0;
#DISPLAYBPM:138.000:150.000;
#CHARTNAME:;
#CHARTSTYLE:;
#CREDIT:ZSL;
#NOTES:
0000
0000
0000
0000
,
0000
0000
0000
0000
,
0000
0000
0000
0000
,
0000
0000
0000
0000
,
0000
0000
0000
0000
,
0001
1000
0010
0100
0001
1000
0100
0000
,
0010
0001
1000
0010
0100
0001
0100
0000
,
0001
1000
0100
0010
1000
0010
0001
0000
,
1000
0010
0100
0001
1000
0000
1100
0000
,
0100
0010
0001
0100
0010
1000
0001
0000
,
0010
0100
1000
0010
0100
0001
1000
0000
,
0001
0100
0010
0100
1000
0100
0001
0000
,
1000
0100
0010
0001
0100
0000
0001
0000
,
1000
0000
1001
0000
0001
0100
0010
0000
,
1000
0000
0100
0000
0110
0000
0010
0001
,
1000
0010
0100
0000
0001
0000
1001
0000
,
1000
0100
1000
0010
0100
0000
0001
0100
,
0010
0000
1000
0100
0010
0000
0010
0100
,
1000
0000
0010
0100
0001
0000
1000
0000
,
0001
1000
0100
0000
0010
0000
0100
0100
,
1000
0001
1000
1000
,
1000
0000
0010
0010
0200
0000
0000
0000
,
0000
0000
0301
0000
,
1000
0010
1000
0000
,
0001
0010
0001
0000
,
0100
0010
0100
0000
,
0001
1000
0001
0000
,
0100
0010
1000
0000
,
0001
0010
0100
1000
,
0100
0010
0001
0100
,
0010
0000
0100
0000
0001
0000
1000
0100
,
1000
0000
0010
0000
0000
0000
0100
0001
,
0100
0000
0010
0000
0000
0000
1000
0100
,
0010
0000
0100
0000
0000
0000
1000
0001
,
0100
0000
0010
0000
0000
0000
1000
0001
,
0010
0000
0100
0000
0000
0000
1000
0010
,
0100
0000
0001
0000
0000
0000
0010
0001
,
0100
0000
0010
0000
0000
0000
0100
0001
,
0010
0000
0100
0000
1000
0000
0001
1000
,
0001
1000
0100
0010
0001
0100
0010
1000
,
0001
0000
0000
0000
1000
0000
0010
0100
,
0010
0000
1000
0000
0001
0000
0010
0100
,
0010
0000
0001
0000
1000
0000
0010
0100
,
0001
0000
1000
0000
0001
0000
0010
0100
,
1000
0000
0001
0000
0100
0000
0010
1000
,
0100
0000
1000
0000
0100
0000
0010
0001
,
0100
0000
0001
0000
1000
0000
0010
0100
,
1000
0000
0100
0000
0001
0000
0010
0100
,
0001
0000
0100
0000
1000
0000
0001
0100
,
0010
1000
0001
0000
1000
0000
0100
0010
,
0001
1000
0100
0000
1000
0000
0010
1000
,
0100
0010
0100
0000
1000
0000
0100
1000
,
0010
0100
0010
0000
0100
0000
0001
0010
,
0100
1000
0001
0000
0100
0000
0010
0100
,
0001
1000
0010
0000
1000
0000
0100
0010
,
1000
0010
0100
0000
0010
0000
0001
0100
,
1000
0100
0010
0000
0110
0000
0100
0001
,
1000
0000
0100
0010
0001
0000
0100
0010
,
1000
0000
0001
0000
1001
0000
1000
0100
,
0010
0000
0001
0100
0010
0000
0100
0001
,
0010
0000
0100
0000
1100
0000
1000
0010
,
0100
0010
1000
0000
1001
0000
0001
0010
,
0100
0010
0001
0000
0101
0000
0100
0010
,
1000
0100
0010
0110
0000
1100
0000
1001
,
0001
0100
0010
1000
0100
0000
0000
0010
,
0010
0000
0001
0000
1000
0001
1000
0001
,
0010
0000
0000
0100
0100
0000
1000
0000
,
0001
1000
0001
1000
0010
0000
0000
0000
,
0110
0000
0001
0000
,
1001
0000
0000
0000
1000
0001
0010
0100
,
1000
0001
0100
0000
0010
1000
0001
0010
,
0100
1000
0100
0000
1000
0001
0100
0010
,
0001
0010
1000
0000
0001
0010
0100
1000
,
0001
0000
0101
0000
0100
0010
1000
0100
,
0010
0001
1000
0000
0010
0100
0001
0010
,
0100
1000
0001
0000
1000
0100
0010
0100
,
0001
0100
1000
0000
0001
0100
0010
1000
,
0100
1000
0001
1001
,
1000
0100
0010
0000
0001
0000
0100
0000
,
0110
0000
0010
1000
0001
0010
0100
0000
,
1000
0000
1001
0000
0001
0100
0001
0010
,
0100
0000
1000
0100
0010
0000
0001
0100
,
0010
0000
0010
0100
0001
0000
0010
0100
,
1000
0000
0001
0000
0100
0100
0010
1000
,
1000
0002
0000
0000
,
0000
0003
0000
0000
0000
0000
0000
0000
;

//--------------- dance-single - ----------------
#NOTEDATA:;
#STEPSTYPE:dance-single;
#DESCRIPTION:;
#DIFFICULTY:Hard;
#METER:13;
#RADARVALUES:0.571524,0.650369,0.076402,0.013891,0.295188,576,565,11,2,0,0,0,0,0,0.571524,0.650369,0.076402,0.013891,0.295188,576,565,11,2,0,0,0,0,0;
#DISPLAYBPM:138.000:150.000;
#CHARTNAME:;
#CHARTSTYLE:;
#CREDIT:ZSL;
#NOTES:
0000
0000
0000
0000
,
0000
0000
0000
0000
,
0000
0000
0000
0000
,
0000
0000
0000
0000
,
0000
0000
0000
0000
,
0001
0000
1000
0000
0100
0000
0010
0000
0100
1000
0100
0000
1000
0000
0000
0000
,
0001
0000
1000
0000
0010
0000
0100
0000
0010
1000
0010
0000
1000
0000
0000
0000
,
0001
0000
0010
0000
0100
0000
1000
0000
0010
0100
0010
0100
0001
0000
0000
0000
,
1000
0000
0100
0000
0001
0000
0100
0000
1000
0000
0000
0001
1000
0000
0000
0000
,
0010
0000
0100
0000
0001
0000
1000
0000
0100
0010
0001
0000
1000
0000
0000
0000
,
0100
0000
0010
0000
0001
0000
1000
0000
0010
0100
0001
0000
1000
0000
0000
0000
,
0100
0000
0010
0000
0100
0000
1000
0000
0010
1000
0001
0100
0010
0000
0000
0000
,
0100
0000
0010
0000
1000
0100
0010
0001
0100
0000
0000
0000
0010
0000
0000
0000
,
1000
0000
0000
0000
1100
0000
0000
0100
0010
0000
0001
0000
1000
0001
1000
0000
,
0010
0000
0000
0000
0100
0000
0000
0000
0101
0000
0000
0001
1000
0000
0100
0000
,
0010
0001
0010
0000
0001
0000
1000
0000
0010
0000
0100
0000
0101
0000
0000
0001
,
1000
0000
0100
0000
0010
0001
0010
0001
1000
0000
0010
0000
0001
0000
0010
0000
,
1000
0100
0001
0100
1000
0010
0001
1000
,
0100
0000
0001
0000
0010
0000
0100
0000
1000
0000
0000
0000
0110
0000
0000
0010
,
0001
0000
1000
0000
0001
0000
0100
0000
0010
0000
0000
1000
0100
0000
0010
0000
,
0001
0000
1000
0000
0010
0000
0100
0001
0100
0000
0000
0000
0010
0000
0000
0000
,
0010
0000
0000
0000
0010
0000
1000
0001
2000
0000
0000
0000
0000
0000
0000
0000
,
0000
0000
3001
0000
,
1000
0100
0010
0000
,
0001
0100
0010
0000
,
0100
0001
1000
0000
,
0100
0010
0001
0000
,
1000
0010
0100
0000
,
0001
1000
0100
0010
,
0001
1000
0010
0001
,
0010
0000
1000
0000
0001
0000
0100
0001
,
1000
0001
0010
0000
0100
0000
0010
0001
,
1000
0001
0100
0000
0001
0000
0010
0100
,
0001
0100
0010
0000
0001
0000
0010
0100
,
1000
0010
0100
0000
0001
0000
0100
0001
,
1000
0100
0010
0000
0100
0000
1000
0010
,
0100
0001
0010
0000
0001
0000
0100
0010
,
0100
1000
0100
0000
0010
0000
1000
0100
,
0010
1000
0010
0000
0100
1000
0010
0100
,
0001
0000
0010
0000
0100
0000
1000
0000
0001
0000
0100
0000
0001
0000
1000
0100
,
1000
0000
0000
0000
0001
0100
0010
1000
,
0001
0010
0001
0000
1000
0000
0000
0000
0010
0000
0100
0000
0001
1000
0000
1000
,
0100
0010
0001
0000
1000
0010
0100
0001
,
0010
0100
0000
0100
1000
0000
0000
0000
0001
0100
0000
0001
1000
0000
0001
0000
,
0010
0100
0000
1000
0001
0000
0000
0000
0100
0000
0010
0000
1000
0010
0000
0010
,
0100
0000
0001
0000
1000
0000
0000
0000
0100
0000
0010
0000
0001
0100
0000
0100
,
0010
1000
0001
0000
1000
0100
0010
0001
,
0100
0000
0010
0100
0001
0000
0000
0000
1000
0000
0100
0000
1000
0000
0100
0010
,
0100
0000
0000
1000
0001
0000
0000
0000
1000
0000
0001
0000
0100
0010
0000
1000
,
0001
0010
0000
0000
0001
0000
0000
0000
1000
0000
0100
0000
0010
0000
0100
1000
,
0100
1000
0000
0000
0001
0000
0000
0000
0100
0000
0010
0000
0100
0000
0001
1000
,
0010
1000
0010
0000
0100
0000
0000
0000
0001
0000
0010
0000
0100
1000
0000
0001
,
1000
0001
0000
0000
0100
0000
0000
0000
0010
0000
1000
0000
0001
0000
0010
0100
,
1000
0100
1000
0000
0001
0000
0000
0000
0100
0000
0010
0000
1000
0001
0000
0010
,
0100
0010
0000
0000
0001
0000
0000
0000
1000
0000
0010
0000
0100
0000
0001
1000
,
0001
0000
0010
0000
0100
0000
0000
0000
1000
0000
0100
0000
0010
0000
0001
1000
,
0001
0100
0010
0000
1000
1000
0001
0010
,
1000
0010
0100
1000
0010
0001
0010
1000
,
0001
0100
0010
1000
0001
0000
0000
0000
1000
0000
1000
0000
0001
0000
0100
0000
,
1000
0100
0010
1000
0100
0001
0100
1000
,
0001
0010
0100
1000
0001
0000
0000
0000
0100
0000
0100
0000
0010
0000
1000
0000
,
0001
0010
0100
0010
0001
0000
0000
0000
0010
0000
0010
0000
0001
0000
1000
0000
,
0010
0100
0001
0100
0010
0000
0000
0000
1000
0000
1000
0000
0100
0000
0010
0000
,
0100
1000
0001
0100
0010
0000
1000
0000
0010
0000
1000
0000
0100
0000
0010
0000
,
1000
0001
0100
0010
0011
0000
0000
0001
,
0001
1000
0010
0100
0001
1000
0100
0010
,
0001
0000
0000
1000
1000
0001
0010
0100
,
1000
0001
0100
0010
1000
0000
0000
0000
,
0110
0000
0010
0000
,
0101
0000
0000
0000
1000
0001
0100
0010
,
0100
0001
0100
0000
0001
0000
0000
0000
1000
0000
0001
0000
0010
0000
0100
0000
,
0010
0001
0010
0000
0001
0000
0000
0000
1000
0000
0010
0000
0100
0000
0001
0000
,
0010
0100
0010
0100
1000
0000
0000
0000
0001
0000
0100
0000
1000
0000
0100
0000
,
0001
0000
0000
1000
0001
0000
0000
0000
0010
0000
0100
0000
1000
0000
0001
0000
,
0100
0010
1000
0000
0001
0000
0000
0000
0100
0000
0010
0000
1000
0000
0001
0000
,
0010
0100
1000
0000
0001
0000
0000
0000
0100
0000
0010
0000
0100
0000
0001
0000
,
0010
0001
1000
0100
0010
0000
0000
0000
0100
0000
0010
0000
0001
0100
0010
1000
,
0100
0000
0000
0000
0010
0000
0000
0000
0001
0000
0000
0000
0101
0000
0000
0100
,
0010
0000
1000
0000
0001
1000
0001
0000
0010
0000
0000
0000
0100
0000
0000
0000
,
1100
0000
0000
1000
0001
0000
0100
0000
0010
1000
0010
0000
1000
0000
0001
0000
,
0010
0000
0100
0000
1100
0000
0000
1000
0001
0000
0100
0000
0010
1000
0010
1000
,
0001
0010
1000
0010
0001
0100
1000
0100
,
0001
0010
1000
0001
0100
1000
0010
0100
,
0001
0000
0000
0000
0110
0000
0000
0000
1000
0000
0001
0000
0001
0000
0100
0001
,
0010
0200
0000
0000
,
0000
0300
0000
0000
0000
0000
0000
0000
;

//--------------- dance-single - ----------------
#NOTEDATA:;
#STEPSTYPE:dance-single;
#DESCRIPTION:;
#DIFFICULTY:Challenge;
#METER:16;
#RADARVALUES:0.745164,0.886867,0.187531,0.013891,0.767489,751,724,27,2,0,0,0,0,0,0.745164,0.886867,0.187531,0.013891,0.767489,751,724,27,2,0,0,0,0,0;
#DISPLAYBPM:138.000:150.000;
#CHARTNAME:;
#CHARTSTYLE:;
#CREDIT:ZSL;
#NOTES:
0000
0000
0000
0000
,
0000
0000
0000
0000
,
0000
0000
0000
0000
,
0000
0000
0000
0000
,
0000
0000
0000
0000
,
0001
0100
0010
1000
0001
0000
1000
0100
0010
0100
1000
0001
1000
0000
0010
0100
,
0001
0010
0100
1000
0010
0000
0100
0000
0001
1000
0010
0000
1000
0000
0100
0010
,
0001
0100
0001
0100
0001
1000
0010
0100
1000
0100
0010
0000
1000
0000
0100
0000
,
0010
0001
1000
0000
0010
1000
0100
0000
0010
0000
0100
1000
0001
0000
0000
0000
,
0001
0010
0100
1000
0001
0000
1000
0010
0100
0010
1000
0001
1000
0000
0100
0010
,
0001
0100
0010
1000
0100
0000
0010
0000
0001
1000
0100
0000
0010
0000
0100
1000
,
0010
1000
0100
0010
0001
1000
0001
0010
1000
0010
0100
0000
1000
0000
0010
0000
,
0100
0001
1000
0000
0010
0100
0010
0001
0010
0000
1000
0000
1001
0000
0000
0000
,
0101
0000
0000
0000
0000
0000
0000
0000
0000
0000
0000
0000
0110
0000
0000
0000
0000
0000
0000
0000
0000
0100
0000
0000
0001
0000
0000
0000
0000
0000
1000
0000
0000
0000
0000
0000
0100
0000
0000
0010
0000
0000
0001
0000
1000
0000
0001
0000
,
1000
0000
0001
0000
0100
0000
0000
0000
0110
0000
0000
0010
1000
0000
0100
0000
,
0010
0100
1000
0000
0001
0000
0100
0000
0010
0000
1000
0000
1100
0000
0000
0100
,
0010
0000
0001
0000
1000
0001
1000
0001
0100
0000
0010
1000
0100
0000
0010
0001
,
0100
0000
0010
1000
0100
0000
0010
0001
0100
0000
0100
0001
0010
0000
0100
1000
,
0010
0000
0100
0001
0010
0000
0100
1000
0010
0000
0000
0000
0101
0000
0000
0100
,
0010
0000
0000
0000
0000
0000
1000
0000
0000
0000
0000
0000
0001
0000
0000
0000
0000
0000
0010
0000
0000
0000
0000
0000
0110
0000
0000
0000
0000
0000
0000
0000
0000
0100
0000
0000
1000
0000
0001
0000
1000
0000
0001
0000
0000
0000
0000
0000
,
0100
0000
0010
0000
1000
0000
0100
0010
0001
0000
0000
0000
1000
0000
0000
0000
,
1000
0000
0000
0000
1000
0000
0001
0100
0020
0000
0000
0000
0000
0000
0000
0000
,
0000
0000
1030
0000
,
0010
1000
0100
0000
,
0010
0001
0100
0000
,
0001
1000
0010
0000
,
1000
0001
0010
0000
,
0100
1000
0010
0000
,
0100
0001
0010
0100
,
1000
0001
0100
1000
,
0100
0000
0001
0000
0010
0000
0100
1000
,
0001
1000
0010
0000
0100
0000
0010
1000
,
0001
0000
1000
0000
0100
0000
0000
0000
0010
0000
0000
0000
0001
0010
0100
0000
,
0001
0100
1000
0000
0100
0000
0010
0001
,
0100
0010
1000
0000
0001
0000
0010
0100
,
1000
0001
0100
0000
0010
0000
0100
0001
,
0010
0100
1000
0000
0001
0000
0100
0010
,
0001
0010
1000
0000
0100
0000
0010
0100
,
0001
0000
0100
0000
1000
0000
0000
0000
0001
0000
1000
0100
1000
0000
0001
0100
,
0001
0000
1000
0100
0010
0000
0001
0100
0010
0100
0001
1000
0100
1000
0010
0100
,
0001
0000
1000
0000
0001
0000
0000
0000
0100
0000
0001
0000
1000
0100
0010
0000
,
0001
1000
0010
0000
0100
0000
0000
0000
0010
0000
0100
0000
0001
0100
0000
0100
,
0010
1000
0001
0000
1000
0000
0000
0000
0100
1000
0100
1000
0001
0000
0100
0001
,
0010
0100
0000
0100
1000
0000
0000
0000
0010
1000
0000
1000
0100
0000
0010
0001
,
1000
0010
0000
0010
0100
0000
0000
0000
0001
0000
1000
0100
0010
0001
0000
0001
,
1000
0010
0100
0000
0010
0000
0000
0000
0100
0000
0001
0000
1000
0001
0000
0010
,
0100
1000
0000
0010
0100
0000
0000
0000
0001
0000
0100
0001
1000
0000
0100
1000
,
0010
0000
0100
0010
1000
0001
0000
0000
0010
0000
0100
0000
1000
0001
1000
0001
,
0100
0010
0000
0010
1000
0000
0000
0000
0001
0000
0010
0100
0010
0001
0000
1000
,
0010
0100
0000
0001
0010
0000
0000
0000
0001
0000
1000
0000
0001
0100
0001
0100
,
0010
1000
0000
1000
0001
0000
0000
0000
0100
0010
1000
0001
0010
0000
0100
0010
,
1000
0010
0001
0000
1000
0000
0000
0000
0100
0000
1000
0010
0100
0001
0000
1000
,
0100
1000
0000
0001
0010
0000
0000
0000
0001
0000
1000
0000
0001
0100
0010
1000
,
0001
0010
0100
0000
1000
0000
0000
0000
0010
0000
0100
0000
0001
0100
0000
0001
,
1000
0100
0000
0010
0001
0000
0000
0000
0100
0001
1000
0010
0100
0000
0010
0000
,
0001
0000
0010
0000
1000
0000
0000
0000
0100
0010
0001
1000
0100
0000
0010
0100
,
0001
0000
0100
0000
1000
0000
0000
0000
1001
0000
1000
0000
0001
0000
0100
0010
,
0100
0001
1000
0100
0010
0000
0100
0010
0001
1000
0010
0100
0001
0000
0100
0001
,
1000
0100
1000
0001
0100
0000
0010
0000
0110
0000
1010
0000
1000
0000
0100
0010
,
0100
1000
0001
0100
0010
0000
0100
0010
1000
0001
0010
0100
1000
0000
0100
1000
,
0001
0100
0001
1000
0100
0000
0010
0000
0110
0000
0011
0000
0001
0100
0010
1000
,
0001
0100
0010
1000
0100
0000
0010
0000
0110
0000
1100
0000
1000
0100
0010
0001
,
1000
0100
0010
0001
0100
0000
0010
0000
1010
0000
1001
0000
0001
0100
0010
1000
,
0001
0010
0100
1000
0010
0000
1010
0000
1000
0000
1100
0000
0100
0000
0110
0000
,
0010
1000
0010
0100
1000
0001
0100
0010
0100
0000
0000
0000
0000
0000
0001
0100
,
0010
1000
0100
0010
0100
1000
0010
0100
,
0001
0000
0000
0000
0000
0000
1000
0100
0010
0000
0001
0000
0100
0000
0010
0000
,
0100
0001
0010
0100
1000
0000
0000
0000
,
0110
0000
0001
0000
,
0101
0000
0000
0000
0000
0000
0000
0000
1000
0100
0010
0001
1000
0000
0001
0100
,
0010
0100
0001
1000
0001
0000
0010
0100
1000
0010
0100
0001
0010
0000
0100
0000
,
1000
0001
0010
0000
0001
0000
0100
0010
1000
0100
1000
0100
1000
0001
0010
0100
,
0001
0100
0010
0000
0001
0000
0100
0000
0010
1000
0001
0000
0010
0001
0100
0000
,
0010
0000
0100
0001
1000
0000
0000
0000
1000
0010
0100
0001
1000
0000
0001
0010
,
0100
0010
0001
1000
0001
0000
0100
0010
1000
0100
0010
0001
0100
0000
0010
0000
,
1000
0001
0100
0000
0010
0000
0100
0001
0010
0001
0100
0010
1000
0001
1000
0010
,
0001
0010
0100
0000
0001
0000
0010
0000
0100
1000
0001
0000
0010
0100
0010
1000
,
0010
0000
0001
0000
1001
0000
0000
0000
1100
0000
0000
0000
0110
0000
0000
0100
,
1000
0000
0000
0000
0000
0000
0001
0000
0000
0000
0000
0000
0100
0000
0000
0010
0000
0000
1000
0000
0001
0000
1000
0000
0001
0000
0000
0000
0000
0000
1000
0000
0000
0000
0000
0000
0100
0000
0000
0000
0000
0000
0000
0000
0000
0000
0000
0000
,
0110
0000
0000
0010
0001
0000
0100
0000
0010
0100
0001
0000
1000
0000
0100
0000
,
0010
0000
0001
0000
0101
0000
0000
0100
0010
0000
1000
0000
0001
1000
0001
1000
,
0100
0000
0010
0001
0100
0000
0010
1000
0100
0000
0010
0001
0100
0000
0010
1000
,
0100
0000
0100
1000
0010
0000
0100
0001
0010
0000
0100
1000
0010
0000
0100
0001
,
0010
0000
0000
0000
0000
0000
0000
0000
0000
0000
0000
0000
1100
0000
0000
0000
0000
0000
0000
0000
0000
0000
0000
0000
0100
0000
0000
0000
0000
0000
0010
0000
0001
0000
1000
0000
0001
0000
0000
0000
0000
0000
0100
0000
0000
0010
0000
0000
,
1000
0200
0000
0000
,
0000
0300
0000
0000
0000
0000
0000
0000
;
