#TITLE:He's a Pirate;
#SUBTITLE:;
#ARTIST:F-777;
#TITLETRANSLIT:;
#SUBTITLETRANSLIT:;
#ARTISTTRANSLIT:;
#GENRE:;
#CREDIT:;
#BANNER:;
#BACKGROUND:;
#LYRICSPATH:;
#CDTITLE:;
#MUSIC:He's a Pirate.ogg;
#OFFSET:-0.001000;
#SAMPLESTART:28.790001;
#SAMPLELENGTH:20.000000;
#SELECTABLE:YES;
#BPMS:0.000000=150.000000
;
#STOPS:
;
#BGCHANGES:;
#KEYSOUNDS:;
#ATTACKS:;

//---------------dance-single - ----------------
#NOTES:
     dance-single:
     :
     Beginner:
     3:
     0.127727,0.155164,0.034722,0.000000,0.000000,103.000000,99.000000,4.000000,0.000000,0.000000,0.000000,0.127727,0.155164,0.034722,0.000000,0.000000,103.000000,99.000000,4.000000,0.000000,0.000000,0.000000:
0000
0000
0000
0000
,
0001
0000
0000
0000
,
1000
0000
0000
0000
,
0010
0000
0100
0000
,
0010
0000
1000
0000
,
0001
0000
0000
0000
,
0010
0000
0000
0000
,
0100
0000
0000
0000
,
1000
0000
0001
0000
,
0100
0000
0010
0000
,
1000
0000
0001
0000
,
0010
0000
0100
0000
,
0010
0000
0001
0000
,
1000
0000
0010
0000
,
0100
0000
0001
0000
,
0100
0000
0010
0000
,
1000
0000
0001
0000
,
0010
0000
0000
0000
,
0100
0000
0010
0000
,
0001
0000
1000
0000
,
0010
0000
0100
0000
,
0010
0000
1000
0000
,
0001
0000
0010
0000
,
0100
0000
1000
0000
,
0100
0000
0010
0000
,
0001
0000
1000
0000
,
0001
0000
0000
0000
,
1001
0000
0000
0000
,
1000
0000
0000
0000
,
1001
0000
0000
0000
,
0010
0000
0000
0000
,
0110
0000
0000
0000
,
0100
0000
0000
0000
,
0010
0000
0000
0000
,
1001
0000
0000
0000
,
0000
0000
0000
0000
,
1000
0000
0000
0000
,
0001
0000
0000
0000
,
0010
0000
0000
0000
,
0100
0000
0000
0000
,
1000
0000
0000
0000
,
0010
0000
0000
0000
,
0100
0000
0000
0000
,
0001
0000
0000
0000
,
1000
0000
0000
0000
,
0001
0000
0000
0000
,
0010
0000
0000
0000
,
0100
0000
0000
0000
,
0010
0000
0000
0000
,
0001
0000
0000
0000
,
1000
0000
0000
0000
,
0010
0000
0000
0000
,
0100
0000
0000
0000
,
0010
0000
0000
0000
,
1000
0000
0000
0000
,
0001
0000
0010
0000
,
0100
0000
1000
0000
,
0010
0000
0100
0000
,
0010
0000
1000
0000
,
0100
0000
0010
0000
,
0001
0000
1000
0000
,
0010
0000
0100
0000
,
0010
0000
1000
0000
,
0100
0000
0000
0000
,
0010
0000
0000
0000
,
0100
0000
0000
0000
,
0010
0000
0000
0000
,
0001
0000
0000
0000
,
1000
0000
0000
0000
,
0010
0000
0000
0000
,
0100
0000
0100
0000
,
0010
0000
0100
0000
;

//---------------dance-single - ----------------
#NOTES:
     dance-single:
     :
     Easy:
     6:
     0.275295,0.279294,0.086805,0.000000,0.000000,222.000000,212.000000,10.000000,0.000000,0.000000,0.000000,0.275295,0.279294,0.086805,0.000000,0.000000,222.000000,212.000000,10.000000,0.000000,0.000000,0.000000:
0000
0000
0000
0000
,
0001
0000
0100
0000
,
0010
0100
0001
0000
,
1000
0001
0010
0001
,
1000
0100
0010
0000
,
0100
1000
0010
0000
,
0100
0010
1000
0000
,
0001
0010
0100
1000
,
0100
0010
0001
0000
,
0100
0010
1000
0001
,
0010
0100
0010
0000
,
0001
1000
0010
0100
,
0001
1000
0001
0000
,
0010
0001
0100
0010
,
0100
0001
0010
0000
,
0100
1000
0001
0001
,
0100
0010
1000
0000
,
0001
0000
1000
1000
,
0100
0010
0001
1000
,
0010
0100
0010
0000
,
1000
0001
0010
0100
,
1000
0001
1000
0000
,
0010
1000
0100
0010
,
0100
1000
0010
0000
,
0100
0001
1000
1000
,
0100
0010
0001
0000
,
1001
0000
1000
0000
,
1010
0000
0010
0000
,
0110
0000
0100
0000
,
0101
0000
0001
0001
,
1001
0000
1000
0000
,
1100
0000
0100
0000
,
0110
0000
0010
0000
,
0001
0000
0100
0100
,
0110
0000
0000
0000
,
0001
0000
1000
0000
,
0100
0000
0000
0000
,
0010
0010
0010
0000
,
0001
1000
0001
0000
,
0100
0010
0100
0000
,
0001
1000
0100
0000
,
0010
0001
0100
0000
,
0010
0100
0001
0000
,
0010
0100
1000
0000
,
0100
0010
0001
0000
,
1000
0001
0100
0000
,
0110
0000
0010
0000
,
1000
0001
0010
0000
,
0110
0000
0100
0000
,
1000
1000
1000
0000
,
0001
0000
0100
0000
,
0010
1000
0100
0000
,
0010
0001
1000
0000
,
0010
0100
0001
0000
,
1000
0000
0001
0001
,
1000
0010
0100
0001
,
0010
0100
0010
0000
,
0001
0010
0100
1000
,
0010
0100
0010
0000
,
1000
0100
0010
0001
,
0100
0010
1000
0000
,
0100
1000
0010
0010
,
0100
0001
1000
0100
,
0010
0000
0001
0000
,
0010
0100
0010
0000
,
0001
0000
1000
0000
,
0010
0100
0010
0000
,
1000
0001
0010
0000
,
0100
1000
0001
0000
,
0100
0010
1000
0001
,
0010
0010
0100
0100
,
1000
0000
0001
0000
;

//---------------dance-single - ----------------
#NOTES:
     dance-single:
     :
     Medium:
     11:
     0.514628,0.527556,0.026041,0.052083,0.117186,415.000000,412.000000,3.000000,6.000000,0.000000,0.000000,0.514628,0.527556,0.026041,0.052083,0.117186,415.000000,412.000000,3.000000,6.000000,0.000000,0.000000:
0000
0000
0000
0001
,
0100
0001
0010
0100
,
1000
0000
0001
1000
0000
0001
1000
0000
0000
0010
0000
0000
,
0100
0010
1000
0001
,
0010
0000
0100
0010
0000
0100
0010
0000
0000
0001
0000
0000
,
1000
0010
0100
0001
,
0010
0000
0100
1000
0000
0001
0100
0000
0000
0010
0000
0000
,
1000
0000
0000
0100
0000
1000
0001
1000
0000
0010
0000
0000
,
0100
0000
0000
0001
0100
0001
0200
0000
0000
0302
0000
0000
,
1003
0100
0010
0100
1000
0001
0010
0001
,
0100
0010
1000
0001
0010
0000
0100
0000
,
1000
0010
0100
0010
1000
0001
0100
0001
,
0010
0100
1000
0001
0100
0000
0010
0000
,
0100
0001
1000
0010
1000
0001
0100
0001
,
0010
0100
1000
0100
0010
0000
0001
0000
,
1000
0001
0100
0010
0001
0010
0100
0001
,
1000
0100
0010
0100
1000
0000
0001
0000
,
0100
0010
0000
1000
0001
0001
1000
1000
,
0001
0100
0010
0100
0001
1000
0010
1000
,
0100
0010
0001
1000
0010
0000
0100
0000
,
0001
0010
0100
0010
0001
1000
0100
1000
,
0010
0100
0001
1000
0100
0000
0010
0000
,
0100
1000
0001
0010
0001
1000
0100
1000
,
0010
0100
0001
0100
0010
0000
1000
0000
,
0001
1000
0100
0010
1000
0010
0100
1000
,
0001
0100
0010
0100
0001
0000
1000
0000
,
0100
0000
0010
0100
0010
0000
0100
1000
,
0001
0000
0100
0010
0100
0000
0001
0100
,
0001
0000
1000
0100
0010
0000
0001
1000
,
0010
0000
0100
0010
1000
1000
1000
0001
,
0010
0000
0100
1000
0001
0000
0100
0001
,
0010
0000
0100
1000
0001
0000
0100
0010
,
1000
0000
0001
0010
0000
0100
0000
1100
,
0000
1000
0010
0100
0001
0001
0001
1000
,
0100
0000
0000
0000
0100
0010
0000
0000
,
0011
0000
0000
0000
0001
0100
0000
0000
,
0110
0000
0000
0000
0010
1000
0000
0000
,
1000
0000
0001
1000
0001
0000
0010
0000
,
0100
1000
0001
0100
,
0010
0000
0100
0000
0001
0000
1000
0100
,
1000
0010
0100
0001
,
1000
0000
0010
1000
0100
0010
0001
0000
,
1000
0000
0010
1000
0010
0000
0100
0000
,
0001
0000
0100
0010
0100
0000
0001
0000
,
1000
0000
0100
0000
0010
0010
0000
0000
,
0100
0000
1000
0001
0001
0000
1000
0000
,
0010
0100
0001
0100
,
0010
0000
1000
0001
0000
1000
0001
0000
0000
0010
0000
0000
,
0100
1000
0001
0100
,
0010
0000
1000
0100
0000
0010
0001
0000
0000
1000
0000
0000
,
0010
0100
0001
1000
,
0100
0000
0010
0100
0000
1000
0100
0000
0000
1000
0000
0000
,
0001
0000
0000
0100
0000
0010
1000
0010
0000
1000
0000
0000
,
0001
0000
0000
0010
0100
0010
0200
0000
0000
2300
0000
0000
,
3001
0000
0100
0000
0010
0100
0001
0000
,
1000
0100
0010
0001
0100
0001
0010
0100
,
1000
0001
0100
0010
1000
0000
0001
0000
,
1000
0010
0100
0001
0010
0001
0100
0010
,
1000
0001
0010
0100
1000
0000
0001
0000
,
0100
0010
0100
0001
0010
0100
0010
0001
,
0100
0010
1000
0001
0010
0000
0100
0000
,
0010
0001
1000
0100
0001
0100
1000
0001
,
0100
0010
1000
0001
0100
0000
0001
0000
,
1000
0000
0100
1000
0100
0000
0010
0100
,
0010
0000
0001
1000
0001
0000
1000
0000
,
0010
0000
0100
0001
0100
0000
0010
0100
,
0010
0000
1000
0001
1000
0000
0000
0000
,
0001
0010
0100
1000
,
0001
0000
0100
0010
0000
1000
0001
0000
0000
0010
0000
0000
,
0100
0000
0000
1000
0000
0001
0100
0001
0000
1000
0000
0000
,
0100
0000
0010
0100
0010
0100
2000
0000
0000
3002
0000
0000
,
0103
0000
0010
0000
;

//---------------dance-single - ----------------
#NOTES:
     dance-single:
     :
     Hard:
     15:
     0.809765,0.806851,0.138888,0.086805,0.798604,653.000000,637.000000,16.000000,10.000000,0.000000,0.000000,0.809765,0.806851,0.138888,0.086805,0.798604,653.000000,637.000000,16.000000,10.000000,0.000000,0.000000:
0000
0000
0000
0000
0000
0000
0000
0000
0000
0001
0000
1000
,
0010
0000
0000
1000
0000
0001
0010
0000
0000
0001
0000
0100
,
0010
0000
0100
0001
1000
0001
0100
0010
0000
1000
0000
0001
,
0010
0000
0000
0100
0000
1000
0001
0000
0000
0100
0000
0010
,
1000
0000
0100
0010
0001
0010
0100
0000
0000
1000
0000
0001
,
1000
0000
0001
0100
0000
0001
0010
0000
0100
1000
0000
0010
,
1000
0000
0100
0010
0001
0100
0010
0000
0000
1000
0000
0010
,
1000
0000
0100
1000
0000
0001
0100
0010
0000
1000
0001
0010
,
0100
0000
1000
0010
1000
0100
0020
0000
0000
0032
0000
0000
,
1003
0000
0100
1000
0100
0000
1000
0100
0010
0000
0100
0010
0100
0000
0010
0001
,
1000
0000
0001
0100
0001
0000
0100
0010
1000
0000
0001
0000
0010
0000
0100
0000
,
1000
0000
0010
1000
0010
0000
1000
0010
0100
0000
0010
0100
0010
0000
0100
0001
,
1000
0000
0001
0010
0001
0000
0010
0100
1000
0000
0010
0000
0100
0000
0001
0000
,
0010
0000
0001
0010
0001
0000
0010
0001
1000
0000
0100
1000
0100
0000
1000
0010
,
0100
0000
0001
0100
0001
0000
0010
0100
1000
0000
0010
0000
1000
0000
0001
0000
,
0010
0000
0100
1000
0100
0000
0010
0100
0001
0000
0100
0000
0010
0000
0100
1000
,
0001
0000
0100
0001
1000
0000
0010
0100
0001
0000
0100
0000
0010
0000
1000
0000
,
0100
0000
1000
0000
0000
0000
0001
0000
0010
0001
0010
0001
1000
0010
0100
0000
,
0001
0000
0100
0001
0100
0000
0001
0100
0010
0000
0100
0010
0100
0000
0010
1000
,
0001
0000
1000
0100
1000
0000
0100
0010
0001
0000
1000
0000
0010
0000
0100
0000
,
0001
0000
0010
0001
0010
0000
0001
0010
0100
0000
0010
0100
0010
0000
0100
1000
,
0001
0000
1000
0010
1000
0000
0010
0100
0001
0000
0010
0000
0100
0000
1000
0000
,
0010
0000
1000
0010
1000
0000
0010
1000
0001
0000
0100
0001
0100
0000
0001
0010
,
0100
0000
1000
0100
1000
0000
0010
0100
0001
0000
0010
0000
0100
0000
1000
0000
,
0010
0000
0100
0001
0100
0000
0010
0100
1000
0000
0100
0000
0010
0000
0100
0001
,
1000
0000
0100
1000
0001
0000
0010
0100
1000
0000
0100
0000
0010
0000
0000
0000
,
1001
0001
0010
0100
1100
1000
0010
0100
,
0110
0010
1000
0001
0101
0100
0010
1000
,
1010
0010
0100
0001
0011
0010
0100
1000
,
1001
0000
0001
0000
0010
0000
0100
0000
1100
0000
1000
0010
0100
0000
0001
0000
,
0101
0010
1000
0100
0011
1000
0100
0010
,
1001
0001
1000
0010
0101
0010
1000
0100
,
0110
2000
3100
0002
0103
2000
3010
0002
,
0013
0000
2000
0000
3100
0000
0010
0000
0001
0000
0100
0010
1000
0000
0100
0000
,
0110
0010
0000
0001
1000
0001
0000
0000
,
0101
0100
0000
0010
1000
0100
0000
0000
,
0011
0001
0000
1000
0010
0100
0000
0000
,
0001
0000
1000
0001
0010
0000
0100
0000
1000
0000
0000
0000
0010
0000
0100
0000
,
0001
0000
0000
0000
0001
0000
0100
0000
0010
0000
0000
0000
1000
0000
1000
0100
,
0010
0000
0000
0000
0100
0000
1000
0000
0010
0000
0000
0000
0100
0001
0100
0001
,
1000
0000
0100
0010
0001
0000
0100
0010
,
1000
0000
0000
0000
0001
0000
0010
0000
0100
1000
0100
1000
0001
0000
0100
0000
,
0010
0000
1000
0010
0100
0000
0010
0100
,
1000
0000
0000
0000
0001
0000
0010
0000
1000
0000
0000
0000
0100
0000
0100
0010
,
0001
1000
0010
0100
0010
1000
0000
0000
,
0001
0000
0000
0000
0000
0000
0100
0000
0000
0000
0000
0000
0010
0000
0000
0000
0000
0000
0100
0000
0000
0001
0000
0000
0010
0000
0000
0000
0000
0000
0000
0000
0000
0000
0000
0000
0100
0000
0000
0000
0000
0000
0000
0000
1000
0000
0000
0000
,
0100
0000
0010
0001
0000
0100
0010
0000
1000
0001
1000
0001
,
0010
0000
0100
1000
0001
1000
0001
0100
0000
0010
0000
1000
,
0010
0000
0100
0001
0000
0010
0100
0000
1000
0001
1000
0100
,
0010
0000
0001
1000
0000
0001
1000
0000
0000
0100
0000
0010
,
0100
0000
1000
0100
0000
1000
0010
0000
0001
0010
0000
0100
,
0001
0000
0010
0001
1000
0100
0010
0000
0000
0001
0000
0100
,
0001
0000
0010
0001
0000
1000
0100
0001
0000
0100
1000
0001
,
0100
0000
0010
1000
0100
0010
0002
0000
0000
2003
0000
0000
,
3001
0000
0010
0000
0001
0000
0100
0000
0010
1000
0010
0100
0001
0000
1000
0000
,
0100
0000
0010
0100
1000
0000
0001
0100
0010
0000
0100
0001
1000
0000
0100
1000
,
0010
0000
0100
0001
0010
0000
0001
1000
0010
0000
1000
0000
0100
0000
1000
0000
,
0010
0000
0100
0010
1000
0000
0001
0010
0100
0000
0010
0001
1000
0000
0010
1000
,
0100
0000
0010
0001
0100
0000
0001
1000
0100
0000
1000
0000
0010
0000
1000
0000
,
0001
0000
0100
0001
1000
0000
0100
0010
0001
0000
0010
0100
1000
0000
0010
1000
,
0100
0000
0010
0001
0100
0000
0001
1000
0010
0000
0001
0000
0010
0000
1000
0000
,
0001
0000
0100
0001
1000
0000
0001
0010
1000
0000
0010
0000
0100
0000
1000
0001
,
0100
0000
0010
0100
0001
0000
0010
0100
1000
0000
0001
0000
0100
0000
0001
0000
,
0010
0000
0001
0010
0001
0000
0010
0100
0010
0000
0100
1000
0100
0000
1000
0001
,
0100
0000
0010
1000
0001
0000
0100
0010
0100
0001
0000
0000
1000
0000
0001
0000
,
0010
0000
0001
0100
0001
0000
0100
0010
0100
0000
0010
1000
0010
0000
1000
0001
,
0010
0000
0000
0000
0000
0000
0100
0000
0000
1000
0000
0000
0001
0000
0000
0000
0000
0000
0010
0000
0000
0100
0000
0000
2000
0000
0000
0000
0000
0000
0000
0000
0000
0000
0000
0000
3001
0000
0000
0000
0000
0000
0000
0000
0100
0000
0000
0000
,
0001
0000
1000
0100
0000
1000
0010
0000
0100
0001
0000
0010
,
0100
0000
0010
0001
1000
0010
0100
0000
0000
0001
0000
0100
,
0001
0000
0010
0001
0000
0100
0010
1000
0000
0001
1000
0001
,
0100
0010
0100
1000
0100
0001
0010
0100
0010
0001
0100
0010
,
1000
0000
0001
0000
;

//---------------dance-single - ----------------
#NOTES:
     dance-single:
     :
     Challenge:
     17:
     0.992055,1.148211,0.555551,0.026041,1.189226,800.000000,736.000000,64.000000,3.000000,0.000000,0.000000,0.992055,1.148211,0.555551,0.026041,1.189226,800.000000,736.000000,64.000000,3.000000,0.000000,0.000000:
// measure 0
0000
0000
0000
0000
0000
0000
0000
0000
0000
0001
0000
0010
,  // measure 1
0100
0000
0000
1000
0000
0010
0100
0000
0000
0001
0000
1000
,  // measure 2
0100
0000
1000
0010
0001
0010
0100
0001
0000
1000
0000
0100
,  // measure 3
0010
0001
1000
0010
0100
0001
0010
0100
1000
0001
0100
1000
,  // measure 4
0100
0000
0010
0000
1000
0000
0100
0000
0010
0000
0001
0000
1000
0000
0000
0000
0000
0000
0001
0000
1000
0010
0100
0001
,  // measure 5
1000
0000
0010
0100
0000
0010
0001
0000
1000
0100
0000
0001
,  // measure 6
1000
0000
0100
0010
1000
0010
0100
0000
0000
0010
0000
0001
,  // measure 7
1000
0000
0010
0100
0000
0010
0001
0010
0000
0100
0001
0010
,  // measure 8
0100
0000
0000
0000
1000
0000
0001
0000
0010
0000
0100
0000
1000
0001
1000
0001
1000
0001
0100
0010
0100
0010
0100
0010
,  // measure 9
1000
0000
0001
0010
0100
0000
1000
0100
0001
0000
0100
1000
0010
0000
0001
0010
,  // measure 10
1000
0000
0010
0100
1000
0000
0100
0001
0010
0100
0010
0100
1000
0001
1000
0001
,  // measure 11
0100
0000
0001
0100
0010
0000
1000
0010
0001
0000
0010
1000
0100
0000
0001
0100
,  // measure 12
1000
0000
0100
0010
1000
0000
0010
0001
0100
0010
0100
0010
1000
0001
1000
0001
,  // measure 13
0010
0000
0001
1000
0100
0000
1000
0010
0001
0000
0010
1000
0100
0000
0001
0100
,  // measure 14
1000
0000
0000
0000
0001
0000
0100
0000
1000
0000
0000
0000
0100
0000
0001
0000
0010
0000
0001
0000
1000
0010
1000
0000
0010
0000
0100
0000
0001
0000
1000
0000
,  // measure 15
0100
0000
1000
0010
0100
0000
0001
0010
1000
0000
0010
0000
0110
0000
0100
1000
,  // measure 16
0001
0000
0100
0010
1000
0010
0001
1000
0100
0000
0001
0000
1000
0100
0010
0001
,  // measure 17
1000
0000
0000
0000
0001
0000
0000
0000
0000
0000
0000
0000
0010
0000
0000
0000
0001
0010
0001
0000
1000
0000
0001
0000
1000
0100
1000
0000
0001
0000
0100
0000
,  // measure 18
0001
0000
1000
0010
0100
0000
0001
0100
1000
0000
0100
0001
0010
0000
1000
0010
,  // measure 19
0001
0000
0010
0100
0001
0000
0100
1000
0010
0100
0010
0100
0001
1000
0001
1000
,  // measure 20
0100
0000
1000
0100
0010
0000
0001
0010
1000
0000
0010
0001
0100
0000
1000
0100
,  // measure 21
0001
0000
0000
0000
0100
0000
0010
0000
0001
0000
0000
0000
0010
0000
1000
0000
0001
0000
1000
0100
1000
0000
0001
0000
0100
0000
0010
0000
1000
0000
0100
0000
,  // measure 22
0010
0000
0010
0001
0100
0000
0001
0010
1000
0000
0010
0001
0100
0000
1000
0100
,  // measure 23
0001
0000
0000
0000
1000
0000
0100
0000
0001
0000
0000
0000
0100
0000
1000
0000
0010
0000
1000
0000
0001
0010
0001
0000
0010
0000
0100
0000
1000
0000
0001
0000
,  // measure 24
0100
0000
0001
0010
0100
0000
1000
0010
0001
0000
0010
0000
0110
0000
0100
0001
,  // measure 25
1000
0000
0100
0010
0001
0010
1000
0001
0100
0000
1000
0000
0010
0000
0000
0000
,  // measure 26
0101
1000
0110
0110
0101
0001
0011
0011
,  // measure 27
0110
1000
1010
0110
1010
0001
1001
1001
,  // measure 28
1100
0010
0110
1100
1001
0001
0101
1001
,  // measure 29
1100
0000
0010
0000
1001
0000
0101
0000
1010
0000
0001
1000
1001
0000
0001
0000
,  // measure 30
0110
1000
1010
0110
0101
0001
0011
0110
,  // measure 31
1100
1000
1001
0110
1001
1000
0011
0101
,  // measure 32
1010
0001
1100
0110
1000
0011
0001
0101
,  // measure 33
0100
0000
0110
0000
1010
0000
1001
0000
1000
0000
0100
0010
0110
0000
0100
0000
,  // measure 34
1001
1000
0000
0001
1010
0010
0000
0000
,  // measure 35
1100
0100
0000
0010
0011
1000
0000
0000
,  // measure 36
0110
0001
0000
0010
1100
0010
0000
0000
,  // measure 37
0100
0000
1000
0010
0100
0000
0001
0000
1000
0000
0000
0000
0100
0000
0010
0000
,  // measure 38
0011
0000
0000
0000
0001
0000
0100
0000
1010
0000
0000
0000
1000
0000
1000
0100
,  // measure 39
0001
0000
0000
0000
0100
0000
1000
0000
1010
0000
0000
0000
0010
0100
0001
0010
,  // measure 40
1000
0000
0010
0100
1100
0000
1000
0001
,  // measure 41
0101
0000
0000
0000
1000
0000
0010
0000
0001
0010
1000
0001
0010
0000
0100
0000
,  // measure 42
1100
0000
0010
0001
0110
0000
1000
0010
,  // measure 43
0101
0000
0000
0000
0010
0000
0100
0000
1001
0000
0000
0000
0001
0000
0001
0100
,  // measure 44
0010
1000
0100
0010
0001
0100
0000
0000
,  // measure 45
0001
0000
0000
0000
0000
0000
0010
0000
0000
0000
0000
0000
1000
0000
0000
0000
0000
0000
0001
0000
0000
0100
0000
0000
1000
0000
0000
0000
0000
0000
0000
0000
0000
0000
0000
0000
0001
0000
0000
0000
0000
0000
0000
0000
0100
0000
0000
0000
,  // measure 46
0010
0000
1000
0001
0000
0010
0100
0000
1000
0010
0001
0010
,  // measure 47
1000
0000
0001
0010
0001
0100
0010
1000
0000
0001
0000
0100
,  // measure 48
1000
0000
0100
0001
0000
1000
0010
0000
0100
0001
0010
1000
,  // measure 49
0010
0000
0000
0000
0100
0000
1100
0000
0000
0000
0010
0000
0011
0000
0000
0000
0000
0000
1000
0000
0010
0100
0001
1000
,  // measure 50
0010
0000
1000
0001
0000
0010
0100
0000
1000
0010
0000
0100
,  // measure 51
0001
0000
0010
0100
0001
0100
0010
0000
0000
0100
0000
1000
,  // measure 52
0010
0000
0100
0010
0000
1000
0100
0001
0000
0100
0010
0001
,  // measure 53
1000
0000
0010
1000
0001
0010
0200
0000
0000
2300
0000
0000
,  // measure 54
3001
0100
0010
0100
0001
0010
0100
0010
0001
0100
0010
0100
1000
0000
0100
0000
,  // measure 55
0001
0000
1000
0010
0100
0000
0001
0010
1000
0000
0010
0100
0001
0000
1000
0010
,  // measure 56
0001
0000
0100
0010
0001
0000
0010
1000
0100
0010
0100
1000
0010
0100
0001
0100
,  // measure 57
0010
0000
1000
0100
0010
0000
0001
0100
1000
0000
0100
0010
0001
0000
1000
0100
,  // measure 58
0001
0000
0010
0100
0001
0000
0100
1000
0010
0100
0010
1000
0100
0010
0001
0010
,  // measure 59
0100
0000
1000
0001
0100
0000
0001
0010
1000
0000
0010
0001
0100
0000
0010
0001
,  // measure 60
1000
0000
0000
0000
0100
0000
1000
0000
0001
0000
0000
0000
0010
0000
1000
0000
0001
0000
0010
0000
0100
1000
0100
0000
1000
0000
0001
0000
0100
0000
0001
0000
,  // measure 61
1000
0000
0010
1000
0100
0000
0010
1000
0001
0000
0100
0000
0110
0000
0010
0001
,  // measure 62
0100
0000
0010
1000
0001
0010
1000
0001
0100
0000
1000
0000
0001
0010
0100
1000
,  // measure 63
0010
0000
0100
0001
1000
0000
0100
1000
0001
0000
0010
0001
1000
0000
0010
0100
,  // measure 64
0001
0000
0010
0001
0100
0010
1000
0001
0010
0100
0000
0000
1000
0100
1000
0010
,  // measure 65
0100
0000
0001
0010
0100
0000
1000
0100
0010
0000
0001
1000
0010
0000
1000
0001
,  // measure 66
0100
0000
0000
0000
0000
0000
0010
0000
0000
1000
0000
0000
0100
0000
0000
0010
0000
0000
0001
0000
0000
1000
0000
0000
0020
0000
0000
0000
0000
0000
0000
0000
0000
0000
0000
0000
1030
0000
0000
0000
0001
0000
0010
0000
0100
0000
1000
0000
,  // measure 67
0001
0000
0100
0001
0000
1000
0010
0000
1000
0001
0000
0010
,  // measure 68
0100
0000
1000
0100
0001
1000
0010
0000
0000
0001
0000
0100
,  // measure 69
0010
1000
0001
0010
0100
0001
1000
0010
0001
1000
0100
0010
,  // measure 70
0001
0100
0001
0100
0001
0100
0001
0100
0001
0100
0001
0100
0010
1000
0010
1000
0010
1000
0010
1000
0010
1000
0010
1000
,  // measure 71
0001
0000
0010
0000
;
