#TITLE:H_Y_D_R;
#SUBTITLE:;
#ARTIST:AMAZE;
#TITLETRANSLIT:;
#SUBTITLETRANSLIT:;
#ARTISTTRANSLIT:;
#GENRE:;
#CREDIT:;
#MUSIC:H_Y_D_R.ogg;
#BANNER:;
#BACKGROUND:;
#CDTITLE:;
#SAMPLESTART:77.172;
#SAMPLELENGTH:20.000;
#SELECTABLE:YES;
#OFFSET:-0.036;
#BPMS:0.000=140.000;
#STOPS:;
#ORIGIN:;
#TAGS:;
#PREVIEWVID:;
#JACKET:;
#CDIMAGE:;
#DISCIMAGE:;
#BGCHANGES:;
#FGCHANGES:;

//--------------- dance-single - ----------------
#NOTES:
     dance-single:
     :
     Beginner:
     3:
     0.151102,0.200768,0,0.008328,0,127,127,0,1,0,0,0,0,0,0.151102,0.200768,0,0.008328,0,127,127,0,1,0,0,0,0,0:
0000
0000
0000
0000
,
0000
0000
0000
0000
,
0000
0000
0000
0000
,
0000
0000
0000
0000
,
0000
0000
0000
0000
,
1000
0000
0001
0000
,
1000
0000
0001
0000
,
0010
0000
0100
0000
,
0010
0000
0001
0000
,
0100
0000
0010
0010
,
0000
0000
1000
0000
,
0001
0000
0010
0010
,
0000
0000
0100
0000
,
1000
0000
0001
0001
,
0000
0000
0100
0000
,
0010
0000
1000
1000
,
0000
0000
0000
0000
,
0001
0000
0100
0000
,
0010
0000
1000
0000
,
0100
0000
0010
0000
,
0100
0000
1000
0000
,
0010
0000
0100
0000
,
0001
0000
0010
0000
,
0100
0000
1000
0000
,
0100
0000
0010
0000
,
0001
0000
1000
0000
,
0010
0000
0100
0000
,
0001
0000
0100
0000
,
0010
0000
1000
0000
,
0000
0000
0001
0001
,
0001
0000
1000
0000
,
0100
0000
0010
0000
,
0100
0000
1000
0000
,
0010
0000
0100
0000
,
0001
0000
0100
0000
,
0010
0000
1000
0000
,
0100
0000
0010
0000
,
0001
0000
1000
0000
,
0010
0000
0010
0000
,
0100
0000
0100
0000
,
0001
0000
0001
0000
,
1000
0000
1000
0000
,
0100
0100
0000
0000
,
0010
0010
0000
0000
,
0001
0001
0000
0000
,
1000
0000
0010
0000
,
0100
0000
0001
0000
,
0010
0000
0001
0000
,
1000
0000
0001
0000
,
0100
0000
0010
0000
,
1000
0000
0100
0000
,
0010
0000
0001
0000
,
0100
0000
0010
0000
,
1000
1000
1000
0000
,
0001
0001
0001
0000
,
0010
0000
0100
0000
,
0010
0000
0001
0000
,
0100
0100
0100
0000
,
0010
0010
0010
0000
,
1000
0000
0001
0000
,
0010
0000
0100
0000
,
1000
0000
0000
0000
,
0001
0000
0000
0000
,
0100
0000
0000
0000
,
0010
0000
0000
0000
,
1000
0000
0001
0000
,
0010
0000
0100
0000
,
1000
0000
0001
0000
,
0100
0000
0000
0000
0020
0000
0000
0030
;

//--------------- dance-single - ----------------
#NOTES:
     dance-single:
     :
     Easy:
     7:
     0.315292,0.373532,0.066628,0.091613,0.133256,265,257,8,11,0,0,0,0,0,0.315292,0.373532,0.066628,0.091613,0.133256,265,257,8,11,0,0,0,0,0:
0000
0000
0000
0000
,
0000
0000
0000
0000
,
0000
0000
0000
0000
,
0000
0000
0000
0000
,
0000
0000
0000
0000
,
1000
0010
1000
0001
,
1000
0100
1000
0001
,
0100
0001
0100
0001
,
1000
1000
0001
0000
,
0010
0000
0100
0000
1000
0100
1000
0000
,
0001
0100
0010
0010
,
1000
0000
0001
0000
0010
0001
0010
0000
,
0100
1000
0002
0203
,
0310
0000
0100
0000
0001
0100
0001
0000
,
1000
0100
0020
0000
,
0031
0000
1000
0000
0010
1000
0010
0000
,
0100
0000
0000
0000
0001
0000
0000
1000
0000
0000
0000
0000
0000
0000
0000
0000
,
0100
0000
0000
0010
0000
0000
0000
0000
0100
0000
0000
1000
0000
0000
0000
0000
,
0001
1000
0001
0001
,
0100
0010
1000
1001
,
0000
0001
2000
3020
,
0130
0000
0000
0010
0000
0000
0000
0000
0100
0000
0000
0001
0000
0000
0000
0000
,
1000
0001
2000
0000
,
3100
0010
0001
1000
,
0010
0100
0001
0010
,
0100
0000
0000
0000
0010
0000
0000
0000
0001
0000
0000
1000
0000
0000
0000
0000
,
0010
0000
0000
0000
0100
0000
0000
0000
0010
0000
0000
1000
0000
0000
0000
0000
,
0001
0010
0200
2300
,
3010
0000
0000
0000
0010
0000
0000
0000
0100
0000
0000
0100
0000
0000
0100
0000
,
0000
0000
0000
0000
0001
0001
2000
0000
,
3100
0000
0000
0000
0010
0000
0000
0001
0000
0000
0000
0000
1001
0000
0000
0000
,
0000
0000
0000
0000
1000
0000
0000
0010
0000
0000
0000
0000
0110
0000
0000
0000
,
0000
0000
0000
0000
0100
0000
0000
0001
0000
0000
0000
0000
1000
0000
0000
0001
,
0000
0000
0000
0000
0100
0000
0000
0001
0000
0000
0000
0000
1000
0000
1000
0000
,
0000
0000
0000
0000
0010
0000
0000
1000
0000
0000
0000
0000
1001
0000
0000
0000
,
0000
0000
0000
0000
0001
0000
0000
0010
0000
0000
0000
0000
0110
0000
0000
0000
,
0000
0000
0000
0000
0100
0000
0000
1000
0000
0000
0000
0000
0001
0000
0000
1000
,
0000
0000
0000
0000
0100
0000
0000
1000
0000
0000
0000
0000
0001
0000
0001
0000
,
0000
0000
0000
0000
1000
0000
0000
0100
0000
0000
0000
0000
0010
0000
0000
0001
,
0000
0000
0000
0000
0100
0000
0000
0010
0000
0000
0000
0000
1000
0000
0000
0010
,
0000
0000
0000
0000
0100
0000
0000
0001
0000
0000
0000
0000
0010
0000
0000
0100
,
0000
0000
0000
0000
1000
0000
0000
0010
0000
0000
0000
0000
0100
0000
0000
0001
,
0000
0000
1000
0000
0000
0100
0000
0000
0010
0000
0000
0001
0000
0000
0010
0000
,
0000
0100
0000
0000
1000
0000
0000
0001
0000
0000
0100
0000
0000
0010
0000
0000
,
1000
0000
0000
0001
0000
0000
0010
0000
0000
0000
0000
0000
0000
0000
0000
0000
,
0100
1000
0001
0100
,
0010
1000
0100
0010
,
1000
0010
0001
0100
,
1000
0100
0001
0001
,
0100
0001
1000
0100
,
0010
0001
0100
0010
,
0001
0010
1000
0100
,
0001
0100
1000
1000
,
0010
0100
0001
0000
1000
0001
1000
0000
,
0100
0010
0001
0000
0100
0001
0100
0000
,
0010
1000
0001
0010
,
1000
0010
0001
0001
,
0010
0100
1000
0000
0001
1000
0001
0000
,
0100
0010
1000
0000
0100
1000
0100
0000
,
0010
0001
1000
0010
,
0001
0010
1000
1000
,
0001
0000
0010
0001
,
1000
0000
0010
1000
,
0001
0000
0010
0100
,
1000
0000
0010
0100
,
0001
1000
0001
1001
,
1000
0100
1000
1100
,
0100
0010
0100
0110
,
0010
0000
0001
0000
2000
0000
3000
0002
,
0003
0000
0000
0000
;

//--------------- dance-single - ----------------
#NOTES:
     dance-single:
     :
     Medium:
     12:
     0.54373,0.545932,0.16657,0.183226,0.378946,457,437,20,22,0,0,0,0,0,0.54373,0.545932,0.16657,0.183226,0.378946,457,437,20,22,0,0,0,0,0:
0000
0000
0000
0000
,
0000
0000
0000
0000
,
0000
0000
0000
0000
,
0000
0000
0000
0000
,
0000
0000
0000
0000
,
1000
1010
0001
0011
,
1000
1100
0001
0101
,
0100
0110
0000
1010
0000
1100
0000
0011
,
0001
0001
1000
1000
0010
0010
0100
0000
,
0001
0000
1000
0000
0100
1000
0000
1000
0001
0000
0100
0000
0010
0000
0000
0000
,
0100
0000
0001
0000
1000
0000
0000
0000
1000
0010
1000
0000
0001
0000
0000
0000
,
1000
0000
0001
0000
0100
0001
0000
0001
1000
0000
0100
0000
0010
0000
0000
0000
,
0100
1000
0001
0000
0020
0000
0230
0000
,
1300
0000
0001
0000
0010
0001
0000
0001
1000
0000
0010
0000
0100
0000
0000
0000
,
0010
1000
0001
0000
0002
0000
0023
0000
,
0031
0000
1000
0000
0010
1000
0000
1000
0001
0000
0010
0000
0100
0000
0000
0000
,
0010
0000
0001
0000
1000
0000
0000
0001
0000
0000
0000
0000
0100
0000
0000
0000
,
0010
0000
0100
0001
0000
0000
0100
0000
0010
0000
1000
0001
0000
0000
0010
0000
,
0100
0000
0010
0000
0001
0000
1000
0000
0100
0000
1000
0010
0000
0000
0000
0000
,
0100
0000
0001
0000
1000
0000
0000
0100
0000
0000
0010
0000
0001
0000
0001
0000
,
0000
0000
0000
0000
1000
0001
0000
0010
0000
0000
0001
0000
0011
0000
0000
0000
,
0010
0000
0100
1000
0000
0000
0100
0000
0010
0000
0001
1000
0000
0000
0010
0000
,
0100
0000
0010
0000
1000
0000
0001
0000
0100
0000
0001
0010
0000
0000
0000
0000
,
0100
0000
1000
0000
0001
0000
0100
0000
0010
0000
1000
0001
0000
0000
0000
0000
,
0010
0100
1100
0000
1000
0001
0100
0001
,
0010
0000
0100
0000
1000
0000
0001
0000
0100
0000
0010
1000
0000
0000
1000
0000
,
0010
0000
0100
0000
0001
0000
1000
0000
0100
0000
0010
0001
0000
0000
0001
0000
,
1000
0100
0010
0100
1000
0010
0100
0010
,
1000
0000
1000
0000
0001
0000
0010
0000
0100
0000
0000
0100
0000
0000
1000
0001
,
0000
0000
1000
0000
0001
0001
0100
0100
,
0010
0000
1000
0000
0001
0010
0000
0010
0000
0000
0001
0000
1000
0000
0010
0000
,
0000
0000
0000
0000
0100
0001
0000
0001
0000
0000
1000
0000
0100
0000
0010
0000
,
0000
0000
0002
0000
0100
0000
0000
1003
0000
0000
0002
0000
0010
0000
0000
1003
,
0000
0000
0002
0000
0100
0000
0000
1003
0000
0000
1000
0000
0100
0000
0010
0000
,
0000
0000
0001
0000
1000
0010
0000
0010
0000
0000
1000
0000
0001
0000
0010
0000
,
0000
0000
0000
0000
0100
1000
0000
1000
0000
0000
0001
0000
0100
0000
0010
0000
,
0000
0000
2000
0000
0100
0000
0000
3001
0000
0000
2000
0000
0010
0000
0000
3001
,
0000
0000
2000
0000
0100
0000
0000
3001
0000
0000
0001
0000
0100
0000
0010
0000
,
0000
0000
0200
0000
0010
0000
0000
0301
0000
0000
0002
0000
1000
0000
0000
0013
,
0000
0000
0020
0000
0100
0000
0000
0031
0000
0000
0002
0000
0100
0000
0000
1003
,
0000
0000
2000
0000
0100
0000
0000
3010
0000
0000
0020
0000
0100
0000
0000
1030
,
0000
0000
2000
0000
0010
0000
0000
3100
0000
0000
0200
0000
0010
0000
0000
1300
,
0000
0000
1001
0000
0000
0001
0000
0000
0101
0000
0000
0100
0000
0000
0110
0000
,
0001
0000
0000
1000
0010
0000
1000
0000
0000
0001
0010
0000
0100
0000
0000
1000
,
0010
0000
0100
0000
0000
0001
0010
0000
0200
0000
0000
0000
2300
0000
0000
0000
,
3001
0000
0100
0000
0010
0100
0000
0000
0001
0000
1000
0100
0000
0000
0010
0000
,
0100
0000
1000
0000
0001
0100
0000
0000
0010
0000
1000
0001
0000
0000
0010
0000
,
0100
0000
1000
0000
0010
0100
0000
0000
0010
0000
1000
0001
0000
0000
0010
0000
,
0001
0000
0100
0000
0010
1000
0000
0000
0001
0000
0010
0100
0000
0000
1000
0000
,
1000
0000
0100
0000
0010
0100
0000
0000
1000
0000
0001
0100
0000
0000
0010
0000
,
0100
0000
0001
0000
1000
0100
0000
0000
0010
0000
0001
1000
0000
0000
0010
0000
,
0100
0000
0001
0000
0010
0100
0000
0000
0010
0000
0001
1000
0000
0000
0010
0000
,
1000
0000
0100
0000
0010
0001
0000
0000
1000
0000
0010
0100
0000
0000
0001
0000
,
0010
0000
0100
0000
0001
0000
0100
0000
0010
0000
0001
0000
1000
0010
1000
0000
,
0010
0000
0100
0000
1000
0000
0100
0000
0010
0000
1000
0000
0001
0010
0001
0000
,
1000
0000
0100
0000
1000
0001
0000
0000
0100
0000
0001
1000
0000
0000
0100
0000
,
0010
0000
0001
0000
1000
0001
0000
1000
0000
0000
0010
0000
1000
0000
0001
0000
,
0100
0000
0010
0000
0001
0000
0010
0000
0100
0000
0001
0000
1000
0100
1000
0000
,
0100
0000
0010
0000
1000
0000
0010
0000
0100
0000
1000
0000
0001
0100
0001
0000
,
1000
0000
0010
0000
1000
0001
0000
0000
0010
0000
0001
1000
0000
0000
0010
0000
,
0100
0000
0001
0000
1000
0100
0000
0010
0100
0000
0000
0010
0000
0000
0001
0000
,
1000
0000
0010
0000
0000
1000
0000
0000
0001
0000
0000
1000
0000
0000
0001
0000
,
0010
0000
0001
0000
0000
1000
0000
0000
0001
0000
0000
0100
0000
0000
0010
0000
,
0100
0001
0010
0000
0100
1000
0010
0000
,
0100
0000
0001
0000
1000
0000
0000
1000
0000
0000
0100
0000
0000
0100
0000
0000
,
0110
0000
0000
0000
0010
0000
0000
0001
0000
0000
1000
0000
1010
0000
0000
0000
,
0110
0000
0000
0000
0010
0000
0000
1000
0000
0000
0001
0000
0011
0000
0000
0000
,
1001
0000
0000
0000
1000
0000
0000
0100
0000
0000
0010
0000
1100
0000
0000
0000
,
1001
0000
0000
0000
0001
0000
0000
0100
0000
0000
0010
0000
0000
0000
2000
0000
,
3000
0000
0000
0000
;

//--------------- dance-single - ----------------
#NOTES:
     dance-single:
     :
     Hard:
     15:
     0.755512,0.948197,0.158241,0.233197,1.016074,635,616,19,28,0,0,0,0,0,0.755512,0.948197,0.158241,0.233197,1.016074,635,616,19,28,0,0,0,0,0:
0000
0000
0000
0000
,
0000
0000
0000
0000
,
0000
0000
0000
0000
,
0000
0000
0000
0000
,
0000
0000
0000
0000
,
1000
0001
0000
0001
0010
0000
0000
0000
0001
1000
0000
1000
0010
0000
0000
0000
,
0100
0001
0000
0001
0010
0000
0000
0000
0100
1000
0000
1000
0010
0000
0000
0000
,
0100
0001
0010
0000
0100
1000
0010
0000
0100
0001
0010
0000
0100
1000
0010
0000
,
1000
0001
1000
0100
1000
0001
1000
0100
0010
0001
1000
0010
0100
0000
0000
0000
,
0001
0000
1000
0000
0001
0100
0000
0100
0010
1000
0001
0010
0100
0010
0000
0000
,
0100
0000
1000
0000
0100
0010
0000
0010
0001
1000
0010
0000
0010
1000
0000
1000
,
0001
0000
1000
0000
0001
0010
0000
0010
0100
1000
0001
0100
0010
0100
0000
0000
,
0010
1000
0001
0000
0200
0000
0320
0000
,
1030
0000
0001
0000
1000
0100
0000
0100
0010
0001
1000
0010
0100
0010
0000
0000
,
0100
0000
0001
0000
0100
0010
0000
0010
2000
0000
0000
0000
3020
0000
0000
0000
,
1030
0000
0001
0000
1000
0010
0000
0010
0100
0001
1000
0100
0010
0100
0000
0000
,
0010
0000
0001
0000
1000
0001
0000
0100
0000
0000
0000
0000
0001
0000
0000
0000
,
0101
0000
0100
0001
0000
0000
1000
0000
0010
0000
0100
0001
0000
0000
0100
0010
,
1000
0000
0001
0000
0011
0000
0010
0000
0100
0000
1000
0010
1000
0000
0000
0000
,
0001
0000
1000
0000
0010
0000
0100
0010
0000
1000
0001
0010
0100
0000
0010
0000
,
0001
0000
0010
0000
0001
0100
0010
1000
0000
0010
0100
0001
0010
0000
0000
0000
,
1100
0000
0100
1000
0000
0000
0001
0000
0010
0000
0100
1000
0000
0000
0100
0010
,
0001
0000
1000
0000
1010
0000
0010
0000
0100
0000
0001
0010
0001
0000
0000
0000
,
1000
0000
0001
0000
0011
0000
0010
0100
1000
0000
0010
0100
0001
0000
0000
0000
,
0100
0000
0010
0000
1001
0000
0000
0000
1000
0000
0001
0000
0010
0100
0010
0001
,
1000
0000
0010
0000
0110
0000
0100
0000
0001
0000
1000
0100
0000
0000
0100
0010
,
0001
0000
0010
0000
0110
0000
0100
0000
1000
0000
0001
0100
0000
0000
0100
0010
,
1000
0001
0011
0010
0100
1000
1001
0001
,
0100
0001
0100
0000
0010
0100
0000
0001
0010
0000
0100
1000
0000
0010
1000
0100
,
0000
0000
0000
0000
0000
0000
0000
0000
0000
0000
0000
0000
0010
0000
0000
0000
0000
0000
0000
0000
0000
0000
0000
0000
0001
0000
1000
0000
0001
0000
1000
0000
0000
0001
0000
0000
1000
0000
0000
0001
0000
0000
1000
0000
0000
0001
0000
0000
,
0100
0000
0010
0000
1000
0010
0000
0010
0000
0000
1000
0000
0100
0000
0010
0000
,
0001
0000
1000
0000
0001
1000
0000
1000
0000
0001
0100
0010
1000
0000
0010
0000
,
1000
0000
0001
0000
0020
0100
0000
0031
0000
0000
1000
0000
0020
0100
0000
1030
,
0000
0000
0001
0000
0020
0100
0000
0031
0000
0000
1000
0001
0100
0000
0001
0000
,
0010
0000
0100
0000
1000
0100
0000
0100
0000
0000
1000
0000
0010
0000
0100
0000
,
0001
0000
1000
0000
0001
1000
0000
1000
0000
0001
0010
0100
1000
0000
0100
0000
,
1000
0000
0001
0000
0200
0010
0000
0301
0000
0000
1000
0000
0200
0010
0000
1300
,
0000
0000
0001
0000
0200
0010
0000
0301
0000
0100
0010
0000
1000
0000
0001
0000
,
0010
0000
0001
0000
2000
0010
0000
3001
0000
0000
1000
0000
0002
0010
0000
1003
,
0000
0000
0001
0000
2000
0100
0000
3001
0000
0000
1000
0000
0002
0100
0000
1003
,
0000
0000
0001
0000
2000
0100
0000
3010
0000
0000
0100
0000
0002
0100
0000
0013
,
0000
0000
0100
0000
2000
0100
0000
3010
0000
0000
0100
0000
0002
0100
0000
0013
,
0000
0010
0100
0000
0100
1000
0000
1000
0010
0000
0010
0100
0000
0100
0001
0000
,
0002
0100
0000
2003
0010
0000
3002
0010
0000
2003
0100
0000
3002
0100
0000
2003
,
0010
0000
3002
0010
0000
1003
0010
0000
0200
0000
0000
0000
0302
0000
0000
0000
,
1003
0100
1000
0000
0100
0010
0000
0001
0010
0000
0001
1000
0000
0010
1000
0000
,
0010
0100
0010
0000
0100
0001
0000
1000
0001
0000
1000
0100
0000
0010
0100
0000
,
0010
0001
1000
0000
0010
0100
0000
0001
1000
0000
0100
1000
0000
0001
0010
0000
,
0001
1000
0010
0000
0100
0001
0000
1000
0100
0000
0010
0100
0000
1000
0001
0000
,
0001
0010
0001
0000
0010
0100
0000
1000
0100
0000
1000
0001
0000
0100
0001
0000
,
0100
0010
0100
0000
0010
1000
0000
0001
1000
0000
0001
0010
0000
0100
0010
0000
,
0100
1000
0001
0000
0100
0010
0000
1000
0001
0000
0010
0001
0000
1000
0100
0000
,
1000
0001
0100
0000
0010
1000
0000
0001
0010
0000
0100
0010
0000
0001
1000
0000
,
0010
0100
0001
1000
0100
0010
0100
1000
0001
1000
0010
0100
0001
1000
0001
1000
,
0100
0010
0001
1000
0010
0100
0010
1000
0001
1000
0100
0010
0001
1000
0001
1000
,
0001
0000
0100
0000
0010
0100
0000
0001
0010
0000
0100
1000
0000
0001
0100
0000
,
0010
0000
1000
0000
0001
1000
0100
0010
0000
0000
0001
0000
1000
0000
0001
0000
,
0010
0100
1000
0001
0100
0010
0100
0001
1000
0001
0010
0100
1000
0001
1000
0001
,
0100
0010
1000
0001
0010
0100
0010
0001
1000
0001
0100
0010
1000
0001
1000
0001
,
1000
0000
0100
0000
0010
0100
0000
1000
0010
0000
0100
0001
0000
1000
0100
0000
,
0010
0000
0001
0000
1000
0001
0000
0100
0010
0000
1000
0001
0000
0000
1000
0000
,
0100
0000
0010
0000
0000
0001
0000
0000
0010
0000
0000
0100
0000
0000
1000
0000
,
0001
0000
0100
0000
0000
0010
0000
0000
1000
0000
0000
0010
0000
0000
0100
0000
,
0001
0010
0011
0000
1000
0010
1010
0000
,
0001
1000
0001
0000
0011
0000
0000
0110
0000
0000
1100
0000
0000
1001
0000
0000
,
0001
0100
0000
0100
0010
0000
0010
1000
0000
1000
0001
0000
0011
0000
0000
0000
,
1000
0100
0000
0100
0010
0000
0010
0001
0000
0001
1000
0000
1010
0000
0000
0000
,
0001
0010
0000
0010
0100
0000
0100
1000
0000
1000
0001
0000
0101
0000
0000
0000
,
1000
0010
0000
0010
0100
0000
0100
0001
0000
0001
1000
0000
0000
0000
0002
0000
,
0003
0000
0000
0000
;
