#TITLE:HAZARD;
#SUBTITLE:;
#ARTIST:Limpid;
#TITLETRANSLIT:;
#SUBTITLETRANSLIT:;
#ARTISTTRANSLIT:;
#GENRE:;
#CREDIT:;
#BANNER:;
#BACKGROUND:;
#LYRICSPATH:;
#CDTITLE:;
#MUSIC:HAZARD.ogg;
#OFFSET:-0.070000;
#SAMPLESTART:31.933001;
#SAMPLELENGTH:20.000000;
#SELECTABLE:YES;
#BPMS:0.000000=128.000000
;
#STOPS:
;
#BGCHANGES:;
#KEYSOUNDS:;
#ATTACKS:;

//---------------dance-single - ----------------
#NOTES:
     dance-single:
     :
     Beginner:
     2:
     0.101175,0.129373,0.000000,0.007958,0.003979,89.000000,89.000000,0.000000,1.000000,0.000000,0.000000,0.101175,0.129373,0.000000,0.007958,0.003979,89.000000,89.000000,0.000000,1.000000,0.000000,0.000000:
0000
0000
0000
0000
,
0000
0000
0000
0000
,
0000
0000
0000
0000
,
0000
0000
0000
0000
,
0000
0000
0000
0000
,
1000
0000
0000
0000
,
0000
0000
0000
0000
,
0001
0000
0000
0000
,
0010
0000
0000
0000
,
0001
0000
0000
0000
,
1000
0000
0000
0000
,
0001
0000
0000
0000
,
0100
0000
0000
0000
,
0010
0000
0010
0000
,
0100
0000
0100
0000
,
0001
0000
1000
0000
,
0000
0000
0000
0000
,
0100
0000
0010
0000
,
0001
0000
1000
0000
,
0010
0000
0100
0000
,
0001
0000
0100
0000
,
0010
0000
1000
0000
,
0001
0000
0010
0000
,
0100
0000
1000
0000
,
0001
0000
0000
0000
,
1000
0000
0010
0000
,
0100
0000
0001
0000
,
1000
0000
0100
0000
,
0010
0000
0001
0000
,
0100
0000
0010
0000
,
1000
0000
0001
0000
,
0010
0000
0100
0000
,
0010
0000
0000
0000
,
0100
0000
0000
0000
,
0000
0000
0000
0000
,
1000
0000
0000
0000
,
0000
0000
0000
0000
,
0001
0000
0000
0000
,
0000
0000
0000
0000
,
0100
0000
0000
0000
,
0010
0000
0000
0000
,
1000
0000
0000
0000
,
0001
0000
0000
0000
,
1000
0000
0000
0000
,
0100
0000
0000
0000
,
0010
0000
0010
0000
,
0100
0000
0100
0000
,
1000
0000
0001
0000
,
0000
0000
0000
0000
,
1000
0000
0010
0000
,
0100
0000
0001
0000
,
0010
0000
0001
0000
,
0100
0000
0001
0000
,
0010
0000
0100
0000
,
1000
0000
0010
0000
,
0100
0000
0001
0000
,
1000
0000
0000
0000
,
0001
0000
0010
0000
,
0100
0000
1000
0000
,
0010
0000
1000
0000
,
0100
0000
1000
0000
,
0010
0000
0100
0000
,
0001
0000
0010
0000
,
0100
0000
1000
0000
,
0001
0000
0002
0000
,
0000
0003
0000
0000
0000
0000
0000
0000
0000
0000
0000
0000
0000
0000
0000
0000
0000
0000
0000
0000
0000
0000
0000
0000
0000
0000
0000
0000
0000
0000
0000
0000
;

//---------------dance-single - ----------------
#NOTES:
     dance-single:
     :
     Easy:
     5:
     0.186435,0.232872,0.000000,0.023873,0.003979,164.000000,164.000000,0.000000,3.000000,0.000000,0.000000,0.186435,0.232872,0.000000,0.023873,0.003979,164.000000,164.000000,0.000000,3.000000,0.000000,0.000000:
0000
0000
0000
0000
,
0000
0000
0000
0000
,
0000
0000
0000
0000
,
0000
0000
0000
0000
,
0000
0000
0000
0000
,
1000
0000
0000
0000
,
0100
0000
0000
0000
,
0010
0000
0000
0000
,
0001
0000
0000
0000
,
1000
0000
0010
0000
,
0100
0000
0001
0000
,
1000
0000
0100
0000
,
0010
0000
0001
0000
,
0100
0000
0010
0000
,
0100
0000
0001
0000
,
1000
1000
1000
0000
,
0100
0000
0010
0000
,
0001
1000
0010
1000
,
0100
1000
0001
0010
,
0100
1000
0010
0100
,
0010
1000
0001
0000
,
1000
0001
0010
0001
,
0100
0001
1000
0010
,
0100
0001
0010
0100
,
0010
0001
1000
0000
,
0010
0100
0001
1000
,
0100
0010
1000
0010
,
0100
1000
0001
0100
,
0010
1000
0001
0000
,
0010
0100
1000
0001
,
0100
0010
0001
0010
,
0100
0001
1000
0100
,
1000
0000
1000
0000
,
0001
0000
0000
0000
,
0010
0000
0000
0000
,
0100
0000
0000
0000
,
1000
0000
0000
0000
,
0010
0000
0000
0000
,
0100
0000
0000
0000
,
0001
0000
0000
0000
,
1000
0000
0000
0000
,
0001
0000
0010
0000
,
0100
0000
1000
0000
,
0001
0000
0100
0000
,
0010
0000
1000
0000
,
0100
0000
0010
0000
,
0100
0000
1000
0000
,
0001
0001
0001
0000
,
0100
0000
0000
0000
,
0010
1000
0001
0010
,
0100
1000
0010
0100
,
0001
0100
0010
1000
,
0001
0010
0100
0000
,
0010
0001
1000
0010
,
0100
0001
0010
0100
,
1000
0100
0010
0001
,
0100
0001
1000
0000
,
0200
0310
0100
1000
,
0001
0100
1000
0100
,
0010
1000
0100
0010
,
0001
0100
0001
0000
,
0200
0310
0100
0001
,
1000
0100
0001
0100
,
0010
0001
0100
0010
,
1000
1000
0002
0000
,
0000
0003
0000
0000
0000
0000
0000
0000
0000
0000
0000
0000
0000
0000
0000
0000
0000
0000
0000
0000
0000
0000
0000
0000
0000
0000
0000
0000
0000
0000
0000
0000
;

//---------------dance-single - ----------------
#NOTES:
     dance-single:
     :
     Medium:
     11:
     0.452446,0.517493,0.278516,0.564990,0.266580,398.000000,363.000000,35.000000,71.000000,0.000000,0.000000,0.452446,0.517493,0.278516,0.564990,0.266580,398.000000,363.000000,35.000000,71.000000,0.000000,0.000000:
0000
0000
0000
0000
,
0000
0000
0000
0000
,
0000
0000
0000
0000
,
0000
0000
0000
0000
,
0000
0000
0000
0000
,
1001
0000
0000
1000
0000
0000
0000
0000
0010
0000
0000
0100
0000
0000
0000
0000
,
0001
0000
0000
0100
0000
0000
0000
0000
0001
0000
0000
1000
0000
0000
0000
0000
,
1100
0000
0000
0100
0000
0000
0000
0000
0010
0000
0000
0100
0000
0000
0000
0000
,
2000
0000
3002
0000
0103
0010
0200
0000
,
0301
1000
0100
0000
0010
0100
1000
0000
,
0001
0000
0100
0000
0010
0000
0000
0000
0200
0000
0000
0301
0000
0000
0000
0000
,
1000
0100
0010
0000
0100
1000
0001
0000
,
0100
0010
1000
0000
0002
1003
0001
0000
,
0011
0010
0110
0100
,
1100
1000
1001
0001
,
0100
0001
0100
0001
1000
0100
2000
0000
,
3001
0000
1000
0000
0010
0100
0020
0030
,
2020
0000
3030
0000
1000
0000
0000
0000
0001
0010
0000
0001
1000
0000
0100
0000
,
0020
0000
0030
0000
0100
0000
0000
1000
0001
0000
0100
0000
0010
0000
1000
0000
,
2002
0000
3003
0000
0001
0000
0000
0000
1000
0100
0000
1000
0001
0000
0100
0000
,
0002
0000
0003
0000
0100
0000
0000
0010
1000
0000
0100
0000
0010
0000
0001
0000
,
0022
0000
0033
0000
0001
0000
0000
0000
1000
0010
0000
1000
0001
0000
0100
0000
,
0020
0000
0030
0000
0100
0000
0000
0001
1000
0000
0100
0000
0010
0000
0001
0000
,
2002
0000
3003
0000
1000
0000
0000
0000
0001
0100
0000
0001
1000
0000
0100
0000
,
2000
3200
0320
0000
0032
2003
3020
0030
,
0220
0000
0330
0000
1000
0000
0000
0000
0001
1000
0000
0100
0010
0000
0100
0000
,
2000
0000
3000
0000
0001
0000
0000
0100
0010
0000
0001
0000
0010
0000
0100
0000
,
0202
0000
0303
0000
0001
0000
0000
0000
1000
0100
0000
0010
0001
0000
1000
0000
,
0002
0000
0003
0000
1000
0000
0000
0010
0100
0000
1000
0000
0100
0000
0010
0000
,
0220
0000
0330
0000
0001
0000
0000
0000
1000
0001
0000
0100
0010
0000
0100
0000
,
0002
0000
0003
0000
1000
0000
0000
0100
0010
0000
1000
0000
0010
0000
0100
0000
,
2200
0000
3300
0000
1000
0000
0000
0000
0001
0100
0000
0010
1000
0000
0001
0000
,
2000
3000
0001
0000
0100
0010
0200
0000
,
0301
0000
0000
0001
0000
0000
0000
0000
0010
0000
0000
0100
0000
0000
0000
0000
,
1000
0000
0000
0100
0000
0000
0000
0000
1000
0000
0000
0001
0000
0000
0000
0000
,
0101
0000
0000
0100
0000
0000
0000
0000
0010
0000
0000
0100
0000
0000
0000
0000
,
0010
0000
0000
1000
0000
0000
0000
0000
0001
0000
0000
0010
0000
0000
0000
0000
,
0110
0000
0000
0100
0000
0000
0000
0000
1000
0000
0000
0001
0000
0000
0000
0000
,
0100
0000
0000
0001
0000
0000
0000
0000
1000
0000
0000
0010
0000
0000
0000
0000
,
0110
0000
0000
0100
0000
0000
0000
0000
0001
0000
0000
0010
0000
0000
0000
0000
,
0002
0000
2003
0000
3100
0010
0200
0000
,
1300
0001
0100
0000
0010
0100
0001
0000
,
1000
0000
0100
0000
0010
0000
0000
0000
0200
0000
0000
1300
0000
0000
0000
0000
,
0001
0100
0010
0000
0100
0001
1000
0000
,
0100
0010
0001
0000
2000
3001
1000
0000
,
1010
0010
0110
0100
,
0101
0001
1001
1000
,
0100
1000
0100
1000
0001
0100
0002
0000
,
1003
0000
0001
0000
0010
0100
0020
0030
,
2200
0000
3300
0000
0100
0000
1000
0000
0001
0100
0000
0010
1000
0000
0001
0000
,
2002
0000
3003
0000
1000
0100
0000
1000
0010
0000
0100
0000
0001
0000
0100
0000
,
0210
0000
0310
0000
1000
0000
0001
0000
0010
0000
0100
1000
0000
0000
0001
0000
,
0100
0000
0010
0000
0100
0000
0001
0000
2000
0000
0000
3001
0000
0000
0100
0000
,
0202
0000
0303
0000
0100
0000
0001
0000
1000
0100
0000
0010
0001
0000
1000
0000
,
2002
0000
3003
0000
0001
0100
0000
0001
0010
0000
0100
0000
1000
0000
0100
0000
,
0210
0000
0310
0000
0001
0000
1000
0000
0010
0000
0100
0001
0000
0000
1000
0000
,
0200
0320
0032
0000
0203
0320
2030
3000
,
0002
0000
0000
0000
0103
0000
0000
0000
0001
1000
0000
0010
0100
0000
0001
0000
,
2002
0000
3003
0000
1000
0001
0000
1000
0100
0000
0001
0000
0100
0000
0010
0000
,
0011
0000
0001
0000
1000
0000
0010
0000
0100
0000
0001
0010
0000
0000
0100
0000
,
1000
0000
0001
0000
0100
0000
0010
0000
2000
0000
0000
3100
0000
0000
0010
0000
,
0022
0000
0033
0000
0001
0000
1000
0000
0010
0100
0000
0001
0010
0000
0100
0000
,
2002
0000
3003
0000
0001
1000
0000
0001
0100
0000
1000
0000
0100
0000
0010
0000
,
1010
0000
1000
0000
0001
0000
0010
0000
0100
0000
1000
0010
0000
0000
0100
0000
,
0101
1010
2200
0000
,
0000
3300
0000
0000
0000
0000
0000
0000
0000
0000
0000
0000
0000
0000
0000
0000
0000
0000
0000
0000
0000
0000
0000
0000
0000
0000
0000
0000
0000
0000
0000
0000
;

//---------------dance-single - ----------------
#NOTES:
     dance-single:
     :
     Hard:
     13:
     0.557032,0.620991,0.294431,0.541117,0.473477,490.000000,453.000000,37.000000,68.000000,0.000000,0.000000,0.557032,0.620991,0.294431,0.541117,0.473477,490.000000,453.000000,37.000000,68.000000,0.000000,0.000000:
// measure 0
0000
0000
0000
0000
,  // measure 1
0000
0000
0000
0000
,  // measure 2
0000
0000
0000
0000
,  // measure 3
0000
0000
0000
0000
,  // measure 4
0000
0000
0000
0000
,  // measure 5
1001
0000
0000
0001
0000
0000
0000
0000
0100
0000
0000
0010
0000
0000
1000
0000
,  // measure 6
0001
0010
0000
0100
0000
0000
0000
0000
1000
0000
0000
0100
0000
0000
0010
0000
,  // measure 7
0110
0000
0000
0100
0000
0000
0000
0000
1000
0000
0000
0010
0000
0000
0100
0000
,  // measure 8
0002
0000
2003
0000
3100
0010
0100
1000
,  // measure 9
1001
0000
0001
0000
0100
0000
0010
0000
1000
0000
0000
0001
0000
0000
0010
0000
,  // measure 10
0100
0000
1000
0000
0100
0000
0010
0000
0002
0000
0000
1003
0000
0000
0010
0000
,  // measure 11
0100
0000
0010
0000
1000
0000
0001
0000
0010
0000
0000
0100
0000
0000
1000
0000
,  // measure 12
0010
0100
0010
1000
0002
0013
0100
1000
,  // measure 13
1100
0100
0010
0000
0110
0100
1000
0000
,  // measure 14
1001
0001
0100
0000
0110
0010
1000
0000
,  // measure 15
0001
1000
0001
0000
1000
0010
1000
0000
0010
0100
0010
0000
0200
0000
0000
0000
,  // measure 16
0301
0000
1000
0000
0001
0010
0100
1000
,  // measure 17
2020
0000
3030
0000
0010
0000
0000
0100
0001
1000
0000
0010
0100
0000
0001
0000
,  // measure 18
0020
0000
0030
0000
0100
0000
0000
0010
0001
0100
0000
0010
1000
0000
0001
0000
,  // measure 19
2002
0000
3003
0000
1000
0000
0000
0100
0010
0001
0000
1000
0001
0000
1000
0000
,  // measure 20
0020
0000
0030
0000
1000
0000
0000
0010
0100
0000
0001
0010
0100
0000
0010
0000
,  // measure 21
0022
0000
0033
0000
0010
0000
0000
0100
1000
0001
0000
0010
0100
0000
1000
0000
,  // measure 22
0020
0000
0030
0000
0100
0000
0000
0010
1000
0100
0000
0010
0001
0000
1000
0000
,  // measure 23
2002
0000
3003
0000
0001
0000
0000
0100
0010
1000
0000
0001
1000
0000
0001
0000
,  // measure 24
0020
0000
0230
0000
2300
0000
3200
0000
0320
0000
0032
0000
0103
0000
0020
0030
,  // measure 25
0220
0000
0330
0000
1000
0000
0000
0100
0010
0001
0000
1000
0010
0000
0100
0000
,  // measure 26
0002
0000
0003
0000
1000
0000
0000
0010
0100
1000
0000
0100
0010
0000
1000
0000
,  // measure 27
2002
0000
3003
0000
0001
0000
0000
1000
0100
0010
0000
0001
1000
0000
0010
0000
,  // measure 28
0200
0000
0300
0000
0010
0000
0000
1000
0100
0000
0010
1000
0010
0000
0100
0000
,  // measure 29
0220
0000
0330
0000
0001
0000
0000
0100
0010
1000
0000
0001
0010
0000
0100
0000
,  // measure 30
2000
0000
3000
0000
0001
0000
0000
0010
0100
0001
0000
0100
0010
0000
0001
0000
,  // measure 31
2002
0000
3003
0000
1000
0000
0000
0001
0100
0010
0000
1000
0001
0000
0010
0000
,  // measure 32
0200
0000
0300
1000
0100
0000
1000
0000
0001
0000
0100
0000
0010
0100
0010
0000
,  // measure 33
1000
0000
0000
0001
0000
0000
0000
0000
0010
0000
0000
0100
0000
0000
1000
0000
,  // measure 34
0001
0100
0000
0010
0000
0000
0000
0000
1000
0000
0000
0010
0000
0000
0100
0000
,  // measure 35
0110
0000
0000
0010
0000
0000
0000
0000
1000
0000
0000
0100
0000
0000
0010
0000
,  // measure 36
0001
1000
0000
0010
0000
0000
0000
0000
0100
0000
0000
0001
0000
0000
1000
0000
,  // measure 37
1100
0000
0000
0100
0000
0000
0000
0000
1000
0000
0000
0010
0000
0000
0100
0000
,  // measure 38
0001
1000
0000
0001
0000
0000
0000
0000
0010
0000
0000
0001
0000
0000
0100
0000
,  // measure 39
0101
0000
0000
0100
0000
0000
0000
0000
0001
0000
0000
0010
0000
0000
0100
0000
,  // measure 40
2000
0000
3002
0000
0103
0010
0100
0001
,  // measure 41
1001
0000
1000
0000
0100
0000
0010
0000
0001
0000
0000
1000
0000
0000
0010
0000
,  // measure 42
0100
0000
0001
0000
0100
0000
0010
0000
2000
0000
0000
3001
0000
0000
0010
0000
,  // measure 43
0100
0000
0010
0000
0001
0000
1000
0000
0010
0000
0000
0100
0000
0000
0001
0000
,  // measure 44
0010
0100
0010
0001
2000
3010
0100
0001
,  // measure 45
0101
0100
0010
0000
0110
0100
0001
0000
,  // measure 46
1001
1000
0100
0000
0110
0010
0001
0000
,  // measure 47
1000
0001
1000
0000
0001
0010
0001
0000
0010
0100
0010
0000
0200
0000
0000
0000
,  // measure 48
1300
0000
0001
0000
1000
0010
0100
0001
,  // measure 49
0022
0000
0033
0000
0010
0000
0100
1000
0001
1000
0000
0001
0100
0000
0010
0000
,  // measure 50
0220
0000
0330
0000
1000
0001
0000
0100
0001
0010
0000
0100
1000
0000
0001
0000
,  // measure 51
0102
0000
0103
0000
0010
0000
1000
0000
0001
0010
0001
0010
0100
0000
1000
0000
,  // measure 52
0100
0000
0010
0000
0001
0000
0100
0000
0010
0100
0010
0100
0001
0000
1000
0000
,  // measure 53
2020
0000
3030
0000
0010
0000
0100
0001
1000
0001
0000
1000
0100
0000
0010
0000
,  // measure 54
0220
0000
0330
0000
0001
1000
0000
0100
1000
0010
0000
0100
0001
0000
1000
0000
,  // measure 55
2100
0000
3100
0000
0010
0000
0001
0000
1000
0010
1000
0010
0100
0000
0001
0000
,  // measure 56
2000
3002
0023
0032
0203
0320
1030
0002
,  // measure 57
2003
0000
0000
0000
3100
0000
0010
0000
0100
1000
0000
0001
1000
0000
0010
0000
,  // measure 58
0220
0000
0330
0000
1000
0001
0000
0100
0010
0001
0000
0010
1000
0000
0001
0000
,  // measure 59
1002
0000
1003
0000
0100
0000
0010
0000
0100
1000
0001
0100
0001
0000
0100
0000
,  // measure 60
0010
0000
1000
0000
0100
0000
0010
0000
0001
1000
0010
0100
0010
0000
1000
0000
,  // measure 61
2200
0000
3300
0000
0100
0000
0010
0100
1000
0001
0000
1000
0010
0000
0100
0000
,  // measure 62
0202
0000
0303
0000
0001
1000
0000
0100
0010
1000
0000
0010
0001
0000
0010
0000
,  // measure 63
0120
0000
0130
0000
1000
0000
0001
0000
0100
0010
1000
0001
0100
0000
0001
0000
,  // measure 64
1001
1000
1100
0100
0220
0000
0000
0000
,  // measure 65
0000
0330
0000
0000
0000
0000
0000
0000
0000
0000
0000
0000
0000
0000
0000
0000
0000
0000
0000
0000
0000
0000
0000
0000
0000
0000
0000
0000
0000
0000
0000
0000
;

//---------------dance-single - ----------------
#NOTES:
     dance-single:
     :
     Challenge:
     15:
     0.652523,0.724490,0.302389,0.405838,0.632629,574.000000,536.000000,38.000000,51.000000,0.000000,0.000000,0.652523,0.724490,0.302389,0.405838,0.632629,574.000000,536.000000,38.000000,51.000000,0.000000,0.000000:
0000
0000
0000
0000
,
0000
0000
0000
0000
,
0000
0000
0000
0000
,
0000
0000
0000
0000
,
0000
0000
0000
0000
,
1001
0000
0001
0010
0000
0000
0000
0001
1000
0000
0000
0001
0000
0000
0100
0000
,
0010
0100
0000
0010
0000
0000
0000
1000
0001
0000
0000
1000
0000
0000
0100
0000
,
0110
0000
0010
0001
0000
0000
0000
1000
0001
0000
0000
1000
0000
0000
0010
0000
,
0200
0000
0000
0000
0302
0000
0000
0000
0103
0000
0010
0000
1000
0001
1000
0000
,
1100
0000
0100
0000
0010
0000
0001
0000
0100
0000
0001
0010
0000
0000
0100
0000
,
1000
0000
0001
0000
0100
0000
0010
0000
2000
0000
0000
0010
0000
0000
3001
0000
,
0101
0000
0100
0000
0010
0000
1000
0000
0100
0000
1000
0010
0000
0000
0100
0000
,
0001
0000
1000
0000
0100
0000
0010
0000
0002
0000
0013
0001
1000
0000
0010
0000
,
1010
1000
0100
0010
0011
0001
0100
0001
,
0011
0010
0100
1000
1010
0010
0100
0001
,
1000
0010
1000
0010
0100
0001
0100
0001
1000
0100
0010
0001
1000
0010
0100
0001
,
0100
0000
0001
0000
1000
0100
0010
0100
,
2001
0000
3001
0000
0100
0000
0000
0010
1000
0001
0000
1000
0100
0000
0010
0000
,
0002
0000
0003
0000
1000
0000
0000
0001
0100
0100
1000
0001
0100
0000
0001
0000
,
0012
0000
0013
0000
0100
0000
0000
1000
0001
0100
0000
0001
1000
0000
0010
0000
,
0200
0000
0300
0000
0001
0000
0000
1000
0001
1000
0010
0010
0001
0000
0100
0000
,
1002
0000
1003
0000
0100
0000
0000
0010
0001
1000
0000
0001
0100
0000
0010
0000
,
2000
0000
3000
0000
0001
0000
0000
1000
0100
0100
0001
1000
0100
0000
1000
0000
,
2010
0000
3010
0000
0100
0000
0000
0001
1000
0100
0000
1000
0001
0000
0010
0000
,
0200
0000
2300
0000
3002
0000
0203
0000
0320
0000
2030
3002
1003
0000
0002
0003
,
0012
0000
0013
0000
0100
0000
0000
1000
0010
0100
0000
0001
1000
0000
0100
0000
,
0020
0000
0030
0000
0001
0000
0000
1000
0100
0100
0010
1000
0001
0000
0010
0000
,
1200
0000
1300
0000
0010
0000
0000
1000
0100
0010
0000
0001
1000
0000
0010
0000
,
0200
0000
0300
0000
0001
0000
0000
0100
0001
1000
0010
0010
0100
0000
1000
0000
,
2001
0000
3001
0000
0100
0000
0000
0001
0010
0100
0000
1000
0001
0000
0100
0000
,
0020
0000
0030
0000
1000
0000
0000
0001
0100
0100
0010
0001
1000
0000
0010
0000
,
0201
0000
0301
0000
0010
0000
0000
0001
0100
0010
0000
1000
0001
0000
0010
0000
,
0100
0000
0000
0010
0001
0000
0010
0000
0100
0000
1000
0000
0001
1000
0001
1000
,
0100
0000
1000
0100
0000
0000
0000
1000
0001
0000
0000
1000
0000
0000
0010
0000
,
0100
0010
0000
0100
0000
0000
0000
0001
1000
0000
0000
0001
0000
0000
0010
0000
,
0110
0000
0100
1000
0000
0000
0000
0001
1000
0000
0000
0001
0000
0000
0100
0000
,
0010
0100
0000
0010
0000
0000
0000
1000
0001
0000
0000
0100
0000
0000
0010
0000
,
1010
0000
1000
0100
0000
0000
0000
0010
0001
0000
0000
0010
0000
0000
0100
0000
,
1000
0001
0000
0100
0000
0000
0000
0010
1000
0000
0000
0001
0000
0000
0010
0000
,
0110
0000
0100
1000
0000
0000
0000
0001
1000
0000
0000
0010
0000
0000
1000
0000
,
0200
0000
0000
0000
2300
0000
0000
0000
3100
0000
0010
0000
0001
1000
0001
0000
,
0101
0000
0100
0000
0010
0000
1000
0000
0100
0000
1000
0010
0000
0000
0100
0000
,
0001
0000
1000
0000
0100
0000
0010
0000
0002
0000
0000
0010
0000
0000
1003
0000
,
1100
0000
0100
0000
0010
0000
0001
0000
0100
0000
0001
0010
0000
0000
0100
0000
,
1000
0000
0001
0000
0100
0000
0010
0000
2000
0000
3010
1000
0001
0000
0010
0000
,
0011
0001
0100
0010
1010
1000
0100
1000
,
1010
0010
0100
0001
0011
0010
0100
1000
,
0001
0010
0001
0010
0100
1000
0100
1000
0001
0100
0010
1000
0001
0010
0100
1000
,
0100
0000
1000
0000
0001
0100
0010
0100
,
1002
0000
1003
0000
0100
0000
0010
0001
1000
0010
0000
0100
0001
0000
0100
0000
,
0210
0000
0310
0000
1000
0001
0000
1000
0010
0010
0100
1000
0010
0000
0100
0000
,
0201
0000
0301
0000
1000
0000
0100
0010
0001
1000
0001
0100
0010
0000
1000
0000
,
0010
1000
0010
1000
0001
0000
0010
0000
0100
0010
0100
1000
0001
0000
1000
0000
,
2001
0000
3001
0000
0100
0000
0010
1000
0001
0010
0000
0100
1000
0000
0100
0000
,
0210
0000
0310
0000
0001
1000
0000
0001
0010
0010
0100
0001
0010
0000
0100
0000
,
1200
0000
1300
0000
0001
0000
0100
0010
1000
0001
1000
0100
0010
0000
0001
0000
,
2000
0000
3002
0000
0203
0000
0320
0000
2030
0000
3200
0320
0130
0000
2000
0000
,
3002
0000
0000
0000
0103
0000
0010
0000
1000
0100
0000
0010
0001
0000
1000
0000
,
2010
0000
3010
0000
0100
0001
0000
0010
0100
0100
0010
1000
0100
0000
0010
0000
,
0021
0000
0031
0000
1000
0000
0010
1000
0100
0010
0100
1000
0001
0000
0100
0000
,
0010
1000
0001
1000
0100
0000
0010
0000
0100
1000
0001
0100
0010
0000
0100
0000
,
2010
0000
3010
0000
1000
0000
0001
0010
0100
1000
0000
0001
0100
0000
0001
0000
,
0012
0000
0013
0000
0100
1000
0000
0010
0100
0100
0010
0001
0100
0000
0010
0000
,
1000
0001
1000
0001
0010
0100
1000
0001
0100
0010
1000
0100
0010
0000
0100
0000
,
0110
1000
0110
0001
0220
0000
0000
0000
,
0000
0330
0000
0000
0000
0000
0000
0000
0000
0000
0000
0000
0000
0000
0000
0000
0000
0000
0000
0000
0000
0000
0000
0000
0000
0000
0000
0000
0000
0000
0000
0000
;
