#VERSION:0.83;
#TITLE:Guru Guru DJ TURN!!;
#SUBTITLE:;
#ARTIST:Happy Around! feat. KYOKO & SAKI;
#TITLETRANSLIT:;
#SUBTITLETRANSLIT:;
#ARTISTTRANSLIT:;
#GENRE:;
#CREDIT:;
#MUSIC:Guru Guru DJ TURN!!.ogg;
#BANNER:;
#BACKGROUND:;
#CDTITLE:;
#SAMPLESTART:65.822;
#SAMPLELENGTH:20.000;
#SELECTABLE:YES;
#OFFSET:-0.561;
#BPMS:0.000=220.000
,128.000=124.000
,128.500=125.000
,164.000=220.000
,172.000=330.000
,176.000=220.000
;
#STOPS:172.000=0.045
,172.500=0.046
,173.000=0.045
,173.500=0.046
,174.000=0.045
,174.500=0.046
,175.000=0.045
,175.500=0.046
;
#SPEEDS:0.000=1.000=0.000=0;
#SCROLLS:0.000=1.000;
#TICKCOUNTS:0.000=4;
#TIMESIGNATURES:0.000=4=4;
#LABELS:0.000=Song Start;
#COMBOS:0.000=1;
#DISPLAYBPM:125.000:220.000;
#ORIGIN:;
#PREVIEWVID:;
#JACKET:;
#CDIMAGE:;
#DISCIMAGE:;
#BGCHANGES:;
#FGCHANGES:;

//--------------- dance-single - ----------------
#NOTEDATA:;
#STEPSTYPE:dance-single;
#DESCRIPTION:;
#DIFFICULTY:Beginner;
#METER:4;
#RADARVALUES:0.150351,0.228909,0.021049,0.021049,0,100,98,2,2,0,0,0,0,0,0.150351,0.228909,0.021049,0.021049,0,100,98,2,2,0,0,0,0,0;
#DISPLAYBPM:125.000:220.000;
#CHARTNAME:;
#CHARTSTYLE:;
#CREDIT:ZSL;
#NOTES:
0000
0000
0000
0000
,
0000
0000
0000
0000
,
0000
0000
0000
0000
,
0000
0000
0000
0000
,
1000
0000
0000
0000
,
0001
0000
0000
0000
,
1001
0000
0000
0000
,
1000
0000
0010
0000
,
1000
0000
0000
0000
,
0100
0000
0000
0000
,
0010
0000
0000
0000
,
0001
0000
0000
0000
,
1000
0000
0010
0000
,
0000
0000
0100
0000
,
0001
0000
0000
0000
,
0001
0000
0000
0000
,
1000
0000
0100
0000
,
0000
0000
0010
0000
,
0001
0000
0000
0000
,
1000
0000
0000
0000
,
0010
0000
0100
0000
,
0000
0000
0001
0000
,
1000
0000
0000
0000
,
0100
0000
0000
0000
,
0010
0000
0100
0000
,
1000
0000
0001
0000
,
0100
0000
0000
0000
,
0010
0000
0000
0000
,
1000
0000
0000
0001
,
0001
0000
0000
1000
,
1000
0000
0100
0000
,
0010
0000
0001
0000
,
2000
0000
3000
0000
,
0001
0000
0100
0000
,
0001
0000
0010
0000
,
0100
0000
1000
0000
,
0010
0000
0100
0000
,
0001
0000
1000
0000
,
0010
0000
1000
0000
,
0100
0000
0010
0000
,
0001
0000
1000
0001
,
1000
0000
0000
0000
,
0000
0000
0000
0000
,
0002
0000
0000
0000
,
0003
0000
0000
0000
,
1000
0000
0000
0000
,
0010
0000
0000
0000
,
0100
0000
0000
0000
,
0001
0000
0000
0000
,
1000
0000
0001
0000
,
0010
0000
0100
0000
,
1000
0000
0001
0000
,
0100
0000
0000
0000
,
0010
0010
0000
0000
,
0100
0000
0000
0000
,
0001
0001
0000
0000
,
1000
0000
0000
0000
,
0100
0100
0000
0000
,
0010
0000
0000
0000
,
0001
1000
0000
0000
,
0000
0000
0000
0000
,
0010
0010
0000
0000
,
0100
0000
0000
0000
,
0001
0000
0100
0000
,
0010
0000
1000
0000
,
0001
0000
0000
1000
,
0000
0000
0100
0000
,
0000
0010
0000
0000
,
0000
0000
0000
0000
,
0001
0000
1000
0000
,
0010
0000
0100
0000
,
0001
0000
1000
0000
,
0000
0000
1001
0000
;

//--------------- dance-single - ----------------
#NOTEDATA:;
#STEPSTYPE:dance-single;
#DESCRIPTION:;
#DIFFICULTY:Easy;
#METER:7;
#RADARVALUES:0.279652,0.305212,0.031574,0.042098,0,186,183,3,4,0,0,0,0,0,0.279652,0.305212,0.031574,0.042098,0,186,183,3,4,0,0,0,0,0;
#DISPLAYBPM:125.000:220.000;
#CHARTNAME:;
#CHARTSTYLE:;
#CREDIT:ZSL;
#NOTES:
0000
0000
0000
0000
,
0000
0000
0000
0000
,
0000
0000
0000
0000
,
0000
0000
0000
0000
,
1000
0000
0010
1000
,
0010
0000
0100
0000
,
0110
0000
0010
1000
,
0010
0000
1000
0000
,
0100
0000
0010
0001
,
0010
0000
0100
0000
,
1000
0000
0000
0100
0000
0000
0010
0000
,
0001
0000
1000
0000
,
0001
0000
0100
0000
0010
0000
0000
0100
,
0000
0001
0000
0000
1000
0000
0000
0000
,
0100
0000
0000
0100
0000
0000
0000
0000
,
0010
0000
0000
0010
0000
0000
0000
0000
,
0100
0000
1000
0000
0001
0000
0000
1000
,
0000
0010
0000
0000
0100
0000
0000
0000
,
0010
0000
1000
0000
0001
0000
0000
1000
,
0000
0010
0000
0000
0100
0000
0001
0000
,
0100
0000
0010
0000
1000
0000
0000
0100
,
0000
0010
0000
0000
0001
0000
0000
0000
,
1000
0000
0000
1000
0000
0000
0000
0000
,
0010
0000
0000
0010
0000
0000
0000
0000
,
0100
0001
0010
0000
,
0100
1000
0010
0000
,
1000
0000
0001
0000
,
0010
0000
0100
0000
,
1100
0000
0000
1000
,
1000
0000
0000
0001
,
0001
0000
0100
0000
,
0010
1000
0001
1000
,
0200
0000
0300
0000
,
0010
0000
0001
0000
1000
0000
0000
0010
,
0000
0010
1000
0001
,
1000
0000
0100
0000
0010
0000
0000
0001
,
0000
0001
1000
0000
,
0010
0000
1000
0000
0100
0000
0000
0010
,
0000
0010
0001
0100
,
0010
0000
1000
0000
,
0100
0000
0010
0000
0100
1000
0100
0000
,
1000
0000
0000
0000
,
0000
0000
0000
0000
,
0001
0001
0001
0001
,
0100
0000
0010
0000
,
1000
0001
1000
0000
,
0100
0010
0100
0000
,
1000
0001
1000
0000
,
0010
0100
0010
0000
,
1000
0000
0100
0000
,
1000
0010
0100
0001
,
0010
0000
0100
0000
,
1000
0000
0002
0003
,
0100
0000
0010
0000
0000
0000
0000
1000
,
0000
0001
0000
0010
0000
0000
0000
0000
,
0100
0000
1000
0000
0000
0000
0000
0010
,
0000
1000
0000
0001
0000
0000
0000
0000
,
0010
0000
0100
0000
0000
0000
0000
1000
,
0000
0001
0000
0100
0000
0000
0000
0000
,
0010
0000
0000
0100
0000
0010
0000
0100
,
0000
0001
0000
0010
0000
0000
0000
0000
,
0100
0000
1000
0000
0000
0000
0000
0001
,
0000
0100
0000
0010
0000
0000
0000
0000
,
1000
0000
0000
0100
0000
0010
0000
0001
,
0000
0000
0000
1000
0000
0001
0000
0000
,
1000
0000
0000
0100
0000
0000
0010
0000
,
0000
0001
0000
0000
0100
0000
0000
0010
,
0000
0000
2000
0000
0000
0000
0000
3000
,
0000
0001
0000
0010
0000
0000
0100
0000
,
1000
0000
0000
0001
0000
0000
0001
0000
,
0100
0010
0100
0000
,
0001
0000
1000
0000
0100
0000
0000
0020
,
0000
0030
1001
0000
;

//--------------- dance-single - ----------------
#NOTEDATA:;
#STEPSTYPE:dance-single;
#DESCRIPTION:;
#DIFFICULTY:Medium;
#METER:11;
#RADARVALUES:0.454059,0.572272,0.23154,0.073672,0.026311,302,280,22,7,0,0,0,0,0,0.454059,0.572272,0.23154,0.073672,0.026311,302,280,22,7,0,0,0,0,0;
#DISPLAYBPM:125.000:220.000;
#CHARTNAME:;
#CHARTSTYLE:;
#CREDIT:ZSL;
#NOTES:
0000
0000
0000
0000
,
0000
0000
0000
0000
,
0000
0000
0000
0000
,
0000
0000
0000
0000
,
1000
0001
0010
0100
,
1000
0001
0100
0000
,
0110
0010
1000
0001
,
0010
0000
0100
0000
1000
0100
0000
1000
,
0001
1000
0010
0100
,
0001
1000
0100
0000
,
0010
0000
0001
1000
0000
0001
1000
0000
,
0010
0100
0001
0100
,
0001
0000
1000
0000
0100
0010
0000
0100
,
0000
1000
0000
0100
0010
0000
0001
0000
,
1000
0000
0000
1010
0000
0000
0010
0000
,
0110
0000
0000
0101
0000
0000
0001
0000
,
1000
0000
0001
0000
0010
0100
0000
0010
,
0000
0001
0000
1000
0010
0000
0100
0000
,
0010
0000
1000
0000
0100
0010
0000
0100
,
0000
0010
0000
0001
1000
0000
0010
0000
,
1000
0000
0001
0000
0100
0010
0000
0100
,
0000
0001
0000
0100
0010
0000
1000
0000
,
0001
0000
0000
0011
0000
0000
0010
0000
,
0110
0000
0000
1100
0000
0000
1000
0000
,
0001
0000
0100
0001
0100
0000
0010
0000
,
1000
0000
0100
1000
0100
0000
0010
0000
,
0001
0000
1000
0000
0010
0100
0000
0010
,
0000
1000
0000
0001
0010
0000
0100
0000
,
1100
0000
1000
0001
,
0101
0000
0100
0010
,
1010
0000
1100
0000
,
0010
0001
0100
0010
,
2000
0000
3000
0000
,
0001
0000
0010
0000
0100
0000
1000
0000
0100
0000
0000
0100
0000
0000
1000
0000
,
0000
0001
0100
0010
1000
0000
0010
0000
,
0100
0000
0000
0000
0010
0000
0000
0000
1000
0000
0000
1000
0000
0000
0001
0000
,
0000
0010
0100
0010
0001
0000
1001
0000
,
1000
0000
0010
0000
0100
0000
0001
0000
0010
0000
0000
0010
0000
0000
0001
0000
,
0000
1000
0010
0100
0010
1000
0100
0000
,
0010
0000
0001
1000
0000
0000
0001
0000
1000
0010
0000
0000
,
0110
0000
0100
0000
0010
1000
0100
0010
,
0001
0000
0000
0000
,
0000
0000
0000
0000
,
1000
0000
0001
0000
1000
0001
1000
0001
,
0100
0000
0001
0000
0100
0001
0000
0100
,
0010
0000
1000
0000
0001
1000
0000
0000
,
0100
0000
0010
0000
0100
0010
0000
0000
,
0100
1000
0010
0000
,
0100
0000
0001
0010
0100
0000
0000
0000
,
1000
0001
0100
0010
,
1010
1000
1100
0100
,
0110
0001
1000
0010
,
0110
1000
0002
0003
,
1000
0000
0010
0000
0000
0100
0001
0100
,
0000
0010
0000
1000
0000
0001
0010
0001
,
1000
0000
0001
0000
0000
0010
0100
0010
,
0000
0100
0000
1000
0000
0000
0001
0000
,
0100
0000
0010
0000
0000
0100
0000
0010
,
0000
1000
0000
0100
0000
0000
0010
0100
,
1000
0000
0100
1000
0000
0010
0000
0100
,
0000
0001
0000
0100
0010
0000
0000
0000
,
1000
0000
0001
0000
0000
0010
0100
1000
,
0000
0001
0000
1000
0000
0001
0100
0001
,
1000
0000
0010
0100
0000
0010
0000
2000
,
0000
0000
0000
3001
0000
0001
0000
0000
,
0101
0000
0000
0100
0000
0000
0010
0000
,
0000
1000
0000
0000
1100
0000
0000
0100
,
0000
0000
0220
0000
0000
0000
0000
0330
,
0000
0010
0001
1000
0001
0000
0100
0000
,
0010
0000
1000
0000
0001
1000
0001
0000
,
0010
0000
0100
0000
1000
0010
1000
0000
,
0010
0000
0100
0000
0001
0100
0000
0202
,
0000
0303
1001
0000
;

//--------------- dance-single - ----------------
#NOTEDATA:;
#STEPSTYPE:dance-single;
#DESCRIPTION:;
#DIFFICULTY:Hard;
#METER:13;
#RADARVALUES:0.589374,0.686726,0.420982,0.157868,0.073672,392,352,40,15,0,0,0,0,0,0.589374,0.686726,0.420982,0.157868,0.073672,392,352,40,15,0,0,0,0,0;
#DISPLAYBPM:125.000:220.000;
#CHARTNAME:;
#CHARTSTYLE:;
#CREDIT:ZSL;
#NOTES:
0000
0000
0000
0000
,
0000
0000
0000
0000
,
0000
0000
0000
0000
,
0000
0000
0000
0000
,
1000
0000
0100
0000
0010
0001
1000
0001
,
0100
0010
1000
0010
,
0101
0000
0001
0000
1000
0100
0010
0100
,
1000
0000
0001
0000
1000
0010
0000
1000
,
0100
0000
0010
0000
0001
0100
0010
0100
,
0001
1000
0100
0010
,
0001
0000
0100
0001
0000
0010
0001
0000
,
1000
0010
0100
0001
,
1000
0000
0100
0000
0010
0100
0000
1000
,
0000
0100
0010
0001
0100
0000
0010
0000
,
1010
0000
1000
0001
0000
0000
0010
0000
,
0011
0000
0001
0100
0000
0000
0010
0000
,
1010
0000
1000
0000
0010
0100
0000
0001
,
0000
1000
0000
0001
0010
0000
0100
0010
,
0001
0000
0100
0000
1000
0100
0000
0001
,
0000
1000
0000
0100
0001
0000
0100
0000
,
0110
0000
0010
0000
0001
0100
0000
0001
,
0000
1000
0000
0100
0010
0000
0100
0000
,
1100
0000
1000
0001
0100
0000
0010
0000
,
1010
0000
1000
0100
0000
0000
0010
0001
,
0100
0000
0100
0001
0010
0000
0100
1000
,
0010
0000
0010
1000
0100
0000
1000
0001
,
0100
0000
0010
0000
1000
0100
0000
0010
,
0000
0100
0000
1000
0010
0000
0100
0000
,
1001
0000
0001
0010
0100
0000
0010
0000
,
1100
0000
1000
0010
0100
0000
0010
0000
,
0102
0013
2100
3010
,
0101
0000
0001
0000
1000
0100
1000
0100
,
0020
0000
0030
0000
,
0001
0000
1000
0000
0010
0000
0100
0000
0010
1000
0000
0001
0000
0000
0011
0000
,
0000
0100
1000
0010
0110
0000
1010
0000
,
1000
0000
0000
0000
0100
0000
0000
0000
0010
0001
0000
0010
0000
0000
0001
0000
,
0000
0000
0100
0000
0010
0000
1000
0000
0001
1000
0001
1000
0010
0000
0000
0000
,
1000
0000
0100
0000
0010
0000
0001
0000
0100
0001
0000
0010
0000
0000
1100
0000
,
0000
0010
0001
0100
0010
1000
1001
0000
,
1000
0001
0100
0010
0000
1000
0001
0010
0100
1000
0000
0010
,
0100
0000
0001
0000
1000
0100
0010
0001
,
0100
0000
0000
0000
,
0000
0000
0000
0000
,
0001
0010
0100
1000
0001
0010
0100
1000
,
0010
0000
1000
0000
0100
0010
0000
0100
,
1000
0010
0100
0010
1000
1000
0000
0000
,
0001
0010
0100
0010
0001
0001
0000
0000
,
1000
0001
0100
0010
1000
0100
0000
0100
,
0010
0001
1000
0010
0010
0000
0000
0000
,
0110
1000
0110
0001
,
0010
0100
1000
0010
0100
0001
0010
0100
,
1000
0001
1001
1000
,
0110
0001
2000
3000
,
0110
0000
1001
0000
1000
0100
0010
0001
,
0000
0001
0010
0100
0000
0100
1000
0001
,
0100
0000
1010
0000
0010
0100
0001
0010
,
0000
0010
0100
1000
0000
0000
0100
0000
,
0011
0000
1001
0000
1000
0100
1000
0010
,
0000
0010
0100
2000
0000
0000
3100
0010
,
1000
0000
0001
0001
0000
0011
0000
0110
,
0000
1100
0000
1001
1000
0000
0010
0000
,
0110
0000
0101
0000
0001
0010
0100
1000
,
0000
1000
0010
0100
0000
0100
0001
0010
,
0100
0000
0001
0100
0000
1000
0001
0100
,
0000
0010
0100
0001
0000
1001
0000
0000
,
2000
0100
0000
3002
0100
0000
2003
0010
,
0000
3002
0010
0000
0203
0010
0000
0302
,
1003
0000
2200
0000
0000
0000
0000
3300
,
0000
0010
0001
0100
0010
0000
1000
0000
,
1100
0000
0010
0000
0100
1000
0001
0100
,
0001
0000
0100
0010
1000
0001
1000
0000
,
1001
0000
1100
0000
0110
0010
0000
0022
,
0000
0033
1001
0000
;
