#VERSION:0.83;
#TITLE:Foolish Hero;
#SUBTITLE:;
#ARTIST:lapix;
#TITLETRANSLIT:;
#SUBTITLETRANSLIT:;
#ARTISTTRANSLIT:;
#GENRE:;
#CREDIT:;
#MUSIC:Foolish Hero.ogg;
#BANNER:;
#BACKGROUND:;
#CDTITLE:;
#SAMPLESTART:84.443;
#SAMPLELENGTH:20.000;
#SELECTABLE:YES;
#OFFSET:-0.035;
#BPMS:0.000=145.000
,71.000=72.500
,71.250=217.500
,72.000=145.000
,135.000=290.000
,135.667=72.500
,136.000=145.000
;
#STOPS:;
#SPEEDS:0.000=1.000=0.000=0;
#SCROLLS:0.000=1.000;
#TICKCOUNTS:0.000=4;
#TIMESIGNATURES:0.000=4=4;
#LABELS:0.000=Song Start;
#COMBOS:0.000=1;
#DISPLAYBPM:145.000;
#ORIGIN:;
#TAGS:;
#PREVIEWVID:;
#JACKET:;
#CDIMAGE:;
#DISCIMAGE:;
#BGCHANGES:;
#FGCHANGES:;

//--------------- dance-single - ----------------
#NOTEDATA:;
#STEPSTYPE:dance-single;
#DESCRIPTION:;
#DIFFICULTY:Beginner;
#METER:3;
#RADARVALUES:0.145649,0.150542,0,0.059473,0.004248,120,120,0,7,0,0,0,0,0,0.145649,0.150542,0,0.059473,0.004248,120,120,0,7,0,0,0,0,0;
#DISPLAYBPM:145.000;
#CHARTNAME:;
#CHARTHASH:2134162966;
#BANNER:;
#CHARTSTYLE:;
#METERF:0.000000;
#LASTSECONDHINT:117.345337;
#CREDIT:ZSL;
#NOTES:
0000
0000
0000
0000
,
0000
0000
0000
0000
,
0001
0000
0000
0200
,
0000
0000
0310
0000
,
1000
0000
0000
0200
,
0000
0000
0310
0000
,
0001
0000
0000
2000
,
0000
0000
3010
0000
,
0100
0000
0000
0002
,
0000
0000
0000
0000
0000
0000
0000
0000
0000
0000
0000
0000
0000
0003
0000
0000
,
1000
0000
0010
0000
,
0100
0000
0000
0000
,
0001
0000
0100
0000
,
0010
0000
0000
0000
,
1000
0000
0100
0000
,
0010
0000
0000
0000
,
0001
0000
0010
0000
,
0100
0000
0000
2000
,
3000
0000
0001
0000
,
1000
0000
0010
0000
,
0100
0000
0001
0000
,
1000
0000
0100
0000
,
0010
0000
0100
0000
,
1000
0000
0001
0000
,
0100
0000
0010
0000
,
1000
0000
1000
0000
,
0001
0000
1000
0000
,
0001
0000
0010
0000
,
0100
0000
1000
0000
,
0001
0000
0100
0000
,
0010
0000
0100
0000
,
0001
0000
1000
0000
,
0100
0000
0010
0000
,
0001
0000
0001
0002
,
0003
0000
1000
0000
,
0010
0000
0100
0000
,
0010
0000
1000
0000
,
0001
0000
0010
0000
,
0100
0000
0010
0000
,
0001
0000
1000
0000
,
0010
0000
0100
0000
,
0010
0000
1000
0000
,
0100
0000
0000
0000
,
0010
0000
0000
0000
,
0001
0000
0000
0000
,
1000
0000
0000
0000
,
0010
0000
0010
0000
,
0100
0000
0100
0000
,
0001
0000
1000
0000
,
0001
0000
1000
0000
,
0100
0000
0000
0000
,
0010
0000
0001
0000
,
1000
0000
0010
0000
,
0100
0000
0010
0000
,
1000
0000
0100
0000
,
0010
0000
0100
0000
,
1000
0000
0010
0000
,
0100
0000
0001
0000
,
1000
0000
0100
0000
,
1000
0000
0010
0000
,
0100
0000
0001
0000
,
0010
0000
0001
0000
,
0100
0000
0010
0000
,
1000
0000
0100
0000
,
0010
0000
0001
0000
,
1000
0000
0010
0000
,
0100
0000
0001
0000
,
1000
0000
0000
0000
,
0001
0000
0000
0000
,
0010
0000
0000
0000
,
0200
0000
0000
0000
0000
0000
0000
0300
;

//--------------- dance-single - ----------------
#NOTEDATA:;
#STEPSTYPE:dance-single;
#DESCRIPTION:;
#DIFFICULTY:Easy;
#METER:5;
#RADARVALUES:0.230611,0.240867,0.033985,0.059473,0.008496,190,186,4,7,0,0,0,0,0,0.230611,0.240867,0.033985,0.059473,0.008496,190,186,4,7,0,0,0,0,0;
#DISPLAYBPM:145.000;
#CHARTNAME:;
#CHARTHASH:2364295200;
#BANNER:;
#CHARTSTYLE:;
#METERF:0.000000;
#LASTSECONDHINT:117.345337;
#CREDIT:ZSL;
#NOTES:
0000
0000
0000
0000
,
0000
0000
0000
0000
,
0001
0000
0000
0100
0000
0000
0020
0000
,
0000
0000
1030
0001
,
1000
0000
0000
0100
0000
0000
0020
0000
,
0000
0000
0031
0001
,
1000
0000
0000
0010
0000
0000
0200
0000
,
0000
0000
0301
1000
,
0001
0000
0000
0010
0000
0000
0200
0000
,
0000
0000
0000
0000
0000
0000
0000
0000
0000
0000
0000
0000
0000
0300
0000
0000
,
1000
0000
0001
0000
,
0100
0000
0010
0010
,
1000
0000
0001
0000
,
0010
0000
0100
0000
,
1000
0001
0100
0000
,
0010
1000
0001
0000
,
0010
0100
0010
0000
,
0001
0000
0000
0000
1000
0000
0000
0000
0001
0000
0000
0000
0200
0300
0000
0000
,
0010
0000
1000
0000
,
0001
0010
0100
0000
,
0010
0000
0001
0000
,
1000
0010
0100
0010
,
1000
0000
0001
0000
,
0010
0001
0100
0100
,
0010
0000
1000
0000
,
0001
0001
0100
0001
,
0010
0000
0001
0000
,
1000
0010
0100
0000
,
0010
0000
1000
0000
,
0001
0010
0100
0010
,
0001
0000
1000
0000
,
0010
1000
0100
0100
,
0010
0000
0001
0000
,
1000
1000
0010
0200
,
0301
0000
1000
0000
,
0010
1000
0100
0000
,
0010
0000
0001
0000
,
0101
0000
0100
0010
,
1000
0000
1100
0000
,
0010
0000
1001
0000
,
0001
1000
0010
0000
,
0100
0100
0010
1000
,
0001
0000
0010
0000
,
0100
0000
1000
0000
,
0010
0000
1000
0000
,
0100
0000
0010
0000
,
0001
1000
0010
0000
,
1000
0100
0010
0000
,
0100
1000
0010
0000
,
0100
0001
0100
0001
,
0010
0000
0100
0000
,
1000
0100
0010
0001
,
1000
0000
0001
0000
,
1000
0010
0100
0001
,
0010
0000
0100
0000
,
0010
0001
1000
0010
,
0100
0000
0010
0000
,
0100
0001
0010
0100
,
1000
0000
1000
0000
,
0001
0100
0010
1000
,
0001
0000
1000
0000
,
0001
0010
0100
1000
,
0010
0000
0100
0000
,
0010
1000
0001
0010
,
0100
0000
0110
0000
,
0100
1000
0010
0100
,
0001
0000
1000
0010
,
0100
0000
0010
0000
,
1000
0000
0001
0000
,
0010
0000
0100
0000
,
0020
0000
0000
0000
0000
0000
0000
0030
;

//--------------- dance-single - ----------------
#NOTEDATA:;
#STEPSTYPE:dance-single;
#DESCRIPTION:;
#DIFFICULTY:Medium;
#METER:10;
#RADARVALUES:0.44787,0.451625,0.042481,0.101954,0.118946,369,364,5,12,0,0,0,0,0,0.44787,0.451625,0.042481,0.101954,0.118946,369,364,5,12,0,0,0,0,0;
#DISPLAYBPM:145.000;
#CHARTNAME:;
#CHARTHASH:643687747;
#BANNER:;
#CHARTSTYLE:;
#METERF:0.000000;
#LASTSECONDHINT:117.345337;
#CREDIT:ZSL;
#NOTES:
0000
0000
0000
0000
,
0000
0000
0000
0000
,
0001
0000
0000
0100
0000
0000
0010
0000
0000
1000
0000
0000
0002
0000
0000
0000
,
0000
0000
0000
0000
1003
0100
1000
0000
,
0100
0000
0000
0010
0000
0000
0001
0000
0000
1000
0000
0000
0020
0000
0000
0000
,
0000
0000
0000
0000
0130
0010
1000
0000
,
1000
0000
0000
0100
0000
0000
0010
0000
0000
0001
0000
0000
2000
0000
0000
0000
,
0000
0000
0000
0000
3001
0100
0010
0000
,
0100
0000
0000
0001
0000
0000
0010
0000
0000
0100
0000
0000
2000
0000
0000
0000
,
0000
0000
0000
0000
0000
0000
0000
0000
0000
0000
0000
0000
0000
3000
0000
0000
,
0001
1000
0010
1000
,
0001
0000
0000
0000
0010
0000
0100
0000
1000
0000
0000
0100
0000
0000
0010
0000
,
0001
1000
0001
0100
,
0001
1000
0100
0010
,
0100
0000
1000
0000
0001
0000
0000
0000
0100
0000
0000
0100
0000
0000
0000
0000
,
0010
0000
1000
0000
0001
0000
0000
0000
0010
0000
0000
0010
0000
0000
0000
0000
,
0100
1100
1001
0000
,
1000
0000
0100
0000
0010
0000
0001
0000
0100
0000
0000
0000
0020
0030
0000
0000
,
2000
0000
0000
0000
3001
0000
1000
0000
0100
0000
0000
0010
0000
0000
0100
0000
,
1000
0000
0000
0000
0010
0000
0100
0000
0001
1000
0000
0000
0001
0000
0000
0000
,
0010
0000
0100
0000
0010
0000
0000
0001
0000
0000
1000
0000
0010
0000
0000
0000
,
0200
0000
0000
0000
0310
0000
1000
0000
0100
0000
0000
0100
0000
0000
0010
0000
,
0001
0000
0010
0000
1000
0010
0001
1000
,
0010
0100
0001
0001
,
1000
0000
0100
0000
0010
0000
0000
0100
0000
0000
1000
0000
0010
0000
0100
0000
,
0001
0000
0000
0000
0001
0000
0000
0000
0001
0000
0000
1000
0100
0000
0010
0000
,
0002
0000
0000
0000
1003
0000
0001
0000
0100
0000
0000
0010
0000
0000
0100
0000
,
0001
0000
0000
0000
0010
0000
0100
0000
1000
0001
0000
0000
1000
0000
0000
0000
,
0010
0000
0100
0000
0010
0000
0000
1000
0000
0000
0001
0000
0010
0000
0000
0000
,
0200
0000
0000
0000
0310
0000
0001
0000
0100
0000
0000
0100
0000
0000
0010
0000
,
1000
0000
0010
0000
0001
0010
1000
0001
,
0010
0100
1000
1000
,
0001
0000
0100
0000
0010
0000
0000
0100
0000
0000
0000
0101
0000
0000
0001
0000
,
1000
0000
0000
1000
0001
0000
0000
0000
0001
0000
0100
0000
0110
0000
0000
0000
,
0010
0000
0100
0000
0001
1000
0100
0000
,
0010
0000
0100
0000
1000
0001
0010
0000
,
0001
0100
0010
0000
1000
0100
0010
0000
,
0001
0001
0000
1000
0020
0230
0301
0000
,
1000
0000
0100
1000
0010
0000
1000
0000
,
1100
0000
0001
0000
0011
0000
0010
0001
,
0100
0000
0010
1000
0100
0000
0010
0001
,
1000
0000
0000
1000
0000
0000
1000
0000
0002
0000
0203
0000
0310
0000
0000
0000
,
1000
0001
0010
0100
,
0010
0001
1000
0001
,
0100
0010
1000
0010
,
0100
0010
1000
0001
,
0010
0100
0010
0000
0001
0010
0001
0000
,
1000
0010
1000
0000
0010
0100
0010
0000
,
1000
0001
0010
0100
,
0010
0001
0100
0010
1000
0001
0010
0000
,
0100
0000
0000
0010
0000
0010
0000
0000
0001
0000
1000
0000
0010
0000
0000
0000
,
1000
0001
0010
0100
0001
0100
0010
0000
,
0001
0000
0001
0000
1000
0010
0100
0000
,
0001
1000
0010
0100
1000
0100
0010
0000
,
1000
0000
1000
0000
0001
0010
0100
0000
,
1000
0001
0100
0010
0001
0010
0100
0000
,
0001
0000
0001
0000
1000
0100
0010
0000
,
0001
1000
0100
0010
1000
0010
0100
0000
,
1000
0000
1000
0000
0001
0000
0000
0001
,
0100
0001
1000
0100
0001
0100
1000
0000
,
0010
0000
0010
0000
0100
0001
1000
0000
,
0100
1000
0001
0100
1000
0100
0001
0000
,
0010
0000
0010
0000
0100
1000
0001
0000
,
0010
0001
1000
0010
0001
0010
1000
0000
,
0100
0000
0100
0000
0001
0100
1000
0000
,
0010
1000
0001
0010
1000
0010
0001
0000
,
0100
0000
0100
0000
0001
0010
0100
0100
,
1000
0000
0010
0000
1000
0001
1000
0000
,
0010
0000
0100
0000
0001
1000
0001
0000
,
0010
0000
0100
0000
1000
0100
0010
0000
,
0001
0000
1000
0002
0000
0000
0000
0103
;

//--------------- dance-single - ----------------
#NOTEDATA:;
#STEPSTYPE:dance-single;
#DESCRIPTION:;
#DIFFICULTY:Hard;
#METER:13;
#RADARVALUES:0.633572,0.632275,0.127443,0.135939,0.429057,522,507,15,16,0,0,0,0,0,0.633572,0.632275,0.127443,0.135939,0.429057,522,507,15,16,0,0,0,0,0;
#DISPLAYBPM:145.000;
#CHARTNAME:;
#CHARTHASH:173429424;
#BANNER:;
#CHARTSTYLE:;
#METERF:0.000000;
#LASTSECONDHINT:117.345337;
#CREDIT:ZSL;
#NOTES:
0000
0000
0000
0000
,
0000
0000
0000
0000
,
0001
0000
0000
0100
0000
0000
0110
0000
0000
1000
0000
0000
2001
0000
0000
0000
,
0000
0000
0000
0000
3100
0010
0001
1000
,
0010
0000
0000
0100
0000
0000
0101
0000
0000
1000
0000
0000
2100
0000
0000
0000
,
0000
0000
0000
0000
3001
0100
0010
0000
,
0110
0000
0000
0001
0000
0000
1001
0000
0000
1000
0000
0000
1200
0000
0000
0000
,
0000
0000
0000
0000
0000
0000
0000
0000
0310
0000
0001
0000
0100
0010
0000
0010
,
0100
0000
0000
0001
0000
0000
0101
0000
0000
1000
0000
0000
1002
0000
0000
0000
,
0000
0000
0000
0000
0000
0000
0000
0000
0000
0000
0000
0000
0000
0013
0100
0000
,
1000
0001
1000
0100
,
0010
0000
0000
0000
0001
0000
1000
0000
0010
0000
0000
0010
0000
0000
1000
0000
,
0100
0010
0001
1000
,
0001
0100
0010
0100
,
0010
0000
0100
0000
0001
0000
0010
0000
0100
0000
1000
0100
0000
0100
0010
0000
,
0001
0000
1000
0000
0001
0000
0100
0000
0010
0000
1000
0010
0000
0000
0100
0000
,
0010
1000
0100
0010
0001
1000
0001
0000
,
0100
0000
0010
0000
1000
0000
1000
0000
0001
0000
0000
0000
0200
0300
0000
0000
,
0020
0000
0000
0000
1030
0000
0100
0000
0010
0000
0000
0100
0000
0000
1000
0000
,
0001
0100
0000
0000
0010
0000
0100
0000
0001
1000
0000
0000
0100
0010
0000
0000
,
0100
1000
0100
0000
0010
0000
0001
1000
0000
0000
0010
0000
0100
0000
0010
0000
,
2010
0000
0000
0000
3010
0000
0100
0001
1000
0000
0000
0100
0000
0000
0010
0000
,
0200
0000
0000
0000
0310
0000
0001
0000
1000
0010
1000
0010
0100
0000
0001
0000
,
1000
0100
0000
0000
0010
0000
0001
0000
1000
0000
0010
0000
1000
0000
0010
0000
,
0100
0001
0100
0000
0001
0000
0010
0100
0000
0000
1000
0000
0001
0000
0100
0000
,
0110
0000
0000
0000
1001
0000
0000
0000
0110
0000
0000
0001
1000
0000
0100
0000
,
0020
0000
0000
0000
0031
0000
0100
0000
0010
0000
0000
0100
0000
0000
0001
0000
,
1000
0100
0000
0000
0010
0000
0100
0000
1000
0001
0000
0000
0100
0010
0000
0000
,
0100
0001
0100
0000
0010
0000
1000
0001
0000
0000
0010
0000
0100
0000
0010
0000
,
0012
0000
0000
0000
0013
0000
0100
1000
0001
0000
0000
0100
0000
0000
0010
0000
,
0200
0000
0000
0000
0310
0000
1000
0000
0001
0010
0001
0010
0100
0000
1000
0000
,
0001
0100
0000
0000
0010
0000
1000
0000
0001
0000
0010
0000
0001
0000
0010
0000
,
0100
1000
0100
0000
1000
0000
0010
0100
0000
0000
0001
0100
0000
0000
0010
0000
,
1000
0010
0000
0010
1000
0000
0000
0100
0010
0000
0100
0000
1100
0000
0000
0000
,
1000
0000
0001
0000
0100
0000
0010
0000
1000
0000
0100
0000
1000
0001
0000
0001
,
0100
0000
0001
0000
0010
0000
0100
0000
1000
0000
0001
0000
1000
0010
0000
0000
,
0100
0001
0100
0010
1000
0100
0010
0100
,
1000
0010
1000
0000
0000
0000
0010
0000
0200
0000
0302
0000
1003
0000
0000
0000
,
0100
0000
0010
0000
0100
0000
1000
0001
1000
0000
0000
0000
0001
0000
0100
0010
,
0100
0000
0000
0000
0010
0000
1000
0100
1000
0000
0000
0000
0100
0000
0010
0000
,
0001
0010
0100
1000
0010
0000
0100
0001
,
1000
0000
1000
0001
0000
0001
1000
0000
0002
0000
0023
0000
0130
0000
0000
0000
,
1000
0100
1000
0010
0100
0010
1000
0000
,
0001
0100
0001
0010
0100
0010
0001
0000
,
1000
0100
0010
0001
0100
0010
1000
0000
,
0001
0100
0010
1000
0100
0010
0001
0000
,
0010
0000
0100
0000
1000
0001
0000
0001
1000
0000
0010
0000
0100
0001
0000
0001
,
0100
0000
0010
0000
1000
0100
0000
0100
0010
0000
0100
0000
1000
0010
0000
0010
,
0100
0001
0010
0001
0100
0010
1000
0100
,
0010
0000
0100
0000
1000
0000
0001
0000
0100
0010
0100
0010
0100
0000
0000
0000
,
0001
1000
0000
0001
0000
1000
0000
0010
0100
0000
0010
0000
1000
0000
0000
0000
,
0001
0000
0010
0000
0100
0000
1000
0000
0010
0100
0000
0010
0000
1000
0100
0000
,
0010
0000
0001
0000
0100
0000
0010
0000
1000
0000
0010
0100
0010
0000
0000
0000
,
1000
0000
0010
0000
0100
0000
0001
0000
0010
0100
0000
0010
0000
0001
0100
0000
,
0010
0000
1000
0000
0100
0000
0010
0000
0001
0000
0010
0100
1000
0000
0000
0000
,
0001
0000
0100
0000
0010
0000
1000
0000
0100
0010
0000
0100
0000
1000
0010
0000
,
0100
0000
0001
0000
0010
0000
0100
0000
1000
0000
0100
0010
0100
0000
0000
0000
,
1000
0000
0100
0000
0010
0000
0001
0000
0100
0010
0000
0100
0000
0001
0010
0000
,
0100
1000
0010
0100
0001
0000
0000
1000
,
0100
0000
0010
0000
0100
0000
1000
0000
0010
0100
0000
0100
0010
1000
0001
0000
,
0010
0000
0100
0000
1000
0000
0001
0000
0100
0000
0001
0100
0001
0000
0000
0000
,
0100
0000
0010
0000
0100
0000
0001
0000
0010
0100
0000
0100
0010
0001
1000
0000
,
0010
0000
0100
0000
0001
0000
1000
0000
0100
0000
0010
0001
0100
0000
0000
0000
,
0010
0000
0100
0000
0010
0000
1000
0000
0100
0010
0000
0010
0100
1000
0001
0000
,
0100
0000
0010
0000
1000
0000
0001
0000
0010
0000
0001
0010
0001
0000
0000
0000
,
0010
0000
0100
0000
0010
0000
0001
0000
0100
0010
0000
0010
0100
0001
1000
0000
,
0100
0000
0010
0000
0001
0000
1000
0000
0010
0000
0100
0001
0010
0000
0100
0000
,
1000
0000
0100
1000
0010
0100
0010
0000
,
1000
0100
0010
0001
0100
0010
1000
0000
,
0001
0000
0100
0001
0010
0100
0010
0000
,
0100
1000
0001
2000
0000
0000
0000
3010
;

//--------------- dance-single - ----------------
#NOTEDATA:;
#STEPSTYPE:dance-single;
#DESCRIPTION:;
#DIFFICULTY:Challenge;
#METER:16;
#RADARVALUES:0.887244,0.963466,0.246389,0.152931,1.117247,731,702,29,18,0,0,0,0,0,0.887244,0.963466,0.246389,0.152931,1.117247,731,702,29,18,0,0,0,0,0;
#DISPLAYBPM:145.000;
#CHARTNAME:;
#CHARTHASH:4216323991;
#BANNER:;
#CHARTSTYLE:;
#METERF:0.000000;
#LASTSECONDHINT:117.345337;
#CREDIT:ZSL;
#NOTES:
0000
0000
0000
0000
,
0000
0000
0000
0000
,
1001
0000
0000
1100
0000
0000
0011
0000
0000
1001
0000
0000
2010
0000
0000
0000
,
0000
0000
0000
0000
0000
0000
0000
0000
3010
0100
0001
0000
1000
0000
0100
0010
,
0001
0000
0000
0101
0000
0000
1010
0000
0000
1001
0000
0000
0021
0000
0000
0000
,
0000
0000
0000
0000
0000
0000
0000
0000
0031
1000
0001
0100
0010
1000
0001
0000
,
1001
0000
0000
0011
0000
0000
0110
0000
0000
1100
0000
0000
2001
0000
0000
0000
,
0000
0000
0000
0000
0000
0000
0000
0000
3010
0100
0001
0100
0010
1000
0000
1000
,
0100
0000
0000
0110
0000
0000
0011
0000
0000
1001
0000
0000
1020
0000
0000
0000
,
0000
0000
0000
0000
0000
0000
0000
0000
0000
0000
0000
0000
0000
1030
0100
0000
,
0010
0001
1000
0001
,
0010
0000
0000
0000
0100
0010
0001
1000
0010
0000
0000
1000
0000
0000
0001
0000
,
1000
0001
0100
0010
,
1000
0100
0010
0001
,
1000
0000
0010
0100
0001
0000
0100
0000
0010
0000
1000
0001
0000
0001
1000
0000
,
0100
1000
0100
1000
0001
0100
0010
1000
0001
0000
0001
0010
0000
0000
0100
0000
,
1000
0010
0100
0001
1000
0100
0010
0001
1000
0010
0100
0001
0020
0000
0000
0000
,
0130
0000
1000
0000
0001
0010
0001
0100
0010
0000
0000
0000
1020
0030
0000
0000
,
2000
0000
0000
0000
3001
0000
0010
0000
0100
0000
1000
0001
0000
0000
0100
0000
,
0010
1000
0000
1000
0001
0010
0001
1000
0010
0100
0000
0010
1000
0001
0000
0010
,
0100
1000
0100
0010
0001
0000
1000
0010
0000
0000
0100
0000
1000
0000
0100
0000
,
0120
0000
0000
0000
1030
0000
0001
0010
0100
0000
0000
0110
0000
0000
0011
0000
,
0001
0000
1000
0000
0001
0010
0001
0010
1000
0010
1000
0010
0100
1000
0001
0010
,
0001
0100
0000
0100
0010
1000
0001
1000
0010
0000
0100
0000
0010
0000
0100
0000
,
0001
1000
0100
1000
0001
0000
0010
0002
0000
0000
1003
0010
0100
0000
0010
0000
,
1010
0000
1000
0000
1001
0000
0001
0000
0101
0000
0000
1000
0100
0000
0010
0000
,
0002
0000
0000
0000
1003
0000
0010
0000
0100
0000
0001
1000
0000
0000
0100
0000
,
0010
0001
0000
0001
1000
0010
1000
0001
0020
0100
0000
0031
0010
0100
0000
0000
,
0010
0001
0100
0010
1000
0000
0001
0010
0000
0000
0100
0000
0001
0000
0100
0000
,
0120
0000
0000
0000
0031
0000
1000
0010
0100
0000
0000
0110
0000
0000
1010
0000
,
1000
0000
0001
0000
1000
0010
1000
0010
0001
0010
0001
0010
0100
0001
1000
0010
,
1000
0100
0000
0100
0010
0001
1000
0001
0010
0000
0100
0000
0010
0000
0100
0000
,
1000
0001
0100
0010
1000
0000
0010
0200
0000
0000
0301
2000
0000
0000
3100
0000
,
0010
0001
0000
0001
2000
0000
0000
3001
0100
0000
0010
0000
1001
0000
0000
0000
,
1000
0000
0100
0000
0010
0000
0001
1000
0010
0000
0100
0000
0010
1000
0000
1000
,
0001
0010
0100
1000
0001
0100
0001
1000
0010
0000
1000
0000
0001
0010
0000
0000
,
0100
1000
0001
0100
0001
0000
0100
0010
1000
0001
0010
0001
0100
0000
0010
1000
,
0100
0010
0100
0000
1000
0000
0001
0100
0020
0000
2030
0000
3100
0000
0000
0000
,
0010
0001
1000
0001
0010
0000
0001
0100
0010
0000
0000
0000
1000
0001
0100
0001
,
1000
0000
0000
0000
0100
0010
0100
1000
0001
0000
0000
0000
0100
0010
1000
0001
,
0100
0000
0001
0000
0010
0000
0001
0010
0100
0000
1000
0000
0100
0000
0010
0001
,
1000
0010
0100
0010
1000
0010
0100
0001
1000
0100
0010
0000
0100
0000
0000
0000
,
1000
0001
0100
0001
0010
0100
1000
0010
,
0100
0010
1000
0001
0010
0100
1000
0000
,
0001
1000
0100
1000
0010
0100
0001
0010
,
0100
0010
0001
1000
0010
0100
0001
0000
,
1000
0100
1000
0000
0100
0010
0000
0010
0100
0010
0001
0000
0010
0100
0000
0100
,
1000
0010
1000
0000
0010
0100
0000
0100
0010
0100
0001
0000
0100
0010
0000
0010
,
1000
0001
0010
0001
1000
0001
0100
0001
1000
0100
0010
0100
1000
0001
0100
0010
,
1000
0100
0010
0001
0100
0010
1000
0100
0010
0001
0100
0010
1000
0000
0001
0000
,
0100
0010
0000
0100
0000
0010
0000
1000
0001
0010
0100
1000
0001
0000
0000
0000
,
1000
0010
0100
0001
1000
0001
0010
0100
0001
0100
0010
0001
1000
0010
1000
0000
,
0010
0100
0001
1000
0100
0010
0100
1000
0001
0100
0010
0100
0001
0000
1000
0000
,
0001
0010
0100
1000
0001
1000
0010
0100
1000
0100
0010
1000
0001
0010
0001
0000
,
0010
0100
1000
0001
0100
0010
0100
0001
1000
0100
0010
0100
0001
0000
0100
0000
,
1000
0100
0010
0001
1000
0001
0100
0010
0001
0010
0100
0001
1000
0100
1000
0000
,
0100
0010
0001
1000
0010
0100
0010
1000
0001
0010
0100
0010
0001
0000
1000
0000
,
0001
0100
0010
1000
0001
1000
0100
0010
1000
0010
0100
1000
0001
0100
0001
0000
,
0100
0010
1000
0001
0010
0100
0010
0001
1000
0000
0000
0000
0000
0000
0001
0000
,
0010
0100
0010
0001
0100
0010
1000
0010
0001
0010
0100
0001
1000
0100
0010
0000
,
0001
0010
0001
0100
0001
0010
0100
1000
0001
0100
0010
1000
0100
0000
1000
0000
,
0010
0100
0010
1000
0100
0010
0001
0010
1000
0010
0100
1000
0001
0100
0010
0000
,
1000
0010
1000
0100
1000
0010
0100
0001
1000
0010
0100
0010
0001
0000
0010
0000
,
0100
0010
0100
0001
0010
0100
1000
0100
0001
0100
0010
0001
1000
0010
0100
0000
,
0001
0100
0001
0010
0001
0100
0001
0010
1000
0010
0100
1000
0001
0000
1000
0000
,
0100
0010
0100
1000
0010
0100
0001
0100
1000
0100
0010
1000
0001
0010
0100
0000
,
1000
0100
1000
0010
1000
0100
0010
0001
1000
0010
0100
0001
0010
0000
0001
0000
,
1000
0010
0100
0010
1000
0001
0010
0000
,
0001
0100
0010
0100
0001
1000
0001
0000
,
1000
0100
0010
0001
0100
0001
1000
0000
,
0100
0010
0100
2000
0000
0000
0000
3001
;
