#VERSION:0.83;
#TITLE:Final Step!;
#SUBTITLE:;
#ARTIST:Lime;
#TITLETRANSLIT:;
#SUBTITLETRANSLIT:;
#ARTISTTRANSLIT:;
#GENRE:;
#CREDIT:;
#MUSIC:Final Step!.ogg;
#BANNER:;
#BACKGROUND:;
#CDTITLE:;
#SAMPLESTART:55.686;
#SAMPLELENGTH:20.000;
#SELECTABLE:YES;
#OFFSET:-0.040;
#BPMS:0.000=180.000;
#STOPS:;
#SPEEDS:0.000=1.000=0.000=0;
#SCROLLS:0.000=1.000;
#TICKCOUNTS:0.000=4;
#TIMESIGNATURES:0.000=4=4;
#LABELS:0.000=Song Start;
#COMBOS:0.000=1;
#ORIGIN:;
#TAGS:;
#PREVIEWVID:;
#JACKET:;
#CDIMAGE:;
#DISCIMAGE:;
#BGCHANGES:;
#FGCHANGES:;

//--------------- dance-single - ----------------
#NOTEDATA:;
#STEPSTYPE:dance-single;
#DESCRIPTION:;
#DIFFICULTY:Beginner;
#METER:4;
#RADARVALUES:0.164907,0.182863,0,0,0,159,159,0,0,0,0,0,0,0,0.164907,0.182863,0,0,0,159,159,0,0,0,0,0,0,0;
#CHARTNAME:;
#CHARTHASH:493778115;
#BANNER:;
#CHARTSTYLE:;
#METERF:0.000000;
#LASTSECONDHINT:134.373322;
#CREDIT:ZSL;
#NOTES:
0000
0000
0000
0000
,
0000
0000
0000
0000
,
0001
0000
1000
0000
,
0010
0000
0000
0000
,
1000
0000
0001
0000
,
0010
0000
0000
0000
,
0001
0000
0010
0000
,
0100
0000
0000
0000
,
1000
0000
0001
0000
,
0100
0000
0000
0000
,
0010
0000
1000
0000
,
0100
0000
0000
0000
,
0010
0000
0000
0000
0001
0000
0000
1000
,
0000
0000
0000
0000
,
0001
0000
0100
0000
,
0010
0000
1000
0000
,
0001
0000
0001
0000
,
1000
0000
0000
0000
,
0010
0000
0000
0000
,
0100
0000
0000
0000
,
0001
0000
0000
0000
,
1000
0000
0000
0000
,
0100
0000
0000
0000
,
0010
0000
0000
0000
,
0100
0000
0000
0000
,
0010
0000
0000
0000
,
0001
0000
1000
0000
,
0100
0000
0000
0000
,
1000
0000
0001
0000
,
0100
0000
0000
0000
,
0010
0000
0100
0000
,
0100
0000
0010
0000
,
0010
0000
1000
0000
,
0001
0000
0000
0000
,
1000
0000
0100
0000
,
1000
0000
0100
0000
,
0010
0000
0001
0000
,
1000
0000
0000
0000
,
0001
0000
0100
0000
,
0001
0000
0100
0000
,
0010
0000
1000
0000
,
0001
0000
0000
0000
,
0010
0000
0100
0000
,
0010
0000
0001
0000
,
0100
0000
0010
0000
,
1000
0000
0000
0000
,
0010
0000
0100
0000
,
0010
0000
0000
0000
1000
0000
0000
0100
,
0000
0000
0000
0010
0000
0000
0000
0001
,
0000
0000
0000
0000
,
1000
0000
1000
0000
,
0010
0000
0100
0000
,
0001
0000
0100
0000
,
0010
0000
0000
0000
,
1000
0000
0001
0000
,
0010
0000
0100
0000
,
0010
0000
0001
0000
,
1000
0000
0000
0000
,
0010
0000
1000
0000
,
0001
0000
1000
0000
,
0010
0000
0100
0000
,
0001
0000
0000
0000
,
1000
0000
0001
0000
,
0010
0000
0100
0000
,
1000
0000
0001
0000
,
0100
0000
0000
0000
,
0001
0000
0000
0000
,
1000
0000
0000
0000
,
0001
0000
0000
0000
,
0010
0000
0000
0000
,
0100
0000
0000
0000
,
1000
0000
0000
0000
,
0100
0000
0000
0000
,
0010
0000
0000
0000
,
0001
0000
1000
0000
,
0010
0000
0000
0000
,
0100
0000
0010
0000
,
1000
0000
0000
0000
,
0001
0000
0001
0000
,
0010
0000
0100
0000
,
1000
0000
0001
0000
,
0100
0000
0000
0000
,
0010
0000
0000
0000
,
1000
0000
0100
0000
,
1000
0000
0100
0000
,
0010
0000
0001
0000
,
0010
0000
0001
0000
,
1000
0000
0010
0000
,
0100
0000
0001
0000
,
0100
0000
0010
0000
,
1000
0000
0001
0000
,
0010
0000
0001
0000
,
0100
0000
0001
0000
,
0010
0000
0100
0000
,
1000
0000
0010
0000
,
0100
0000
0000
0000
0001
0000
0000
1000
,
0000
0000
0000
1000
0000
0000
0000
0100
,
0000
0000
0000
0010
0000
0000
0000
0001
,
0000
0000
0000
0000
0000
0000
0000
1000
,
0000
0000
0000
0010
0000
0000
0000
0100
,
0000
0000
0000
0001
;

//--------------- dance-single - ----------------
#NOTEDATA:;
#STEPSTYPE:dance-single;
#DESCRIPTION:;
#DIFFICULTY:Easy;
#METER:7;
#RADARVALUES:0.343297,0.402298,0.02904,0,0,331,327,4,0,0,0,0,0,0,0.343297,0.402298,0.02904,0,0,331,327,4,0,0,0,0,0,0;
#CHARTNAME:;
#CHARTHASH:1197227576;
#BANNER:;
#CHARTSTYLE:;
#METERF:0.000000;
#LASTSECONDHINT:134.373322;
#CREDIT:ZSL;
#NOTES:
0000
0000
0000
0000
,
0000
0000
0000
0000
,
0001
0000
0100
0000
0001
0000
0000
1000
,
0000
0100
0010
0000
,
0100
0000
1000
0000
0100
0000
0000
0010
,
0000
0000
0000
0001
0000
0000
0010
0000
,
0100
0000
1000
0000
0001
0000
0000
0100
,
0000
0010
1000
0000
,
0100
0000
1000
0000
0001
0000
0000
0100
,
0000
0000
0000
0010
0000
0000
1000
0000
,
0001
0000
0010
0000
0100
0000
0000
1000
,
0000
0001
1000
0000
,
0010
0000
0100
0000
0001
0000
0000
1000
,
0000
0001
0000
0010
0000
0000
0000
0000
,
0100
0000
1000
0000
0001
0000
0000
0100
,
0000
0010
1000
0000
,
0100
0100
0010
0010
,
0001
0000
1000
0000
,
0010
0000
0100
0000
,
0010
0000
0000
1000
0000
0000
0000
0001
,
0000
0010
0100
0000
,
1000
0000
0000
0001
0000
0000
0000
0100
,
0000
0010
1000
0000
,
0001
0000
0000
0010
0000
0000
0000
0100
,
0000
0000
0000
1000
0000
0000
0000
0001
,
0000
0000
0000
1000
0000
0000
0000
0000
,
0010
0000
1000
0000
,
0010
0000
0100
0000
,
0001
0000
1000
0000
,
0100
0000
0010
0000
,
0100
1000
0001
0000
,
0100
0010
1000
0000
,
0001
0001
1000
1000
,
0010
0100
0001
0000
,
1000
0000
0100
0010
0000
0100
0000
1000
,
0000
0001
0000
0100
0000
0000
0010
0000
,
0100
0000
0001
1000
0000
0100
0000
0010
,
0000
0001
0000
0100
0000
0000
0001
0000
,
0100
0000
0010
1000
0000
0100
0000
0010
,
0000
0100
0000
1000
0000
0001
0000
0100
,
0000
0010
0000
0100
0000
0001
0000
0010
,
0000
0100
1000
0000
1000
0000
0000
0000
,
0001
0000
0100
0010
0000
0100
0000
0001
,
0000
1000
0000
0100
0000
0000
0010
0000
,
0100
0000
1000
0001
0000
0100
0000
0010
,
0000
1000
0000
0100
0000
0000
1000
0000
,
0100
0000
0010
0001
0000
0100
0000
0010
,
0000
1000
0000
0001
0000
0010
0000
0100
,
0000
0010
0000
0100
0000
1000
0000
0001
,
0000
0100
0010
0000
0010
0000
0000
0000
,
1000
0100
0010
0001
,
1000
0010
1000
0000
,
0001
0100
0001
1000
,
0010
0100
0010
0000
,
1000
0100
0010
0001
,
0100
0001
0010
0100
,
1000
0001
0100
0010
,
1000
0001
0010
0000
,
0100
1000
0100
1000
,
0010
0010
0100
0001
,
1000
0001
1000
0010
,
0100
0000
0000
0001
,
1000
0100
0010
0001
,
0100
0100
0100
0010
,
1000
0001
0010
0100
,
1000
0000
0000
0000
,
0001
0000
1000
0000
,
0010
0000
0000
0100
0000
0000
0000
0001
,
0000
0010
0100
0000
,
1000
0000
0000
0100
0000
0000
0000
0010
,
0000
0001
1000
0000
,
0010
0000
0000
0100
0000
0000
0000
0001
,
0000
0000
0000
0010
0000
0000
0000
0100
,
0000
1000
0001
0000
,
0100
0001
0010
0100
,
1000
1000
0001
0000
,
0100
0000
0010
0000
1000
0000
0001
1000
,
0000
1000
0000
0001
1000
0000
0000
0000
,
0100
0010
0001
0100
,
0010
0010
0010
0000
,
1000
0001
0010
0100
,
1000
0000
0000
0000
,
0001
1000
0001
0000
,
0010
0000
0001
0100
0000
0010
0000
1000
,
0000
0001
0000
0010
0000
0000
0100
0000
,
1000
0000
0010
0100
0000
0001
0000
1000
,
0000
0100
0000
0010
0000
0000
0001
0000
,
0100
0000
0001
0010
0000
0100
0000
1000
,
0000
0010
0000
0100
0000
0001
0000
1000
,
0000
0001
0000
0010
0000
0100
0000
1000
,
0000
0001
0100
0000
0100
0000
0000
0000
,
0010
0000
1000
0100
0000
0010
0000
0001
,
0000
1000
0000
0010
0000
0000
0100
0000
,
0001
0000
0010
0100
0000
1000
0000
0001
,
0000
0100
0000
0010
0000
0000
1000
0000
,
0100
0000
1000
0010
0000
0100
0000
0001
,
0000
0010
0000
0100
0000
1000
0000
0010
,
0000
1000
0000
0100
0000
1000
0000
0010
,
0000
0100
0001
0000
0001
0000
0000
1001
,
0000
0000
0000
1001
0000
0000
0000
1001
,
0000
1000
0100
0000
0010
0000
0110
0000
;

//--------------- dance-single - ----------------
#NOTEDATA:;
#STEPSTYPE:dance-single;
#DESCRIPTION:;
#DIFFICULTY:Medium;
#METER:11;
#RADARVALUES:0.529984,0.548588,0.225062,0,0.00363,511,480,31,0,0,0,0,0,0,0.529984,0.548588,0.225062,0,0.00363,511,480,31,0,0,0,0,0,0;
#CHARTNAME:;
#CHARTHASH:2658576039;
#BANNER:;
#CHARTSTYLE:;
#METERF:0.000000;
#LASTSECONDHINT:134.373322;
#CREDIT:ZSL;
#NOTES:
0000
0000
0000
0000
,
0000
0000
0000
0000
,
0001
0000
0100
0010
0000
1000
0000
1010
,
0000
0010
0100
0000
0001
0000
1000
0000
,
0100
0000
0010
0100
0000
1000
0000
1001
,
0000
0001
0100
0001
0000
1000
0100
0000
,
0010
0000
0100
1000
0000
0001
0000
1001
,
0000
1000
0010
0000
0100
0000
0001
0000
,
0010
0000
0100
1000
0000
0010
0000
0110
,
0000
0100
0001
1000
0000
0100
1000
0000
,
0010
0000
0100
0001
0000
1000
0000
1100
,
0000
0100
0010
0000
0100
0000
1000
0000
,
0001
0000
0100
0001
0000
0010
0000
1001
,
0000
1000
0010
0100
0000
0001
0010
0100
,
1000
0000
0001
0000
0100
0000
0010
1000
,
0100
0010
0100
1000
,
0001
1000
0001
0000
1000
0001
1000
0000
,
0010
0000
0000
0100
0000
0000
0010
0000
1000
0000
0000
0000
0001
0000
0000
0000
,
0010
0100
1000
0100
,
0010
0000
0001
1000
0000
0010
0000
0100
,
0000
0101
0001
1000
,
0100
0000
0010
0100
0000
1000
0000
0001
,
0000
1001
1000
0010
,
0100
0000
0001
1000
0000
0010
0000
0100
,
0000
0001
0000
0010
0000
0100
0000
1000
,
0000
0001
0000
0100
0000
0001
1000
0010
,
0100
0000
0001
0000
0010
0001
0010
0000
,
0100
0000
1000
0001
0000
1000
0000
0010
,
0000
0000
0100
0000
0010
1000
0001
0000
,
0010
0000
0100
1000
0000
0010
1000
0001
,
0100
0010
1000
0100
,
0110
0010
0001
1000
,
0001
1000
0001
1000
0010
1000
0010
1000
,
0001
0000
0010
0000
0100
0000
1000
0001
,
0100
0000
0010
0100
0000
0001
0000
0010
,
0000
0100
1000
0001
0000
0100
0010
1000
,
0001
0000
0010
0100
0000
1000
0000
0001
,
0000
0010
0001
0100
0000
0000
0010
1000
,
0001
0000
0010
0100
0000
1000
0000
1010
,
0000
0100
0001
1000
0000
0001
0000
0100
,
0000
0010
0000
0100
0000
0001
0000
1000
,
0000
0100
0010
0001
1000
0000
0001
1000
,
0100
0000
0010
0100
0000
1000
0000
0010
,
0000
0100
0001
1000
0000
0100
0010
0001
,
1000
0000
0010
0100
0000
0001
0000
1000
,
0000
0010
1000
0100
0000
0000
0010
0001
,
1000
0000
0010
0100
0000
0001
0000
0011
,
0000
0100
1000
0001
0000
1000
0000
1010
,
0000
0010
0000
0110
0000
0100
0000
0101
,
0000
0001
1000
0001
0010
0000
0100
1000
,
0001
0000
0100
0000
0010
0100
0010
0000
,
1000
0000
0001
0010
0100
0000
1000
0000
,
0001
0100
0010
1000
,
0100
0000
0001
0000
0100
0000
0010
0001
,
1000
0000
0010
0000
0100
0001
0100
0001
,
1000
0000
0100
0000
1000
0001
1000
0000
,
0010
0100
0001
0100
,
0010
0000
1000
0000
0100
0000
0010
0100
,
1000
0001
0100
0010
,
1000
0010
1000
0010
0100
0000
0001
1000
,
0100
0010
0001
1000
,
1010
0010
0010
0100
,
0101
1000
1100
0010
,
0001
0000
1000
0001
1000
0000
0000
0000
,
0001
0100
0010
1000
,
0001
0000
1000
0000
0001
0010
0001
1000
,
0100
0010
0100
1000
,
0010
0000
0100
0001
0000
1000
0000
0100
,
0000
0110
0010
0001
,
0100
0000
0010
1000
0000
0001
0000
0010
,
0000
0110
0100
1000
,
0001
0000
0100
0010
0000
1000
0000
0100
,
0000
0010
0000
0001
0000
0010
0000
0100
,
0000
1000
0001
0100
0010
0000
1000
0001
,
0010
0001
0100
0010
,
1000
0001
1000
0001
0010
0000
0100
1000
,
0001
0000
0100
0000
0010
0000
1000
0100
,
0000
0110
0000
0010
0100
0000
1000
0000
,
0011
0001
0101
1000
,
0001
0000
0100
0010
0100
0000
0000
0000
,
0010
1000
0100
0010
,
0001
0000
1000
0000
0010
0100
0010
0100
,
0001
0000
1000
0000
0001
0000
1000
0100
,
0010
0000
0001
0100
0000
0001
0000
0010
,
0000
0100
1000
0001
0000
1000
0100
0010
,
1000
0000
0010
0001
0000
1000
0000
0010
,
0000
0100
0001
0010
0000
0000
0100
1000
,
0001
0000
0100
0010
0000
1000
0000
0101
,
0000
1000
0100
0010
0000
0001
0000
0100
,
0000
0001
0000
0010
0000
0100
0000
1000
,
0000
0010
0100
0001
1000
0000
0001
0100
,
0010
0000
1000
0100
0000
1000
0000
0010
,
0000
0100
0001
1000
0000
0001
0100
0010
,
0001
0000
0010
1000
0000
0001
0000
0010
,
0000
0100
1000
0010
0000
0000
0100
0001
,
1000
0000
0100
0010
0000
0001
0000
1100
,
0000
0001
0100
0010
0000
1000
0000
1100
,
0000
1000
0000
1010
0000
0100
0000
0101
,
0000
0001
0010
0100
1000
0001
0000
0101
,
0000
0001
0000
0011
0000
0010
0000
1100
,
0000
1000
0010
0100
0001
0000
1001
0000
;

//--------------- dance-single - ----------------
#NOTEDATA:;
#STEPSTYPE:dance-single;
#DESCRIPTION:;
#DIFFICULTY:Hard;
#METER:15;
#RADARVALUES:0.794457,0.914313,0.268622,0,0.192391,766,729,37,0,0,0,0,0,0,0.794457,0.914313,0.268622,0,0.192391,766,729,37,0,0,0,0,0,0;
#CHARTNAME:;
#CHARTHASH:3167595702;
#BANNER:;
#CHARTSTYLE:;
#METERF:0.000000;
#LASTSECONDHINT:134.373322;
#CREDIT:ZSL;
#NOTES:
0000
0000
0000
0000
,
0000
0000
0000
0000
,
0001
0100
0010
1000
0001
0010
0100
0001
,
0100
1000
0001
0100
0010
0100
0001
1000
,
0100
0010
0100
1000
0010
0100
0010
0001
,
0000
0000
1000
0000
0100
0000
0001
0000
0000
0000
1000
0100
1000
0000
0001
0000
,
0010
0100
0010
0001
1000
0010
0100
1000
,
0100
0001
1000
0100
0010
0100
1000
0001
,
0100
0010
0100
0001
0010
0100
0010
1000
,
0000
0000
0001
0000
0100
0000
1000
0000
0000
0000
0001
0100
0010
1000
0010
0000
,
0100
0001
0100
0010
1000
0100
0010
1000
,
0010
0001
0100
0010
1000
0001
1000
0100
,
0010
0100
1000
0001
0100
0010
0100
1000
,
0000
0000
0001
0000
0010
0000
1000
0000
0000
0000
0001
0010
0001
0000
1000
0000
,
0010
0100
0001
0010
0100
1000
0001
0100
,
0110
0010
0100
0001
1000
0100
0010
0001
,
0100
0100
0010
0010
1000
1000
0001
0001
,
0100
0000
0001
0010
0000
0000
0100
0000
1000
0000
0001
0000
1001
0000
0000
0000
,
1000
0000
0010
0000
0100
0001
1000
0001
,
0100
0000
0010
0100
0000
0001
0010
0100
,
0000
0000
1100
0000
1000
0010
0100
0001
,
0010
0000
0100
1000
0000
0001
0100
0010
,
0000
0000
1010
0000
1000
0100
0010
0001
,
0100
0000
0001
1000
0000
0001
0010
0100
,
0000
1000
0100
0001
0000
1000
0010
0001
,
0000
0100
0010
1000
0000
0001
0010
0100
,
1100
0000
1000
0000
0001
0010
0100
1000
,
0010
0000
1000
0001
0000
0100
0001
0100
,
1000
0000
0001
0000
0010
1000
0100
0010
,
0001
0000
1000
0010
0000
0100
0001
0010
,
0110
0100
1000
0001
0100
0010
1000
0100
,
1100
1000
0100
0010
0001
1000
0010
0100
,
0010
1000
0001
0100
0010
1000
0001
0000
1000
0100
0010
0001
1000
0100
0010
0000
,
0001
0000
1000
0001
1000
0000
0001
0000
0010
0000
0000
0000
0100
1000
0001
0100
,
0010
1000
0100
0010
0100
1000
0010
0001
,
0010
0100
0001
1000
0100
0010
0100
1000
,
0001
0100
0001
0010
0100
1000
0100
0001
,
0100
0000
0010
0000
0001
0000
1000
0000
0000
0000
0010
0000
0100
0010
1000
0001
,
0100
0001
0010
0100
1000
0010
0100
1000
,
0000
0000
0100
0010
1000
0000
0001
0000
0000
0000
1000
0000
0100
0000
0010
0000
,
0000
0001
0100
0010
0000
1000
0100
0001
,
0000
0000
0100
0000
1000
0001
1000
0000
0010
0000
0000
0000
0100
0001
1000
0100
,
0010
0001
0100
0010
0100
0001
0010
1000
,
0010
0100
1000
0001
0100
0010
0100
0001
,
1000
0100
1000
0010
0100
0001
0100
1000
,
0100
0000
0010
0000
1000
0000
0001
0000
0000
0000
0010
0000
0100
0010
0001
1000
,
0100
1000
0010
0100
0001
0010
0100
0001
,
0000
0000
0100
0010
0001
0000
1000
0000
0000
0000
0001
0000
0100
0000
0110
0000
,
0000
1000
0100
0110
0000
0001
0100
1010
,
0000
0000
1000
0000
0001
0010
0100
0000
1000
0000
0000
0000
0001
0100
0010
0100
,
0001
1000
0010
0000
1000
0100
0010
0000
,
0001
0100
0010
1000
1001
0000
0001
1000
,
0100
0000
1000
0100
0010
0100
1000
0000
,
0001
0000
0100
0000
1000
0000
0100
0000
0001
0000
0000
0000
0010
0100
1000
0001
,
0100
0010
1000
0000
0100
0010
0001
0100
,
0110
0000
0001
0010
0100
1100
1000
0001
,
0100
0010
0110
0000
1000
0001
0010
0100
,
1000
0000
0001
0000
0100
0000
0010
0000
1010
0000
0000
0000
1000
0010
0100
0001
,
1000
0001
0010
0100
0010
0001
1000
0010
,
1000
0110
0001
1000
0100
0000
0010
0001
,
0101
0010
1100
0010
,
1001
0000
1000
0000
0011
0000
0001
0010
,
0100
0000
1000
0001
0100
0000
0010
0100
,
0001
1000
0001
0010
0100
0000
0010
0001
,
1000
0100
0001
0100
0010
0001
1000
0010
,
0001
0000
0010
0000
1000
0000
0001
0000
1000
0001
1000
0001
1000
0001
1000
0001
,
0010
0000
0100
0000
1000
0010
0100
0010
,
1000
0000
0001
0100
0000
0010
1000
0100
,
0000
0000
0010
0000
0001
0010
0100
0010
,
0001
0000
1000
0010
0000
0100
0001
0010
,
0000
0000
0100
0000
1000
0001
0100
0010
,
1000
0000
0010
0100
0000
0001
0010
1000
,
0000
0001
0100
1000
0000
0010
1000
0001
,
0000
0000
1000
0100
0010
0000
0001
0000
0100
0000
0010
0000
1000
0001
0100
0010
,
1000
0001
0010
0001
0100
0010
1000
0001
,
0010
0110
1000
0001
0100
0000
0001
0100
,
0101
0000
1000
0000
1100
0000
0010
1001
,
0000
0110
0000
0001
1100
0000
0001
1000
,
0010
0000
1000
0010
0100
0000
0010
0100
,
0001
0010
0100
1000
0010
0000
0100
0001
,
1000
0100
0010
0001
0100
0010
1000
0001
,
0010
0000
0100
0000
0010
0000
0001
0000
1000
0001
1000
0001
1000
0001
1000
0001
,
0100
0000
0001
1000
0010
0000
1000
0000
0001
0000
0000
0000
0010
0001
0100
0010
,
1000
0001
0100
0010
1000
0100
0010
1000
,
0001
0100
0010
1000
0010
0001
1000
0010
,
0001
0010
1000
0001
0100
0010
0100
1000
,
0001
0000
0010
0000
1000
0000
0001
0000
0000
0000
0010
0000
0100
1000
0010
0100
,
0001
1000
0100
0010
0100
1000
0100
0001
,
0000
0000
0100
1000
0001
0000
0100
0000
0000
0000
0001
0000
0100
0000
0110
0000
,
0000
0010
1000
1010
0000
0001
0010
0011
,
0000
0000
1000
0000
0100
1000
0010
0000
0100
0000
0000
0000
0010
1000
0100
0010
,
0001
1000
0100
0010
0001
0100
0010
0001
,
1000
0100
0010
0001
0010
1000
0001
0010
,
1000
0010
0001
1000
0100
0010
0100
0001
,
1000
0000
0010
0000
0001
0000
1000
0000
0000
0000
0010
0000
0100
0001
0010
0100
,
1000
0001
0100
0010
0100
0001
0100
1000
,
0000
0100
0001
0101
0000
1000
0100
0110
,
0000
0010
0001
0101
0000
1000
0001
0011
,
0000
0000
1000
0000
0010
1000
0100
0000
0010
0000
0001
0000
1000
0000
0110
0000
,
0000
0001
1000
0110
0000
0001
0010
1100
,
0000
0001
0100
0010
1000
0000
0101
0000
;
