#VERSION:0.83;
#TITLE:Disorder;
#SUBTITLE:;
#ARTIST:HyuN feat. YURI;
#TITLETRANSLIT:;
#SUBTITLETRANSLIT:;
#ARTISTTRANSLIT:;
#GENRE:;
#CREDIT:;
#MUSIC:Disorder.ogg;
#BANNER:;
#BACKGROUND:;
#CDTITLE:;
#SAMPLESTART:26.955;
#SAMPLELENGTH:20.000;
#SELECTABLE:YES;
#OFFSET:-0.855;
#BPMS:0.000=193.000;
#STOPS:;
#SPEEDS:0.000=1.000=0.000=0;
#SCROLLS:0.000=1.000;
#TICKCOUNTS:0.000=4;
#TIMESIGNATURES:0.000=4=4;
#LABELS:0.000=Song Start;
#COMBOS:0.000=1;
#ORIGIN:;
#TAGS:;
#PREVIEWVID:;
#JACKET:;
#CDIMAGE:;
#DISCIMAGE:;
#BGCHANGES:;
#FGCHANGES:;

//--------------- dance-single - ----------------
#NOTEDATA:;
#STEPSTYPE:dance-single;
#DESCRIPTION:;
#DIFFICULTY:Beginner;
#METER:6;
#RADARVALUES:0.250534,0.344643,0.118396,0.0074,0,237,221,16,1,0,0,0,0,0,0.250534,0.344643,0.118396,0.0074,0,237,221,16,1,0,0,0,0,0;
#CHARTNAME:;
#CHARTHASH:2147483647;
#BANNER:;
#CHARTSTYLE:;
#METERF:0.000000;
#LASTSECONDHINT:129.559662;
#CREDIT:ZSL;
#NOTES:
0000
0000
0000
0000
,
0000
0000
0000
0000
,
0000
0000
0000
0000
,
0000
0000
0000
0000
,
1000
0000
0000
0000
,
0001
0000
0000
0000
,
0100
0000
0000
0000
,
0000
0000
0000
0000
,
0000
0000
0000
0000
,
0010
1000
0000
0001
,
0010
0000
0000
0100
,
1000
0000
0000
0001
,
0100
0000
0010
1000
,
0001
0010
0000
0001
,
0100
0000
0000
0010
,
1000
0000
0000
0001
,
0010
0000
0100
1000
,
0001
0000
0000
0110
,
0000
0000
1000
0001
,
0010
0000
0000
0110
,
0000
0000
1000
0010
,
0100
0000
0010
0000
,
1000
0001
1000
0001
,
0010
0000
0100
0000
,
1000
0010
0100
0001
,
0100
0000
0010
0000
,
1000
0100
1000
0100
,
0010
0000
0001
0000
,
0100
0010
1000
0001
,
1000
0000
0100
0000
,
0010
0100
0010
0100
,
1000
0000
0001
0000
,
1000
0010
1000
0001
,
0010
0000
0100
0000
,
0010
0001
0010
0001
,
0100
0000
0010
0000
,
1000
0001
0010
0001
,
0100
0000
0000
0110
,
0000
0000
1000
0001
,
1000
0000
0000
0110
,
0000
0000
0001
1000
,
0001
0000
0000
0011
,
0000
0000
0100
1000
,
0100
0000
0000
1001
,
0000
0000
1000
0010
,
1000
0000
0000
0110
,
0000
0000
0100
0001
,
1000
0000
0000
1100
,
0000
0000
0010
0001
,
0100
0000
0000
0110
,
0000
0000
0010
1000
,
0100
0000
0000
1100
,
0010
0001
0000
0000
,
1000
0000
0000
0000
,
0010
0000
0000
0000
,
0100
0000
0000
0000
,
0001
0000
0000
0000
,
1000
0000
0000
0000
,
0100
0000
0000
0000
,
0010
0000
0000
0000
,
0001
0000
0000
0000
,
1001
0000
0000
0000
,
1000
0000
0000
0000
,
0010
0000
0000
0000
,
0100
0000
0000
0000
,
0010
0000
0000
0000
,
1000
0000
0000
0000
,
0100
0000
0000
0000
,
0010
0000
0000
0000
,
0001
0000
0000
0000
,
1000
0000
0000
0000
,
0100
0000
0000
0000
,
0000
0000
0000
0000
,
0000
0000
0000
0000
,
0010
0001
0000
1000
,
0010
0000
0000
0100
,
0001
0000
0000
1000
,
0100
0000
0010
0001
,
1000
0010
0000
1000
,
0100
0000
0000
0010
,
0001
0000
0000
1000
,
0010
0000
0100
0001
,
2000
0000
3001
0001
,
0001
0000
1000
0000
,
1010
0000
0100
0000
,
0001
1000
0100
0010
,
0001
0000
1000
0000
,
0010
0100
0001
0100
,
0010
0000
1000
0000
,
0001
0100
0010
1000
,
0100
0000
1000
0000
,
0010
0100
0001
0000
,
1000
0100
0010
0000
,
0100
1000
0010
0100
,
0001
0000
1000
0000
,
0100
0010
0001
0000
,
1000
0010
0100
0000
,
0010
1000
0100
0010
,
0110
0000
0000
0011
,
0000
0000
1000
0001
,
0101
0000
0000
1010
,
0000
0000
1000
0001
,
0000
0010
0100
0000
,
0000
1000
0100
0000
;

//--------------- dance-single - ----------------
#NOTEDATA:;
#STEPSTYPE:dance-single;
#DESCRIPTION:;
#DIFFICULTY:Easy;
#METER:11;
#RADARVALUES:0.43447,0.536758,0.199793,0.0074,0.014799,411,384,27,1,0,0,0,0,0,0.43447,0.536758,0.199793,0.0074,0.014799,411,384,27,1,0,0,0,0,0;
#CHARTNAME:;
#CHARTHASH:807604626;
#BANNER:;
#CHARTSTYLE:;
#METERF:0.000000;
#LASTSECONDHINT:129.715103;
#CREDIT:ZSL;
#NOTES:
0000
0000
0000
0000
,
0000
0000
0000
0000
,
0000
0000
0000
0000
,
0000
0000
0000
0000
,
1000
0010
1000
0000
,
0001
0010
0001
0000
,
0100
0010
1000
0000
,
0000
0000
0000
0000
,
0000
0000
0000
0000
,
0001
0000
1000
0010
0000
0000
1000
0000
,
0100
0000
0010
0100
0000
0000
1000
0000
,
0010
0000
0100
0001
0000
0000
1000
0000
,
0100
0000
0010
0100
0010
0000
0001
1000
,
0010
0000
1000
0100
0000
0000
1000
0000
,
0010
0000
0100
0010
0000
0000
1000
0000
,
0100
0000
0010
0001
0000
0000
1000
0000
,
0010
0000
0100
0010
0100
0000
0010
1000
,
0001
0000
0000
0011
0000
0000
0010
0000
,
0000
0110
0000
0000
0100
0000
1000
0000
,
0001
0000
0000
0101
0000
0000
0100
0000
,
0000
0110
0000
0000
0010
0000
1000
0000
,
0001
0010
0100
1000
,
0010
0000
0100
0010
0100
0010
1000
0000
,
0001
0000
0000
1000
0000
0000
0100
0000
1000
0000
0000
0000
0000
0000
0000
0000
,
0100
0000
1000
0001
0100
0010
0100
0001
,
1000
0010
0100
0001
,
0010
0000
0100
0010
0100
0010
0001
0000
,
1000
0000
0000
0001
0000
0000
0100
0000
0001
0000
0000
0000
0000
0000
0000
0000
,
0100
0000
0001
1000
0100
0010
0100
1000
,
0001
0100
0010
1000
,
0100
0000
0010
0001
1000
0001
0010
0000
,
0100
0000
0000
1000
0000
0000
0010
0000
1000
0000
0000
0000
0000
0000
0000
0000
,
0010
0000
0100
0010
1000
0100
0010
0001
,
1000
0100
0010
0001
,
0100
0000
0010
1000
0001
1000
0010
0000
,
0100
0000
0000
0001
0000
0000
0010
0000
0001
0000
0000
0000
0000
0000
0000
0000
,
0010
0000
0100
0010
0001
0100
0010
1000
,
0001
0000
0000
1001
0000
0000
1000
0000
,
0000
1010
0000
0000
0010
0000
0100
0000
,
0010
0000
0000
1010
0000
0000
1000
0000
,
0000
1001
0000
0000
0001
0000
0010
0000
,
0100
0000
0000
0110
0000
0000
0010
0000
,
0000
0011
0000
0000
0001
0000
1000
0000
,
0010
0000
0000
0110
0000
0000
0100
0000
,
0000
0101
0000
0000
0001
0000
1000
0000
,
0100
0000
0000
0011
0000
0000
0100
0000
,
0000
1100
0000
0000
0010
0000
0001
0000
,
1000
0000
0000
1010
0000
0000
0100
0000
,
0000
0101
0000
0000
0010
0000
1000
0000
,
0100
0010
0000
0010
0100
0000
0100
1000
,
0000
1000
0001
0000
0100
0000
0100
0000
,
0010
1000
0000
1000
0100
0000
0100
0010
,
0000
0100
0000
1000
0000
0000
0000
0000
,
0100
0000
0010
0000
,
0001
1000
0010
0000
,
0100
0000
0010
0000
,
1000
0100
0010
0000
,
0100
0000
1000
0000
,
0010
0100
0001
1000
,
0100
0000
0010
0000
,
0100
1000
0001
0000
,
0101
0000
0100
0010
,
1000
0100
0000
0010
,
0100
0000
1000
0000
,
0001
0000
0000
0000
,
0100
0000
0010
0000
,
1000
0001
0010
0100
,
1000
0000
0010
0000
,
0100
0001
0100
0000
,
0010
0000
1000
0000
,
0100
0000
0010
0000
,
0100
1000
0001
0000
,
0000
0000
0000
0000
,
0000
0000
0000
0000
,
1000
0000
0001
0010
0000
0000
0001
0000
,
0100
0000
0010
0100
0000
0000
0001
0000
,
0010
0000
0100
1000
0000
0000
0001
0000
,
0100
0000
0010
0100
0010
0000
1000
0001
,
0010
0000
0001
0100
0000
0000
0001
0000
,
0010
0000
0100
0010
0000
0000
0001
0000
,
0100
0000
0010
1000
0000
0000
0001
0000
,
0010
0000
0100
0010
0100
0000
0010
0001
,
2000
0000
0000
0000
3010
0100
0010
0100
,
0010
0000
1000
0000
,
0001
0000
0010
0100
0000
1000
0010
0000
,
0100
0000
0010
1000
0010
0100
0001
1000
,
0100
0000
0010
0100
0000
1000
0000
1100
,
0000
0100
1000
0010
0100
0000
0001
0000
,
0100
0010
1000
0100
0000
0010
0100
0000
,
1000
0000
0100
0010
0001
1000
0001
0100
,
0010
0000
1000
0001
0000
0001
0100
0000
,
0010
0000
1000
0100
0000
0100
0010
0000
,
0001
0000
0100
0010
0000
0010
1000
0000
,
0001
0000
1000
0001
0010
0100
0001
0100
,
0010
0000
0001
1000
0000
1000
0100
0000
,
0010
0000
0001
0100
0000
0100
0010
0000
,
1000
0000
0100
0010
0000
0010
0001
0000
,
1000
0000
0001
1000
0010
0100
1000
0100
,
0010
0000
0000
1010
0000
0000
0110
0000
,
0000
1010
0000
0000
1001
0000
0001
0000
,
1001
0000
0000
0011
0000
0000
0110
0000
,
0000
0011
0000
0000
1001
0000
1000
0010
,
0000
0000
0100
0000
0001
1000
0000
0000
,
0000
0000
0100
0000
0010
0001
0000
0000
;

//--------------- dance-single - ----------------
#NOTEDATA:;
#STEPSTYPE:dance-single;
#DESCRIPTION:;
#DIFFICULTY:Medium;
#METER:13;
#RADARVALUES:0.58775,0.651778,0.207193,0.0074,0.018499,556,528,28,1,0,0,0,0,0,0.58775,0.651778,0.207193,0.0074,0.018499,556,528,28,1,0,0,0,0,0;
#CHARTNAME:;
#CHARTHASH:2147483647;
#BANNER:;
#CHARTSTYLE:;
#METERF:0.000000;
#LASTSECONDHINT:129.715103;
#CREDIT:ZSL;
#NOTES:
0000
0000
0000
0000
,
0000
0000
0000
0000
,
0000
0000
0000
0000
,
0000
0000
0000
0000
,
1000
0000
0100
0010
0001
0000
0000
0000
,
0010
0000
0001
1000
0010
0000
0000
0000
,
0100
0000
0010
1000
0100
0000
0000
0000
,
0000
0000
0000
0000
,
0000
0000
0000
0000
,
0010
0000
0001
1000
0000
0001
0100
0010
,
1000
0000
0010
0100
0000
0010
1000
0001
,
0010
0000
0100
1000
0000
0100
0010
0001
,
1000
0000
0001
0100
0001
1000
0100
1000
,
0010
0000
1000
0001
0000
1000
0100
0010
,
0001
0000
0010
0100
0000
0010
0001
1000
,
0010
0000
0100
0001
0000
0100
0010
1000
,
0001
0000
1000
0100
1000
0001
0100
0001
,
0010
0000
0100
0110
0000
0000
0011
0000
,
0001
1001
0000
0000
1000
0010
1000
0010
,
0100
0000
0010
0110
0000
0000
1010
0000
,
1000
1001
0000
0000
0001
0010
0100
1000
,
0010
0000
0100
0000
0010
1000
0010
1000
,
0100
0000
0010
0001
0010
0001
1000
0000
,
0100
0000
0000
1000
0000
0000
0001
0000
0010
0000
0100
0000
1000
0000
0000
0000
,
0001
0000
0100
0010
1000
0010
0100
0001
,
0010
0000
0100
0000
0010
0001
0010
0001
,
0100
0000
0010
1000
0010
1000
0001
0000
,
0100
0000
0000
0001
0000
0000
1000
0000
0010
0000
0100
0000
0001
0000
0000
0000
,
1000
0000
0100
0010
0001
0010
0100
1000
,
0001
0000
1000
0000
0010
0100
0010
1000
,
0100
0000
0010
0001
0010
0100
1000
0000
,
0010
0000
0000
1000
0000
0000
0001
0000
1000
0000
0010
0000
0100
0000
0000
0000
,
0010
0000
1000
0100
0010
0001
0100
0010
,
1000
0000
0001
0000
0010
0100
0010
0001
,
0100
0000
0010
1000
0010
0100
0001
0000
,
0010
0000
0000
0001
0000
0000
1000
0000
0001
0000
0010
0000
0100
0000
0000
0000
,
0010
0000
0001
0100
0010
1000
0100
0010
,
0001
0000
1000
1010
0000
0000
0110
0000
,
0100
0101
0000
0000
1000
0100
0010
0001
,
1000
0000
0001
0011
0000
0000
0110
0000
,
0100
1100
0000
0000
0001
0100
0010
1000
,
0100
0000
0010
1100
0000
0000
1001
0000
,
1000
0110
0000
0000
1000
0100
0010
0001
,
0100
0000
0010
0101
0000
0000
1001
0000
,
0001
0110
0000
0000
0001
0100
0010
1000
,
0100
0100
1000
0001
0001
0100
0001
0001
,
1000
0100
0100
1000
0001
0000
0101
0000
,
0100
0100
0001
1000
1000
0100
1000
1000
,
0001
0100
0100
0001
1000
0000
1100
0000
,
0010
0010
0001
0100
0100
0010
1000
1000
,
0100
0010
0010
0001
1000
0000
1010
0000
,
0010
0010
1000
0100
0100
0010
0001
0001
,
0100
0010
1000
0001
0000
0000
0000
0000
,
1001
1000
0100
0010
,
0001
1000
0010
0000
,
0100
0001
0100
0010
,
1000
0001
0010
0000
,
0100
1000
0001
0100
,
0010
1000
0001
1000
,
0100
0000
0010
0000
,
0100
1000
0010
0000
,
0110
0000
0100
0010
,
1000
0001
0000
0010
,
0100
0000
0010
0001
,
1000
0000
0000
0000
,
0010
0100
0001
0100
,
0010
1000
0100
0010
,
0001
0000
1000
0000
,
0001
0100
0010
0000
,
1000
0100
1000
0000
,
0001
0010
0001
0000
,
0100
0010
0100
0000
,
0000
0000
0000
0000
,
0000
0000
0001
1000
,
0010
0000
1000
0001
0000
0010
0100
1000
,
0000
0001
0100
0001
1000
0000
0100
0000
,
0010
0001
1000
0010
0000
1000
0001
0010
,
0000
0100
0010
0001
1000
0010
0100
0001
,
0010
0000
0001
1000
0000
0010
0100
0001
,
0000
1000
0100
1000
0001
0000
0100
0000
,
0010
1000
0001
0010
0000
0001
1000
0010
,
0000
0100
0010
1000
0001
0010
0100
1000
,
0002
0000
0000
0000
1003
1000
0001
0001
,
1000
0000
0000
0010
0000
0000
0100
0000
0001
0000
0000
0000
1000
0000
0000
0000
,
0100
0010
0001
0100
0000
0010
1000
0001
,
0000
0010
0100
1000
0001
0100
0010
1000
,
0100
0000
0010
0001
0000
1001
0000
1010
,
0000
0010
1000
0100
0010
0001
1000
0000
,
0010
0100
0001
1000
0000
0100
1000
0001
,
0000
0100
0001
1000
0100
0010
0100
1000
,
0010
0000
0010
0100
0000
0001
0100
0010
,
1000
0001
0010
0100
0000
0010
0100
0010
,
0001
1000
0010
0100
0000
0001
0100
0010
,
1000
0001
0010
0100
0010
0001
0100
0010
,
1000
0000
1000
0100
0000
1000
0100
0010
,
0001
1000
0010
0100
0000
0010
0100
0010
,
1000
0001
0010
0100
0000
1000
0100
0010
,
0001
1000
0010
0100
0010
1000
0100
0010
,
0001
0000
1000
1001
0000
0001
0101
0000
,
0100
0110
0000
0010
1000
0001
0010
0100
,
1000
1000
0010
0100
0100
0001
0010
0010
,
0100
1000
1000
0001
0100
0100
0010
0010
,
0000
0000
1000
0001
1000
0100
0000
0000
,
0000
0000
0010
0100
0010
0001
0000
0000
;

//--------------- dance-single - ----------------
#NOTEDATA:;
#STEPSTYPE:dance-single;
#DESCRIPTION:;
#DIFFICULTY:Hard;
#METER:16;
#RADARVALUES:0.720945,0.805137,0.022199,0.369987,0.236791,682,679,3,50,0,0,0,0,0,0.720945,0.805137,0.022199,0.369987,0.236791,682,679,3,50,0,0,0,0,0;
#CHARTNAME:;
#CHARTHASH:2147483647;
#BANNER:;
#CHARTSTYLE:;
#METERF:0.000000;
#LASTSECONDHINT:129.715103;
#CREDIT:ZSL;
#NOTES:
0000
0000
0000
0000
,
0000
0000
0000
0000
,
0000
0000
0000
0000
,
0000
0000
0000
0000
,
1000
0010
1000
0001
1000
0000
0000
0000
,
0001
0010
0001
1000
0001
0000
0000
0000
,
0100
0010
1000
0100
1000
0000
0000
0000
,
0000
0000
0000
0000
,
0000
0000
0000
0000
,
0001
0010
0100
0010
0000
0001
0100
0010
,
1000
0001
1000
0100
0000
0010
0001
1000
,
0001
0100
0010
1000
0000
0001
1000
0100
,
0010
0000
0100
0000
1000
0000
0010
0000
0100
0000
0001
0000
0100
0010
0100
0010
,
1000
0010
0100
0010
0000
1000
0100
0010
,
0001
1000
0001
0100
0000
0010
1000
0001
,
1000
0100
0010
0001
0000
1000
0001
0100
,
0010
0000
0100
0000
0001
0000
0010
0000
0100
0000
1000
0000
0100
0010
0100
0010
,
0002
1003
0010
2000
3001
0010
0002
1003
,
0100
2000
3001
0100
0020
1030
0200
0000
,
0320
0130
1000
0200
0310
0001
0200
0310
,
1000
0000
0020
0000
0130
0000
0001
0000
1000
0000
0001
0000
1000
0001
1000
0001
,
1000
0100
0010
0001
0100
0001
0010
0100
,
1000
0001
0100
0010
0100
0001
1000
0000
,
0100
0000
0000
0010
0000
0000
0001
0000
0100
0000
0001
0000
1000
0000
0000
0000
,
0010
0000
0100
0000
0001
0100
0001
0100
0001
0000
1000
0000
0100
1000
0100
1000
,
0001
0100
0010
1000
0100
1000
0010
0100
,
0001
1000
0100
0010
0100
1000
0001
0000
,
0100
0000
0000
0010
0000
0000
1000
0000
0100
0000
1000
0000
0001
0000
0000
0000
,
0010
0000
0100
0000
1000
0100
1000
0100
1000
0000
0001
0000
0100
0001
0100
0001
,
1000
0100
0010
0100
1000
0001
0100
0010
,
0100
0001
0010
0100
1000
0010
0100
0000
,
0001
0000
0000
1000
0000
0000
0100
0000
0010
0000
0001
0000
0100
0000
0000
0000
,
0010
0000
1000
0000
0001
0100
0001
1000
0100
0000
1000
0000
0100
0010
0100
1000
,
0001
0100
0010
0100
0001
1000
0100
0010
,
0100
1000
0010
0100
0001
0010
0100
0000
,
1000
0000
0000
0001
0000
0000
0100
0000
0010
0000
1000
0000
0100
0000
0000
0000
,
0010
0000
0001
0000
1000
0100
1000
0001
0100
0000
0001
0000
0100
0010
0100
0001
,
2000
3100
0010
0002
0013
0100
2000
3010
,
0100
0002
0103
0010
2000
3001
2000
0000
,
3002
0103
0010
2000
3010
0100
0002
0013
,
0100
2000
3100
0010
0002
1003
0002
0000
,
0023
0130
1000
0020
0130
0001
2000
3001
,
0100
0020
1030
0100
0020
0031
0200
0000
,
0320
0130
0001
0020
0130
1000
0002
1003
,
0100
0020
0031
0100
0020
1030
0200
0000
,
1300
1000
0001
0100
0100
0010
1000
1000
,
0001
0010
0010
0100
1000
0001
1000
0000
,
0001
0001
1000
0100
0100
0010
0001
0001
,
1000
0010
0010
0100
0001
1000
0001
0000
,
1000
0100
1000
0000
0001
0000
1000
0100
1000
0000
0010
0000
0100
0001
0100
0000
,
0010
0000
0100
0001
0100
0000
0010
0000
1000
0000
0001
0000
0010
0000
0000
0000
,
0001
0100
0001
0000
1000
0000
0001
0010
0001
0000
0010
0000
0100
1000
0001
0000
,
0010
0000
0001
0100
0010
0000
0100
0000
0000
0000
0000
0000
0000
0000
0000
0000
,
0101
0001
0100
0010
,
1000
0001
1000
0000
,
0100
0010
0001
1000
,
0001
0100
0010
0000
,
1000
0010
1000
0100
,
0010
0001
1000
0010
,
0200
0000
0000
0000
0000
0000
0301
0000
1000
0000
0000
0100
0000
0000
0010
0000
,
0001
1000
0001
0000
,
0101
0000
0000
0000
0100
0000
0010
1000
,
0001
0010
0000
0100
,
2000
0000
0000
3001
1000
0000
0001
0000
,
0220
0000
0330
0000
,
1000
0001
0010
0100
,
1000
0001
0100
0001
,
2000
0000
0000
0000
0000
0000
0000
0000
0000
3100
0000
0000
0010
0000
0000
0000
0001
0000
0000
0000
1000
0000
0000
0000
,
0001
1000
0020
0000
,
0130
0001
0100
0010
0100
0000
0000
0000
,
0001
1000
0001
0010
0001
0000
0000
0000
,
0010
0100
1000
0010
0100
0000
0000
0000
,
0000
0000
0000
0000
,
0000
0000
0001
0100
,
0010
1000
0001
1000
0000
0001
0100
0001
,
0010
0100
1000
0001
0100
0010
0100
0000
,
0001
1000
0100
0010
0000
0100
1000
0010
,
0100
0000
0001
0000
0100
0000
0010
0000
1000
0000
0001
0000
0010
0100
0010
0100
,
0010
0001
1000
0001
0000
1000
0100
1000
,
0010
0100
0001
1000
0100
0010
0100
0000
,
1000
0001
0100
0010
0000
0100
0001
0010
,
0100
1000
0100
0010
0001
1000
0010
0100
,
0020
0000
0000
0000
0000
0000
0000
0000
1030
0001
1000
0001
1000
0001
1000
0001
,
1000
0000
0000
0001
0000
0000
0100
0000
0010
0000
1000
0000
0001
0000
0000
0000
,
0010
0100
0010
0001
0000
1000
0010
0100
,
0010
0000
1000
0000
0100
1000
0100
0010
0001
0000
0100
0000
0001
0100
0001
1000
,
0010
1000
0100
1000
0000
0001
0010
0001
,
0100
0010
1000
0001
0010
0100
1000
0000
,
0010
0100
0001
0010
0000
0100
1000
0100
,
0010
0000
0001
0000
0100
0001
0100
0010
1000
0000
0100
0000
1000
0100
1000
0001
,
0010
0001
1000
0010
0000
0100
0001
0100
,
0010
1000
0100
0010
0000
0100
1000
0001
,
0010
0001
0100
0010
0000
1000
0001
1000
,
0100
0000
0010
0000
0001
0100
0010
1000
0001
0000
0010
0000
0100
1000
0001
0100
,
0010
1000
0001
0010
0000
0100
1000
0100
,
0010
0001
0100
0010
0000
0100
0001
1000
,
0010
1000
0100
0010
0000
0001
1000
0001
,
0100
0000
0010
0000
1000
0100
0010
0001
1000
0000
0010
0000
0100
0001
1000
0100
,
0020
0031
1000
0200
1300
0010
0200
0301
,
0010
0002
1003
0100
0020
0130
2000
3010
,
0200
0301
0010
0002
0103
0010
2000
3100
,
0010
0000
0002
0000
0103
0000
0010
0000
1000
0010
1000
0010
1000
0001
1000
0001
,
0000
0000
0010
0100
1000
0001
0000
0000
,
0000
0000
0100
0010
1000
0001
0000
0000
;

//--------------- dance-single - ----------------
#NOTEDATA:;
#STEPSTYPE:dance-single;
#DESCRIPTION:;
#DIFFICULTY:Challenge;
#METER:18;
#RADARVALUES:0.884797,1.035177,0.384786,0.051798,0.614178,837,785,52,7,0,0,0,0,0,0.884797,1.035177,0.384786,0.051798,0.614178,837,785,52,7,0,0,0,0,0;
#CHARTNAME:;
#CHARTHASH:2147483647;
#BANNER:;
#CHARTSTYLE:;
#METERF:18.000000;
#LASTSECONDHINT:129.715103;
#CREDIT:ZSL;
#NOTES:
0000
0000
0000
0000
,
0000
0000
0000
0000
,
0000
0000
0000
0000
,
0000
0000
0000
0000
,
1000
0100
0010
0100
1000
0000
0000
0000
,
0001
0100
0010
0100
0001
0000
0000
0000
,
1000
0100
0010
0001
0100
0000
0000
0000
,
0000
0000
0000
0000
,
0000
0000
0000
0000
,
0010
1000
0001
0100
0000
0010
0100
0001
,
0010
0010
0100
1000
0000
0001
0010
0001
,
1000
0000
0010
0100
0001
0000
1000
0000
0000
0000
0100
0000
0010
0000
0001
0000
,
1000
0000
0010
1000
0100
1000
0001
1000
0100
0000
1000
0010
0100
0010
1000
0100
,
0010
0001
1000
0100
0000
0010
0100
1000
,
0010
0010
0100
0001
0000
1000
0010
1000
,
0001
0000
0010
0100
1000
0000
0001
0000
0000
0000
0100
0000
0010
0000
1000
0000
,
0001
0000
0010
0001
0100
0001
1000
0001
0100
0000
0001
0010
0100
0010
0001
0100
,
0010
1000
0100
1100
1000
0010
0110
0100
,
0001
1001
1000
0100
0110
0010
0110
0000
,
1100
0100
0010
0011
0001
0100
1010
1000
,
0001
0000
0100
0001
0100
0001
1000
0000
0100
1000
0100
1000
0001
0100
0001
0100
,
0010
0000
1000
0000
0001
0000
0010
0000
0100
0000
1000
0100
1000
0100
1000
0000
,
0001
0000
0100
0001
0100
0000
0010
0100
0010
0000
0100
0001
0100
0000
0000
0000
,
0001
0000
1000
0001
0000
1000
0001
0000
0010
0000
0100
0000
1000
0000
0000
0000
,
0001
0000
1000
0010
0100
0001
0100
0010
1000
0100
0010
0001
1000
0100
0010
0001
,
1000
0000
0001
0000
1000
0000
0010
0000
0100
0000
0001
0100
0001
0100
0001
0000
,
1000
0000
0100
1000
0100
0000
0010
0100
0010
0000
0100
1000
0100
0000
0000
0000
,
1000
0000
0001
1000
0000
0001
1000
0000
0010
0000
0100
0000
0001
0000
0000
0000
,
1000
0000
0001
0010
0100
1000
0100
0010
0001
0100
0010
1000
0001
0100
0010
1000
,
0001
0000
0010
0000
0100
0000
1000
0000
0001
0000
0010
0100
1000
0001
0100
0000
,
0001
0000
0010
0100
1000
0000
0010
0100
0001
0000
0010
0100
1000
0000
0000
0000
,
0001
0000
0100
0010
0000
0100
0001
0000
1000
0000
0100
0000
0010
0000
0000
0000
,
0001
0000
0100
0010
0100
0001
1000
0100
1000
0010
0100
0001
0010
0100
1000
0001
,
1000
0000
0010
0000
0100
0000
0001
0000
1000
0000
0010
0100
0001
1000
0100
0000
,
1000
0000
0010
0100
0001
0000
0010
0100
1000
0000
0010
0100
0001
0000
0000
0000
,
1000
0000
0100
0010
0000
0100
1000
0000
0001
0000
0100
0000
0010
0000
0000
0000
,
1000
0000
0100
0010
0100
1000
0001
0100
0001
0010
0100
1000
0010
0100
0001
1000
,
0001
1000
0001
0101
0100
0010
1010
1000
,
0001
0011
0010
0100
1100
1000
1001
0000
,
0101
0001
1000
1100
0100
0010
0011
0001
,
1000
1010
0010
0100
0101
0001
1001
0000
,
1001
1000
0100
0011
0001
0100
1010
1000
,
0100
0011
0001
0100
1010
0100
1001
0000
,
1001
0001
0010
1100
1000
0010
0101
0001
,
0010
1100
1000
0010
0101
0010
1001
0000
,
1000
0100
1000
0000
0001
0000
1000
0010
1000
0000
0001
0000
0010
0100
0010
0000
,
1000
0000
0010
0001
0010
0000
0001
0000
0101
0000
0100
0000
0110
0000
0000
0000
,
0001
0100
0001
0000
1000
0000
0001
0010
0001
0000
1000
0000
0010
0100
0010
0000
,
0001
0000
0010
1000
0010
0000
1000
0000
1100
0000
0100
0000
0110
0000
0000
0000
,
0010
0001
0010
0001
1000
0000
0010
1000
0010
1000
0001
0000
0010
0100
1000
0100
,
0010
0000
0001
0100
0010
0100
0001
0000
0101
0000
0100
0000
1001
0000
0000
0000
,
0001
1000
0100
0010
0001
0000
0100
0010
1000
0001
0100
0000
0010
1000
0001
0010
,
0100
0000
1000
0100
0010
0001
0100
0010
0000
0000
0000
0000
0000
0000
0000
0000
,
1001
0001
0010
0100
,
1000
0010
0100
0000
,
0010
1000
0100
0010
,
0001
1000
0010
0000
,
0100
0010
1000
0100
,
0001
0100
1000
0010
,
0200
0000
0000
0000
0000
0000
0301
0000
0100
0000
0000
0010
0000
0000
1000
0000
,
0100
1000
0001
0000
,
0101
0000
0000
0000
0100
0000
0010
1000
,
0100
1000
0000
0001
,
0020
0000
0000
0130
1000
0000
0001
0000
,
0220
0000
0330
0000
,
1000
0001
0100
0010
,
0001
0010
1000
0100
,
0020
0000
0000
0000
0000
0000
0000
0000
0000
0130
0000
0000
1000
0000
0000
0000
0001
0000
0000
0000
0100
0000
0000
0000
,
0010
0100
0002
0000
,
1003
0100
0010
0001
0010
0000
0000
0000
,
0001
0100
0010
1000
0010
0000
0000
0000
,
1000
0100
0001
0100
1000
0000
0000
0000
,
0000
0000
0000
0000
,
0000
0000
0001
0010
,
0100
1000
0001
1000
0000
0010
0100
0001
,
1000
0000
0100
1000
0100
0000
0010
0100
0010
0000
0001
1000
0001
0000
0000
0000
,
0100
0001
1000
1000
0000
0001
1000
0100
,
0010
0000
0001
1000
0001
0100
0010
1000
0010
0000
1000
0100
0010
0001
0010
0100
,
1000
0001
1000
0100
0000
0010
0100
1000
,
0001
0000
0100
0001
0100
0000
0010
0100
0010
0000
1000
0001
1000
0000
0000
0000
,
0100
1000
0001
0001
0000
1000
0001
0100
,
0010
0000
1000
0001
1000
0100
0010
0001
0010
0000
0001
0100
0010
1000
0010
0100
,
0002
0000
0000
0000
0000
0000
0000
0000
1003
0001
1000
0001
1000
0001
1000
0001
,
1000
0000
0000
1100
0000
0000
0011
0000
1001
0000
0001
0000
0010
0000
0000
0000
,
0011
0001
0100
0010
0000
1000
0001
0010
,
0100
0000
0010
0001
1000
0001
0100
0010
1000
0001
0010
0100
1000
0001
0100
0001
,
0010
0100
1000
0001
0000
0100
0010
0001
,
0010
0000
1000
0001
0010
0000
0100
1000
0001
0000
0100
0010
1000
0000
0000
0000
,
0001
0010
0100
0010
0000
1000
0010
0001
,
0100
0000
0010
1000
0001
1000
0100
0010
0001
1000
0010
0100
0001
1000
0100
1000
,
0010
0100
0001
1000
0000
0100
0010
0001
,
1000
0001
0100
1000
0000
0100
0001
0010
,
0100
0000
0001
0100
0010
0000
0001
0000
0000
0000
0010
0000
0001
0000
0100
0000
,
0010
0000
0100
0001
1000
0100
0010
0001
1000
0010
1000
0001
0010
0100
0001
0100
,
0010
0001
1000
0001
0000
0100
0010
1000
,
0001
1000
0100
0001
0000
0100
1000
0010
,
0100
0000
1000
0100
0010
0000
1000
0000
0000
0000
0010
0000
1000
0000
0100
0000
,
0010
0000
0100
1000
0001
0100
0010
1000
0001
0010
0001
1000
0010
0100
1000
0100
,
0010
1000
0001
0011
0010
0100
1100
1000
,
0001
0101
0100
0001
0110
1000
0110
0001
,
0011
0010
0100
1100
1000
0010
0101
0001
,
1000
0000
0001
0100
0010
1000
0001
0000
1000
0010
0100
0001
0010
0100
1000
0010
,
0000
0000
1000
0001
0010
0100
0000
0000
,
0000
0000
1000
0001
0100
0010
0000
0000
;
