#TITLE:Deborah;
#SUBTITLE:;
#ARTIST:Paul Bazooka;
#TITLETRANSLIT:;
#SUBTITLETRANSLIT:;
#ARTISTTRANSLIT:;
#GENRE:;
#CREDIT:;
#MUSIC:Deborah.ogg;
#BANNER:;
#BACKGROUND:;
#CDTITLE:;
#SAMPLESTART:45.450;
#SAMPLELENGTH:20.000;
#SELECTABLE:YES;
#OFFSET:-0.010;
#BPMS:0.000=132.000;
#STOPS:;
#ORIGIN:;
#TAGS:;
#PREVIEWVID:;
#JACKET:;
#CDIMAGE:;
#DISCIMAGE:;
#BGCHANGES:;
#FGCHANGES:;

//--------------- dance-single - ----------------
#NOTES:
     dance-single:
     :
     Beginner:
     1:
     0.044211,0.080933,0,0.016288,0.004072,38,38,0,2,0,0,0,0,0,0.044211,0.080933,0,0.016288,0.004072,38,38,0,2,0,0,0,0,0:
0000
0000
0000
0000
,
0000
0000
0000
0000
,
0000
0000
0000
0000
,
0000
0000
0000
0000
,
0000
0000
0000
0000
,
0001
0000
0000
0000
,
0000
0000
0000
0000
,
1000
0000
0000
0000
,
0100
0000
0000
0000
,
0010
0000
0000
0000
,
0000
0000
0000
0000
,
0001
0000
0000
0000
,
0000
0000
0000
0000
,
1000
0000
0000
0000
,
0000
0000
0000
0000
,
0010
0000
0000
0000
,
0000
0000
0000
0000
,
0100
0000
0000
0000
,
0000
0000
0000
0000
,
0001
0000
0000
0000
,
0000
0000
0000
0000
,
0010
0000
0000
0000
,
0000
0000
0000
0000
,
0100
0000
0000
0000
,
1000
0000
0000
0000
,
0001
0000
0000
0000
,
0000
0000
0000
0000
,
0100
0000
0000
0000
,
0000
0000
0000
0000
,
0010
0000
0000
0000
,
0000
0000
0000
0000
,
0100
0000
0000
0000
,
0000
0000
0000
0000
,
0001
0000
0000
0000
,
0000
0000
0000
0000
,
1000
0000
0000
0000
,
0000
0000
0000
0000
,
0001
0000
0000
0000
,
0000
0000
0000
0000
,
0010
0000
0000
0000
,
0000
0000
0000
0000
,
0100
0000
0000
0000
,
0000
0000
0000
0000
,
0010
0000
0000
0000
,
0000
0000
0000
0000
,
0200
0000
0000
0000
,
0000
0000
0000
0000
,
0000
0000
0000
0000
0000
0000
0000
0000
0000
0000
0000
0300
,
0000
0000
0000
0000
,
1000
0000
0000
0000
,
1000
0000
0000
0000
,
0001
0000
0000
0000
,
0001
0000
0000
0000
,
0010
0000
0000
0000
,
0010
0000
0000
0000
,
0000
0000
0000
0000
,
0100
0000
0000
0000
,
1000
0000
0000
0000
,
0001
0000
0000
0000
,
0100
0000
0000
0000
,
0001
0000
0000
0000
,
1000
0000
0000
0000
,
0010
0000
0000
0000
,
0100
0000
0000
0000
,
0000
0000
0000
0000
,
0002
0000
0000
0000
,
0000
0003
0000
0000
;

//--------------- dance-single - ----------------
#NOTES:
     dance-single:
     :
     Easy:
     5:
     0.178009,0.215821,0.008144,0.008144,0,153,152,1,1,0,0,0,0,0,0.178009,0.215821,0.008144,0.008144,0,153,152,1,1,0,0,0,0,0:
0000
0000
0000
0000
,
0000
0000
0000
0000
,
0000
0000
0000
0000
,
0000
0000
0000
0000
,
0000
0000
0000
0000
,
0001
0000
1000
0000
,
0010
0000
0100
0000
,
0001
0000
1000
0000
,
0100
0000
0010
0100
,
1000
0000
0000
0000
0001
0000
0000
0100
,
0000
0000
0010
0100
,
0001
0000
1000
0000
0000
0000
0000
0010
,
0000
0000
1000
0000
,
0000
0000
0001
0000
0010
0000
0000
0100
,
0000
0000
1000
0100
,
0010
0000
0001
0000
0000
0000
0000
1000
,
0000
0000
0000
0010
,
0100
0001
0000
1000
,
0000
0100
0010
0000
,
0001
0000
0000
1000
0000
0000
0010
0000
,
0000
0000
0000
0100
,
0001
0000
0000
1000
0000
0000
0000
0100
,
0000
0000
1000
0001
,
0100
0000
0001
0000
,
1001
0000
1000
0000
,
0100
0010
0100
1000
,
0001
0000
0100
0000
,
0001
0010
0001
1000
,
0010
0000
1000
0000
,
0100
0010
0001
1000
,
0010
0000
0100
0000
,
0010
0000
0100
0000
,
0001
0000
1000
0000
,
0100
0000
0010
0000
0000
0000
0000
0100
,
0000
0000
0000
0000
,
0010
0000
0100
0000
0000
0000
0000
1000
,
0000
0000
0000
0000
,
0001
0000
0100
0000
0000
0000
0000
0010
,
0000
0000
0000
0000
,
1000
0000
0001
0000
,
0010
0100
1000
0000
,
0001
0000
1000
0000
,
0010
0000
1000
0000
,
0001
0000
0010
0000
,
0100
0000
0010
0000
,
0001
0000
0100
0000
,
0010
0000
1000
0000
,
0010
0000
0100
0000
,
0000
0000
0000
0000
,
0001
0100
0001
1000
,
0100
0010
0100
0000
,
1000
0100
0010
0001
,
0100
0010
1000
0000
,
0001
0010
0100
1000
,
0010
1000
0001
0100
,
0000
0010
0100
0001
,
1000
0100
0010
0000
,
0100
1000
0010
0100
,
0010
1000
0100
0000
,
0010
0001
0100
0001
,
1000
0100
0010
0000
,
0001
0100
0010
1000
,
0010
0100
0001
0000
,
0010
0001
1000
0000
,
0010
0100
0001
0010
,
0200
0000
0000
0000
,
0000
0300
0000
0000
;

//--------------- dance-single - ----------------
#NOTES:
     dance-single:
     :
     Medium:
     8:
     0.325767,0.377687,0.032577,0.228037,0.07737,280,276,4,28,0,0,0,0,0,0.325767,0.377687,0.032577,0.228037,0.07737,280,276,4,28,0,0,0,0,0:
0000
0000
0000
0000
,
0000
0000
0000
0000
,
0000
0000
0000
0000
,
0000
0000
0000
0000
,
0000
0000
0000
0000
,
0001
0000
0000
0000
1000
0000
0000
0010
0000
0000
0100
0000
0000
0000
0001
0000
,
0000
1000
0100
0010
,
0100
0000
0000
0000
1000
0000
0000
0001
0000
0000
0010
0000
0000
0000
0001
0000
,
0100
0000
0010
0000
0100
0010
0100
0010
,
1000
0000
0001
0000
0010
0100
0000
1000
,
0000
0000
0000
0001
0100
0000
0010
0000
,
0100
0000
0001
1000
0000
0100
0000
0010
,
0000
0000
0001
0000
0010
0000
0000
0000
0001
0000
0000
2000
0000
0000
0000
0000
,
3010
0000
0100
0000
0010
1000
0000
0001
,
0000
0000
0000
1000
0100
0000
0010
0000
,
0100
0000
1000
0001
0000
0100
0001
2000
,
0000
0000
0000
0000
3010
0000
0000
0000
1000
0000
0000
1000
0000
0000
0000
0000
,
0001
0000
0010
0100
0000
1000
0001
0000
,
0100
0010
0100
0001
,
1000
0000
0001
0010
0000
0001
0100
0020
,
0000
0030
0100
0000
0001
0000
1000
0000
,
0100
0000
0010
0100
0000
1000
0000
0001
,
0000
0000
0100
0000
0010
0100
0001
0000
,
1000
0000
0000
0100
0000
0000
0000
0000
1000
0000
0000
0010
0000
0000
0000
0000
,
0120
0000
0000
0130
0000
0000
0000
0000
0001
0000
0000
0001
0000
0000
0000
0000
,
1000
0000
0100
0000
0010
0001
0000
0010
,
0000
0100
1000
0001
0000
0000
0100
0010
,
1000
0000
0001
0000
0010
0100
0000
0010
,
0000
0000
0001
0000
1000
0000
0010
0100
,
0001
0000
1000
0000
0001
0010
0000
0100
,
0000
1000
0000
0001
0000
0100
0000
0001
,
1000
0001
0010
0100
,
0010
0100
0010
0100
2000
0000
3000
0000
,
0001
0000
0100
0000
0010
0000
0000
0100
,
0000
0001
0000
1000
0000
0001
0000
0000
,
1000
0000
0100
0000
0010
0000
0000
0001
,
0000
1000
0000
0001
0000
0100
0000
0000
,
0010
0000
1000
0000
0001
0000
0000
1000
,
0000
0001
0000
0010
0000
0100
0000
2000
,
0000
0000
0001
3001
,
0200
0302
0203
0000
0320
0000
2030
3000
,
0001
0000
0000
0000
0000
0000
0010
0000
0001
0000
0000
0010
0000
0000
0000
0000
,
0100
0000
0000
0000
0000
0000
1000
0000
0100
0000
0000
1000
0000
0000
0000
0000
,
0001
0000
0000
0000
0000
0000
0100
0000
0001
0000
0000
0100
0000
0000
0000
0000
,
0010
0000
0000
0000
0000
0000
1000
0000
0010
0000
0000
1000
0000
0000
0000
0000
,
0001
0000
0000
1001
0000
0000
1000
0000
,
0000
1100
0000
0000
0100
0000
0000
0110
,
0000
0000
0000
0000
0000
0000
0001
0000
0000
0000
0000
0000
0000
0000
0000
1000
0000
0000
0002
0000
0000
0000
0003
0000
,
0000
0000
1000
0000
0020
0030
0000
0000
,
0200
0300
0000
0000
0001
0000
0000
0000
1000
0000
0001
0000
1000
0000
0100
0000
,
0010
0000
0001
0000
1000
0010
0200
0000
,
0310
0000
1000
0001
0010
0200
0300
1000
,
0010
0100
0001
0000
0100
0001
2000
0000
,
3200
0300
0010
0000
0100
1000
0100
0010
,
0001
0000
0000
0000
1000
0000
0000
0000
0010
0000
1000
0000
0002
0000
0000
0003
,
0000
0000
0000
0000
0100
0000
0002
0003
0100
0000
0020
0030
0000
0000
2000
0000
,
3001
0000
0010
0000
0001
1000
0001
0000
,
0200
0000
0310
0100
0001
1000
0100
0000
,
1000
0000
0100
0010
0001
1000
0010
0000
,
0200
0000
0000
0000
0301
0000
0100
0000
0010
0000
2000
3000
0000
0000
0001
0000
,
0010
0001
1000
0000
0010
0200
0301
0000
,
2000
0000
3100
0010
0001
1000
0100
0000
,
1000
0001
0100
0000
0010
1000
0001
0010
,
0100
0000
0000
0000
1000
0000
0001
0000
0100
0000
0000
0001
0000
0000
1000
0000
,
0100
0010
0000
0010
0001
0100
0010
1000
,
0002
0000
0000
0000
,
0000
0003
0000
0000
;

//--------------- dance-single - ----------------
#NOTES:
     dance-single:
     :
     Hard:
     13:
     0.557295,0.67444,0.171028,0.390921,0.374632,479,458,21,48,0,0,0,0,0,0.557295,0.67444,0.171028,0.390921,0.374632,479,458,21,48,0,0,0,0,0:
0000
0000
0000
0000
,
0000
0000
0000
0000
,
0000
0000
0000
0000
,
0000
0000
0000
0000
,
0000
0000
0000
0000
,
0001
0000
1000
0000
0001
0000
0000
0010
0000
0000
0100
0000
1000
0000
0001
0000
,
0000
1000
0010
0100
0010
1000
0001
0010
,
0100
0000
0000
0000
1000
0000
0000
0010
0000
0000
0100
0000
0010
0000
1000
0000
,
0001
0000
0010
0000
0100
0000
1000
0000
0001
0000
0001
0000
1000
0010
1000
0010
,
0100
0000
0001
0000
1000
0001
0010
0110
,
0000
0100
0000
1000
0100
0010
0001
1000
,
1001
0000
0101
0001
0000
0100
0010
1000
,
0000
0000
0100
0000
0010
0000
0100
0000
1000
0000
0001
0200
0000
0000
0000
0000
,
0310
0000
1000
0000
0100
0010
0000
0010
0001
0000
1000
0000
0001
0000
0100
0000
,
0000
0010
0000
0010
0000
0000
1000
0000
0001
0000
0010
0000
0100
0000
0010
0000
,
0001
0000
1001
1000
0000
0010
0100
0002
,
0000
0000
0203
0000
0310
1000
0010
1000
0001
0000
0000
1001
0000
0000
1000
0000
,
0100
0010
0001
0200
0000
0310
2000
0001
,
0000
0000
3100
0000
0010
0000
0100
0000
0001
0000
0100
0010
0001
0000
1000
0000
,
0010
0000
0100
0000
0010
0000
0002
0000
0000
0000
0013
0000
1000
0001
0020
0000
,
0000
0130
1000
0100
0000
1000
0001
1000
0001
0000
0100
0000
0010
0000
1000
0000
,
0200
0000
0310
0001
0010
0100
1000
2100
,
0000
3100
1000
0001
0100
0010
1000
0001
,
0101
0000
0000
0100
0000
0000
0010
0000
1010
0000
0000
1000
0000
0000
0001
0000
,
0012
0000
0000
0013
0000
0000
0100
0000
0010
0100
0000
0100
1000
0000
0001
0000
,
0100
0001
1000
0010
1000
0100
0010
0001
,
0000
0000
0010
0000
0100
0000
0010
0000
0001
0000
1000
0001
0100
0000
0010
0000
,
2000
0000
3010
0100
0001
1000
0100
0020
,
0000
0000
0130
0010
0001
0000
1000
0000
0010
0100
0010
0100
0001
0000
1000
0000
,
0200
0000
0000
0310
0002
0000
0000
1003
0010
0000
0100
0000
0010
0000
0002
0000
,
0000
0000
0013
0000
1000
0000
0001
1000
0001
0000
0010
0100
0000
0100
0000
0100
,
1000
0000
0001
0000
0100
0000
0001
0000
0010
0000
0100
0000
1000
0000
0001
0100
,
0000
0100
0010
0000
1000
0000
0100
1000
0020
0000
0000
0000
0130
0000
0001
0000
,
1000
0000
0001
0000
0010
0100
0000
1000
,
0000
0100
0010
0001
0000
1000
0010
0000
,
0100
0000
0010
0000
1000
0100
0000
0010
,
0000
0100
1000
0001
0000
0100
0010
0000
,
0100
0000
0001
0000
0010
0100
0000
1000
,
0000
0100
1000
0001
0000
0100
0010
1000
,
0001
0001
0010
0010
0100
1000
0001
0100
,
0010
1000
0001
1000
0200
0000
0000
0000
2300
0000
0000
0000
3002
0023
0031
0000
,
1000
0000
0000
0000
0000
0000
0010
0000
0100
0000
0000
0001
0000
0000
1000
0000
,
0100
0000
0000
0000
0000
0000
0010
0000
0001
0000
0000
0100
0000
0000
0010
0000
,
1000
0000
0000
0100
0000
0000
0010
0000
0001
0000
0000
1000
0000
0000
0100
0000
,
1000
0000
0000
0010
0000
0000
0100
0000
0001
0000
0000
0010
0000
0000
0100
0000
,
1100
0000
0000
1000
0000
0000
0010
0000
0000
0100
0000
0000
0101
0000
0000
0001
,
0000
0000
0010
0000
0000
0100
0000
0000
1100
0000
0000
1000
0000
0000
0001
0000
,
0000
0000
0000
0100
0000
0000
0000
0000
0000
0000
0000
0000
0110
0000
0000
0000
0000
0000
0000
0000
0000
0010
0000
0000
0000
0000
0000
0000
0000
0000
1000
0000
0000
0000
0000
0000
2002
0000
0000
0000
0000
0000
0000
0000
3003
0000
0000
0000
,
0000
0001
0100
0010
2000
3000
0001
1000
,
0200
0310
0000
0010
0001
0000
1000
0000
0010
0000
0010
0000
0100
0000
0001
0000
,
1000
0010
0100
0000
0001
1000
0001
1000
0001
0000
1000
0000
0200
0000
0000
0000
,
0320
0000
0031
0000
1000
0010
1000
0010
1000
0000
0002
0203
0300
0000
0010
0000
,
1000
0100
1000
0100
0010
0000
0010
0000
0001
0000
1000
0000
1002
0000
0000
0000
,
0203
0000
0310
0000
1000
0001
0000
0001
0010
0000
0100
0000
0010
0000
0001
1000
,
0010
0000
0100
0000
0001
0000
1000
0100
0010
0000
0100
0000
1100
0000
1000
0020
,
0030
0000
0100
0000
0101
0000
0002
0203
0301
0000
0200
0320
0130
0000
0002
0000
,
0013
0100
0010
0100
1000
0000
1000
0000
0001
0000
0101
0000
0101
0000
0000
0000
,
2000
0000
0000
0000
3100
0010
0100
0010
0001
0000
0001
0000
1001
0000
1000
0000
,
0010
0100
0000
0100
0001
1000
0001
1000
0100
0000
0010
0000
0100
0000
0100
0000
,
2000
0000
0000
0000
3001
0100
0001
0100
0010
0000
2000
3002
0003
0000
0010
0000
,
0001
0000
0001
0000
1000
0000
1000
0000
0200
0000
0320
0032
0103
0000
0000
0000
,
0020
0000
0000
0000
0130
0001
1000
0001
0010
0000
0010
0000
0110
0000
0100
0000
,
1000
0001
0100
0000
0010
0000
1000
0001
0020
0000
0130
0000
1000
0000
1000
0000
,
0001
0000
1000
0001
1000
0000
0001
1000
0100
0000
0010
0001
0000
0000
0200
0000
,
0310
1000
0002
0000
1003
0000
0100
0000
0010
0000
0001
0000
1000
0010
0100
0001
,
2000
0000
0000
0000
,
0000
3000
0000
0000
;

//--------------- dance-single - ----------------
#NOTES:
     dance-single:
     :
     Challenge:
     15:
     0.658516,0.728395,0.146595,0.390921,0.631174,566,548,18,48,0,0,0,0,0,0.658516,0.728395,0.146595,0.390921,0.631174,566,548,18,48,0,0,0,0,0:
0000
0000
0000
0000
,
0000
0000
0000
0000
,
0000
0000
0000
0000
,
0000
0000
0000
0000
,
0000
0000
0000
0000
,
0001
0000
1000
0000
0100
0000
0000
1000
0000
0000
0001
0000
0100
0000
0010
0000
,
0000
0000
1000
0000
0100
0000
0010
0000
0100
0000
1000
0000
0010
0100
0010
0100
,
0001
0000
0000
0000
1000
0000
0000
0001
0000
0000
0010
0000
0100
0000
1000
0000
,
0001
0000
1000
0001
0100
0001
1000
0001
0010
0100
1000
0001
0100
0010
1000
0001
,
0010
0000
0100
0000
1100
0100
0010
0011
,
0000
0000
0001
0000
1000
0000
0010
0100
0001
0000
1000
0000
0100
0000
1000
0000
,
1010
0000
0000
0000
1001
0000
0001
0000
0010
0000
0100
1000
0100
0000
0010
0000
,
0000
0000
0001
0000
1000
0000
0010
0000
0100
0001
1000
0200
0000
0000
0000
0000
,
0310
0000
0001
0000
1000
0010
0000
0010
0100
0000
0001
0000
1000
0000
0100
0000
,
0000
0010
0000
0010
0001
0000
1000
0001
0100
0000
0001
0000
1000
0000
0100
0000
,
0010
0000
0001
0000
0101
0000
0100
0000
0010
0000
1000
0001
0010
0000
2000
0000
,
0000
0000
3020
0000
0031
1000
0010
0100
0001
0000
0000
1001
0000
0000
1000
0000
,
0100
1000
0010
0001
0010
0100
1000
0100
,
0010
0000
1000
0000
1001
0000
0001
0000
0010
0000
0100
0010
1000
0000
0010
0100
,
1000
0000
0001
0000
0010
0000
1000
0000
0010
0000
0100
0000
0001
0100
2000
0000
,
0000
3001
0100
0010
0000
1000
0100
0010
0100
1000
0001
0100
0010
0000
0100
0001
,
0020
0000
0130
1000
0001
0100
0010
1020
,
0000
0000
1030
0000
0100
0000
0010
0000
0001
1000
0001
0000
0010
0000
0100
0000
,
1100
0000
0000
1000
0000
0000
0001
0000
0101
0000
0000
0100
0000
0000
0010
0000
,
1002
0000
0000
1003
0000
0000
0001
0000
1000
1000
0000
0001
0010
0000
0100
0000
,
0110
0010
0001
1000
0010
0100
0010
2000
,
0000
0000
3001
0000
0010
0000
0001
0000
0100
0000
0010
0100
1000
0000
0100
0001
,
2000
0000
3100
0010
0001
0010
0100
2000
,
0000
0000
3001
1000
0010
1000
0010
0100
0001
1000
0100
0010
0001
0000
0010
0100
,
1000
0000
0100
1000
0100
0000
1000
0001
0100
0000
0001
0000
0010
0000
0100
0010
,
0100
0000
1000
0000
0001
0000
0100
0010
0001
0000
0010
1000
0000
1000
0000
1000
,
0100
0000
0010
0100
0010
0000
0001
0010
0001
0000
1000
0001
1000
0000
0001
0100
,
0010
0100
0010
0100
0001
1000
0001
1000
0200
0000
0000
0000
0310
0000
0001
0000
,
0100
0000
0010
0000
1000
0100
1000
0010
,
0000
0100
0001
1000
0100
0010
0001
0000
,
0100
0000
0001
0000
1000
0100
0000
0001
,
0000
0100
1000
0001
1000
0010
0100
0000
,
0001
0000
0100
0000
0010
1000
0000
0100
,
0000
0010
0100
1000
0001
0100
0001
0010
,
0100
0000
0100
0000
1000
0000
1000
0000
0001
0000
0100
0010
0100
0000
0010
0100
,
0001
1000
0100
1000
0020
0000
0000
0000
2030
0000
0000
0000
3200
0320
0031
0000
,
1000
0000
0000
0000
0010
0000
0100
0000
0001
0000
0000
0100
0000
0000
0010
0000
,
1000
0000
0000
0000
0100
0000
0010
0000
0001
0000
0000
0010
0000
0000
0001
0000
,
1000
0000
0000
0010
0000
0000
0100
0000
0001
0000
0000
0010
0000
0000
0100
0000
,
1000
0000
0000
0010
0000
0000
0100
0000
0001
0000
0000
0010
0000
0000
0100
0000
,
0010
0000
0100
0001
0000
0100
0010
0000
0100
1000
0000
0010
1000
0000
0010
0100
,
0000
0010
0001
0000
0010
0100
0000
0001
1000
0000
0100
0010
0000
0001
1000
0000
,
0010
0000
0000
0100
0000
0000
0000
0000
0000
0001
0000
0000
0010
0000
0000
0000
0000
0000
0100
0000
0000
1000
0000
0000
0000
0000
0000
0010
0000
0000
0100
0000
0000
0000
0000
0000
0002
0000
0000
0000
0000
0000
0000
0000
0003
0000
0000
0000
,
0000
0001
0010
0100
2000
3000
0001
0100
,
2000
3100
0000
0001
1000
0000
0100
0000
0010
0000
0010
0000
0011
0000
0001
0000
,
1000
0010
0100
0010
1000
0001
1000
0001
1000
0000
0100
0000
0020
0000
0000
0000
,
0230
0000
1300
0100
0010
0001
0100
0001
1000
0000
0002
0203
0310
0000
1000
0010
,
0001
0010
1000
0001
0010
0100
0010
0100
1000
0000
0100
0000
1200
0000
0000
0000
,
0302
0000
0103
0000
0010
0001
0000
0001
0200
0000
0310
1000
0010
0000
0100
0010
,
1000
0001
1000
0100
0010
0000
0001
0010
0200
0000
1300
0000
0002
0000
0103
0020
,
0030
0000
0100
0010
1000
0001
0020
0032
1003
0000
0200
2300
3010
0000
0002
0000
,
0013
1000
0001
0010
0100
1000
0100
1000
0010
0000
1010
0000
1001
0000
0001
0000
,
2000
0000
0000
0000
3001
0100
0001
0100
0010
0000
0010
0000
1000
0001
1000
0000
,
0100
0010
0000
0010
0001
0010
0001
0010
0200
0000
1300
0001
0100
0000
0100
0000
,
0120
0000
0000
0000
1030
0001
1000
0001
0010
0000
2000
3020
0031
0000
1000
0001
,
0100
0010
0100
0001
1000
0100
0010
0000
0002
0000
2003
3002
0103
0000
0000
0000
,
0102
0000
0000
0000
0013
0001
0010
0001
0100
0010
0000
0010
1000
0000
0001
0010
,
0001
1000
0010
1000
0100
0000
0001
0100
0020
0000
0031
1000
0010
0000
0200
0000
,
0301
0000
0001
1000
0100
0000
0100
0010
0001
1000
0010
0100
0000
0000
2000
0000
,
3100
0010
2000
0000
3010
1000
0001
0100
1000
0100
0002
0000
1003
0100
0010
0001
,
0200
0000
0000
0000
,
0000
0300
0000
0000
;
