#TITLE:Cowboy From Mars;
#SUBTITLE:;
#ARTIST:Goblins From Mars;
#TITLETRANSLIT:;
#SUBTITLETRANSLIT:;
#ARTISTTRANSLIT:;
#GENRE:;
#CREDIT:;
#MUSIC:Cowboy From Mars.ogg;
#BANNER:;
#BACKGROUND:;
#CDTITLE:;
#SAMPLESTART:46.635;
#SAMPLELENGTH:20.000;
#SELECTABLE:YES;
#OFFSET:-0.034;
#BPMS:0.000=130.000
,115.000=260.000
,115.500=130.000
,115.750=65.000
,116.000=130.000
,132.000=65.000
,132.250=130.000
,132.500=260.000
,133.000=130.000
,147.000=260.000
,147.500=130.000
,147.750=65.000
,148.000=130.000
;
#STOPS:;
#DISPLAYBPM:130.000;
#ORIGIN:;
#TAGS:;
#PREVIEWVID:;
#JACKET:;
#CDIMAGE:;
#DISCIMAGE:;
#BGCHANGES:;
#FGCHANGES:;

//--------------- dance-single - ----------------
#NOTES:
     dance-single:
     :
     Beginner:
     2:
     0.088531,0.130889,0,0,0,58,58,0,0,0,0,0,0,0,0.088531,0.130889,0,0,0,58,58,0,0,0,0,0,0,0:
0000
0000
0000
0000
,
0000
0000
0000
0000
,
0000
0000
0000
0000
,
0000
0000
0000
0000
,
0000
0000
0000
0000
,
0000
0001
0000
0000
,
1000
0000
0000
0000
,
0100
0000
0000
0000
,
0010
0000
0000
0000
,
0100
0000
0000
0000
,
1000
0000
0000
0000
,
0100
0000
0000
0000
,
0010
0000
0000
0000
,
0001
0000
0000
0000
,
1000
0000
0000
0000
,
0010
0000
0000
0000
,
0100
0000
0000
0000
,
0000
0010
0000
0000
,
1000
0000
0000
0000
,
0000
0001
0000
0000
,
0010
0000
0000
0000
,
0000
0100
0000
0000
,
1000
0000
0000
0000
,
0000
0001
0000
0000
,
0100
0000
0000
0000
,
0000
0010
0000
0010
,
0100
0000
0000
0000
,
0000
0001
0000
0001
,
1000
0000
0000
0000
,
0000
0100
0000
0100
,
0010
0000
0000
0000
,
0000
0001
0000
0001
,
1000
0000
1000
0000
,
0000
0000
0000
0100
,
1000
0000
0010
0000
,
0000
0100
0000
0100
,
0001
0000
0000
0000
,
0000
1000
0000
1000
,
0100
0000
0000
0000
,
0000
0010
0000
0010
,
0001
0000
0000
0000
,
1000
0000
0010
0000
,
0100
0000
0000
0000
,
0001
0000
0100
0000
,
0010
0000
0000
0000
,
1000
0000
0001
0000
,
0010
0000
0000
0000
,
0001
0000
1000
0000
,
0010
0000
0000
0000
,
0100
0000
0000
0000
;

//--------------- dance-single - ----------------
#NOTES:
     dance-single:
     :
     Easy:
     4:
     0.193853,0.209422,0.010685,0.032054,0,127,126,1,3,0,0,0,0,0,0.193853,0.209422,0.010685,0.032054,0,127,126,1,3,0,0,0,0,0:
0000
0000
0000
0000
,
0000
0000
0000
0000
,
0000
0000
0000
0000
,
0000
0000
0000
0000
,
0000
0000
0000
0000
,
0002
0103
0001
0000
,
1000
0000
0010
0000
,
1000
0001
1000
0000
,
0100
0000
0000
0000
,
0010
0100
1000
0000
,
0001
0000
0100
0000
,
0010
0100
0001
0000
,
1000
0000
0100
0000
,
0010
0001
1000
0000
,
0010
0000
0100
0000
,
0010
1000
0001
0000
,
0010
0000
0100
0000
,
0010
0001
0001
0000
,
1000
0000
0010
0000
,
0000
0100
0100
0000
,
0001
0000
1000
0000
,
0100
0010
0010
0000
,
0100
0000
1000
0000
,
0001
0100
0100
0000
,
0010
1000
0001
0000
,
0010
0100
1000
0100
,
0010
0010
0001
0000
,
1000
0010
0100
0001
,
0100
0100
0010
2000
,
3000
0001
0010
0100
,
1000
1000
0100
0010
,
0000
0001
1000
0010
,
0100
0001
0010
0100
,
0000
0000
0010
0001
,
0100
0100
0010
1000
,
0000
0100
1000
0001
,
0010
0010
0001
0200
,
0300
0001
0010
0100
,
1000
1000
0010
0100
,
0000
0001
0100
0010
,
1000
0100
0010
0001
,
1000
0000
0001
0000
,
0100
0100
0100
0000
,
0010
0000
1000
0000
,
0001
0001
0001
0000
,
0010
0000
0100
0000
,
1000
1000
1000
0000
,
0001
0001
0001
0000
,
0100
0000
0010
0000
,
0110
0000
0000
0000
;

//--------------- dance-single - ----------------
#NOTES:
     dance-single:
     :
     Medium:
     9:
     0.375494,0.418844,0.042739,0.064109,0.181641,246,242,4,6,0,0,0,0,0,0.375494,0.418844,0.042739,0.064109,0.181641,246,242,4,6,0,0,0,0,0:
0000
0000
0000
0000
,
0000
0000
0000
0000
,
0000
0000
0000
0000
,
0000
0000
0000
0000
,
0000
0000
0000
0000
,
0002
1003
0001
0010
,
0100
0010
0100
1000
,
0001
0100
0010
0100
,
0002
0000
0000
0000
,
1003
0000
0000
0000
0010
0000
0000
0000
1000
0000
0000
0010
0100
0000
0000
0000
,
0001
0000
0000
0000
1000
0000
0000
0000
0001
0000
0000
0000
0010
0000
0000
0001
,
1000
0000
0000
0000
0010
0000
0000
0000
1000
0000
0000
0000
0001
0000
0000
0100
,
0010
0000
0000
0000
1000
0000
0000
0001
0010
0000
0000
0000
0100
0000
0000
0000
,
1000
0000
0000
0000
0001
0000
0000
0000
0100
0000
0000
0010
1000
0000
0000
0000
,
0001
0000
0000
0000
1000
0000
0000
0000
0100
0000
0000
0000
0010
0000
0000
0001
,
0100
0000
0000
0000
0010
0000
0000
0000
0100
0000
0000
0000
0001
0000
0000
0010
,
0100
1000
0001
0100
,
0010
0000
1000
0010
0100
0010
1000
0000
,
0001
1000
0100
0000
,
0010
0000
0100
1000
0001
1000
0100
0000
,
0010
0001
0100
0010
,
1000
0000
0010
0100
0001
0100
0010
0000
,
1000
0100
0010
0000
,
0100
0000
1000
0001
0100
0001
1000
0000
,
0010
1000
0100
0010
,
1001
0000
0001
1000
0010
0100
0001
1000
,
0100
0000
0000
0100
0010
0000
0000
0010
0001
0000
0000
0001
1000
0000
0000
0000
,
0010
0000
1000
0001
0010
0100
1000
0001
,
0100
0000
0000
0100
0010
0000
0000
0010
1000
0000
0000
1000
0002
0000
0000
0000
,
0013
0000
0100
0010
0001
0100
0001
0010
,
0100
0000
0000
0100
1000
0000
0000
1000
0001
0000
0000
0001
0010
0000
0000
0000
,
0001
0000
0100
0010
1000
0100
1000
0010
,
0100
0000
0000
0100
0001
0000
1000
0000
0100
0000
0010
0000
0002
0000
0000
0000
,
1003
0000
1000
0100
0001
0100
1000
0001
,
0010
0000
0000
0010
0001
0000
0000
0001
0100
0000
0000
0100
0010
0000
0000
0000
,
1000
0000
0001
0100
1000
0100
0001
1000
,
0010
0000
0000
0010
1000
0000
0000
1000
0100
0000
0000
0100
0020
0000
0000
0000
,
0031
0000
1000
0010
0001
0010
1000
0001
,
0100
0000
0000
0100
0001
0000
0000
0001
0010
0000
0000
0010
0100
0000
0000
0000
,
1000
0000
0001
0010
1000
0010
0001
1000
,
0100
0000
0000
0100
1000
0000
0010
0000
0100
0000
0001
0000
0020
0000
0000
0000
,
0130
0000
0000
0000
1000
0000
0000
0000
0001
0000
0000
0000
0100
0000
0000
0100
,
0010
0000
0000
0000
1000
0000
0000
0000
0001
0000
0000
0000
0010
0000
0000
0010
,
0100
0000
0000
0000
1000
0000
0000
0000
0001
0000
0000
0000
1000
0000
0000
1000
,
0010
0000
0000
0000
0100
0000
0000
0100
0001
0000
0000
0000
0010
0000
0000
0000
,
0011
0000
0000
0000
0001
0000
0000
0000
0100
0000
0000
0000
0010
0000
0000
0010
,
1000
0000
0000
0000
0001
0000
0000
0000
0010
0000
0000
0000
0001
0000
0000
0001
,
0100
0000
0000
0000
0010
0000
0000
0000
1000
0000
0000
0000
0100
0000
0000
0100
,
1000
0001
1001
0100
,
0110
0000
0000
0000
;

//--------------- dance-single - ----------------
#NOTES:
     dance-single:
     :
     Hard:
     14:
     0.601401,0.706799,0.213696,0.117533,0.742593,394,374,20,11,0,0,0,0,0,0.601401,0.706799,0.213696,0.117533,0.742593,394,374,20,11,0,0,0,0,0:
0000
0000
0000
0000
,
0000
0000
0000
0000
,
0000
0000
0000
0000
,
0000
0000
0000
0000
,
0000
0000
0000
0000
,
0002
0000
0000
0000
0103
0000
0000
0000
0010
0000
0000
0000
1000
0000
0000
0100
,
1000
0000
0000
0000
0100
0000
0000
0000
0010
0000
0000
0000
0001
0000
0000
0100
,
0010
0000
0000
0000
1000
0000
0000
0000
0001
0000
0000
0000
0010
0000
0000
0001
,
0200
0000
0000
0000
,
0301
0000
0000
0000
0110
0000
0000
0000
1010
0000
0000
1000
0100
0000
0000
1000
,
0010
0000
0000
0000
0110
0000
0000
0000
0101
0000
0000
0000
0001
0000
0000
1000
,
0100
0000
0000
0000
0110
0000
0000
0000
0011
0000
0000
0000
0001
0000
0000
0100
,
0010
0000
0000
1000
0100
0000
0000
0010
0001
0000
0000
0100
0010
0000
0000
1000
,
0001
0000
0000
0000
1000
0000
0001
0000
0100
0001
0000
0001
1000
0000
0010
0100
,
0001
0000
0000
0000
0100
0000
0001
0000
0010
0100
0000
0100
1000
0000
0001
0100
,
0010
0000
0000
0000
1000
0000
0100
0000
0010
0001
0000
0001
0100
0000
0001
0100
,
0010
0100
0010
1000
0001
0000
0010
0100
1000
0001
1000
0100
0010
0001
0010
0001
,
0100
0000
0000
0000
0001
1000
0001
1000
0100
0000
0010
0000
0001
0000
1000
0000
,
0010
0000
0000
0100
0000
0000
0001
0000
1000
0000
0000
0100
0000
0000
0010
0000
0001
0000
0000
1000
0000
0000
0001
0000
0100
0000
0000
0000
0000
0000
0000
0000
,
0010
0000
0000
0000
0100
0001
0100
0001
1000
0000
0100
0000
0010
0000
0001
0000
,
0100
0000
0000
0010
0000
0000
1000
0000
0100
0000
0000
0010
0000
0000
0001
0000
1000
0000
0000
0100
0000
0000
0010
0000
0001
0000
0000
0100
0000
0000
0010
0000
,
1000
0000
0100
0000
0010
0001
1000
0001
0010
0000
0100
0000
1000
0000
0001
0000
,
0100
0000
0000
0001
0000
0000
0010
0000
0100
0000
0000
1000
0000
0000
0010
0000
0100
0000
0000
0001
0000
0000
1000
0000
0100
0000
0000
0000
0010
0000
0000
0000
,
0001
0000
1000
0000
0010
0100
0001
0100
0010
0000
1000
0000
0100
0000
1000
0000
,
0010
0100
0001
1000
0100
0010
0001
0100
0001
0010
0100
1000
0020
0000
0000
0000
,
0130
0000
0000
0000
0001
1000
0010
0100
0001
0000
1000
0000
0100
0000
0010
0000
,
0001
0000
0000
0001
0000
0000
0001
0000
0100
0000
0000
0100
0000
0000
0100
0000
0010
0000
0000
0010
0000
0000
0010
0000
2000
0000
0000
0000
0000
0000
0000
0000
,
3100
0000
0000
0000
1000
0001
0010
0100
1000
0000
0001
0000
0100
0000
0010
0000
,
1000
0000
0000
1000
0000
0000
1000
0000
0100
0000
0000
0100
0000
0000
0100
0000
0010
0000
0000
0010
0000
0000
0010
0000
0002
0000
0000
0000
0000
0000
0000
0000
,
0103
0000
0000
0000
0001
0100
0010
1000
0100
0000
0010
0000
0001
0000
1000
0000
,
0100
0000
0000
0100
0000
0000
0100
0000
0010
0000
0000
0010
0000
0000
0010
0000
0001
0000
0000
0001
0000
0000
0001
0000
2000
0000
0000
0000
0000
0000
0000
0000
,
3100
0000
0000
0000
1000
0100
0010
0001
0100
0000
0010
0000
1000
0000
0001
0000
,
1000
0010
1000
0001
0010
0100
1000
0001
0100
0010
1000
0100
0020
0000
0000
0000
,
0031
0000
0000
0000
0001
0100
0010
0100
1000
0000
0100
0000
0001
0000
1000
0000
,
0100
0000
0000
0100
0000
0000
0100
0000
1000
0000
0000
1000
0000
0000
1000
0000
0010
0000
0000
0010
0000
0000
0010
0000
0200
0000
0000
0000
0000
0000
0000
0000
,
0301
0000
0000
0000
1000
0100
0010
0100
0001
0000
0100
0000
1000
0000
0001
0000
,
0100
0000
0000
0100
0000
0000
0100
0000
0001
0000
0000
0001
0000
0000
0001
0000
0010
0000
0000
0010
0000
0000
0010
0000
0200
0000
0000
0000
0000
0000
0000
0000
,
1300
0000
0000
0000
0001
0010
0100
0010
1000
0000
0010
0000
0001
0000
1000
0000
,
0010
0000
0000
0010
0000
0000
0010
0000
1000
0000
0000
1000
0000
0000
1000
0000
0100
0000
0000
0100
0000
0000
0100
0000
0020
0000
0000
0000
0000
0000
0000
0000
,
0031
0000
0000
0000
1000
0010
0100
0010
0001
0000
0010
0000
1000
0000
0001
0000
,
1000
0100
1000
0001
0100
0001
0010
0100
1000
0010
0100
0001
0020
0000
0000
0000
,
0130
0000
0000
0000
0110
0000
0000
0000
1001
0000
0000
1000
0100
0000
0000
0100
,
0010
0000
0000
0000
0011
0000
0000
0000
1001
0000
0000
0000
1000
0000
0000
0010
,
0100
0000
0000
0000
0110
0000
0000
0000
0101
0000
0000
0000
0001
0000
0000
0010
,
0100
0000
0000
0100
1000
0000
0000
1000
0010
0000
0000
0010
0100
0000
0000
0100
,
0001
0000
0000
0000
1001
0000
0000
0000
1100
0000
0000
0001
0100
0000
0000
0010
,
1000
0000
0000
0000
1001
0000
0000
0000
0101
0000
0000
0000
1000
0000
0000
0100
,
0010
0000
0000
0000
0011
0000
0000
0000
1001
0000
0000
0000
0001
0000
0000
1000
,
0010
0000
0000
0010
0100
0000
0001
0000
0101
0000
0100
0001
1000
0000
0100
0000
,
0110
0000
0000
0000
;
