#VERSION:0.83;
#TITLE:Black MInD;
#SUBTITLE:;
#ARTIST:COSIO;
#TITLETRANSLIT:;
#SUBTITLETRANSLIT:;
#ARTISTTRANSLIT:;
#GENRE:;
#CREDIT:;
#MUSIC:Black MInD.ogg;
#BANNER:;
#BACKGROUND:;
#CDTITLE:;
#SAMPLESTART:35.163;
#SAMPLELENGTH:20.000;
#SELECTABLE:YES;
#OFFSET:-0.170;
#BPMS:0.000=191.993;
#STOPS:;
#SPEEDS:0.000=1.000=0.000=0;
#SCROLLS:0.000=1.000;
#TICKCOUNTS:0.000=4;
#TIMESIGNATURES:0.000=4=4;
#LABELS:0.000=Song Start;
#COMBOS:0.000=1;
#ORIGIN:;
#TAGS:;
#PREVIEWVID:;
#JACKET:;
#CDIMAGE:;
#DISCIMAGE:;
#BGCHANGES:;
#FGCHANGES:;

//--------------- dance-single - ----------------
#NOTEDATA:;
#STEPSTYPE:dance-single;
#DESCRIPTION:;
#DIFFICULTY:Beginner;
#METER:7;
#RADARVALUES:0.289176,0.356143,0.038049,0.129368,0,266,261,5,17,0,0,0,0,0,0.289176,0.356143,0.038049,0.129368,0,266,261,5,17,0,0,0,0,0;
#CHARTNAME:;
#CHARTHASH:1824845086;
#BANNER:;
#CHARTSTYLE:;
#METERF:0.000000;
#LASTSECONDHINT:130.174744;
#CREDIT:ZSL;
#NOTES:
0000
0000
0000
0000
,
0000
0000
0000
0000
,
0000
0000
0000
0000
,
0000
0000
0000
0000
,
0000
0000
0000
0000
,
0000
0000
0000
0000
,
1001
0000
0000
0000
,
0110
0000
0001
1000
,
0100
0000
0000
0010
0000
0000
0000
0100
,
0000
0000
0000
1000
0000
0000
0000
0000
,
0001
0000
0000
0100
0000
0000
0000
0010
,
0000
0000
0000
1000
0000
0000
0000
0000
,
0010
0000
0000
0100
0000
0000
0000
0001
,
0000
0000
0000
1000
0000
0000
0000
0000
,
0100
0000
0000
0010
0000
0000
0000
0001
,
0000
0000
0000
1000
0000
0000
0010
0000
,
0100
0000
0100
0000
,
0001
0000
0001
0000
,
2000
0000
3200
0000
,
0320
0000
0031
0000
,
1000
0000
1000
0000
,
0010
0000
0010
0000
,
0100
0001
0100
0000
,
0001
1000
0001
1000
,
0100
0000
0000
0010
0000
0000
0000
0002
,
0000
0000
0000
0000
,
0000
0000
1003
1000
,
0000
0000
0000
0000
,
0001
1000
0100
1000
,
0010
0100
0001
0000
,
0010
0001
1000
0010
,
1000
1000
0001
0000
,
0001
1000
0010
1000
,
0100
0010
0001
0000
,
0100
0001
1000
0100
,
1000
1000
0001
0000
,
1000
0001
0100
0001
,
0010
0100
1000
0000
,
0010
1000
0001
0010
,
0001
0001
1000
0000
,
1000
0001
0010
0001
,
0100
0010
1000
0000
,
0100
1000
0001
0100
,
0001
0001
1000
0010
,
0000
0000
0100
0000
0010
0000
0000
1000
,
0000
0000
0001
0000
1000
0000
0000
0100
,
0000
0000
0010
0000
0001
0000
0000
0100
,
0000
0010
1000
1000
,
0000
0000
0001
0000
0010
0000
0000
0100
,
0000
0010
0001
0000
,
2000
3020
0230
0000
,
0320
2030
3001
0000
,
2002
0000
0000
0000
,
0000
3003
0001
0000
,
1000
0100
0010
0000
,
0001
0000
1000
0000
,
0010
0000
0000
0000
0100
0000
0000
0010
,
0000
1000
0001
0000
,
1000
0000
0000
0000
0100
0000
0000
0010
,
0000
0001
1000
0000
,
2002
0000
0000
0000
,
0000
3003
1000
0000
,
0001
0100
0010
0000
,
1000
0000
0001
0000
,
0010
0000
0000
0000
0100
0000
0000
0010
,
0000
0001
1000
0000
,
0010
0000
0000
0000
0100
0000
0000
0001
,
0000
0010
0100
0000
,
2000
0000
0000
0000
,
0000
0000
0000
0000
,
3002
0000
0000
0000
,
0003
0100
0010
0000
,
1000
0000
1000
0000
,
0001
0000
0001
0000
,
0010
0000
0100
0000
,
1000
0001
0100
0000
,
0001
0010
0100
1000
,
0010
0100
0010
1000
,
0100
0010
0001
0100
,
0010
0010
1000
0000
,
1000
0010
0100
0001
,
0010
0100
0010
0001
,
0100
0010
1000
0100
,
0010
0010
0001
0000
,
0001
0100
0010
1000
,
0100
0010
0100
1000
,
0010
0100
0001
0010
,
0100
0100
1000
0000
,
1000
0100
0010
0001
,
0100
0010
0100
0001
,
0010
0100
1000
0010
,
0100
0100
0001
0000
,
1000
0100
1000
0000
,
0010
0100
0001
0000
,
0010
0100
1000
0000
,
0100
0100
0010
0000
,
0001
0100
0001
0000
,
0010
0100
1000
0000
,
0010
0100
0001
0000
,
0100
0100
0010
1000
,
0001
0000
0000
0000
,
0010
0100
0220
0000
,
0000
0000
0000
0000
,
0000
0000
0000
0000
,
0330
0000
0000
0000
;

//--------------- dance-single - ----------------
#NOTEDATA:;
#STEPSTYPE:dance-single;
#DESCRIPTION:;
#DIFFICULTY:Easy;
#METER:11;
#RADARVALUES:0.476161,0.554,0.144588,0.144588,0.02283,438,419,19,19,0,0,0,0,0,0.476161,0.554,0.144588,0.144588,0.02283,438,419,19,19,0,0,0,0,0;
#CHARTNAME:;
#CHARTHASH:841446903;
#BANNER:;
#CHARTSTYLE:;
#METERF:0.000000;
#LASTSECONDHINT:130.174744;
#CREDIT:ZSL;
#NOTES:
0000
0000
0000
0000
,
0000
0000
0000
0000
,
0000
0000
0000
0000
,
0000
0000
0000
0000
,
0000
0000
0000
0000
,
0000
0000
0000
0000
,
1001
0000
1001
0000
,
0110
1000
0001
0010
,
0100
0000
0000
1000
0000
0001
0000
0100
,
0000
0000
0000
0010
0000
1000
0010
0000
,
0100
0000
0000
0001
0000
1000
0000
0100
,
0000
0000
0000
0010
0000
0001
1000
0000
,
0001
0000
0000
0100
0000
0001
0000
0010
,
0000
0000
0000
0100
0000
1000
0001
0000
,
1000
0000
0000
0100
0000
1000
0000
0010
,
0100
0100
0010
0010
,
1000
0100
1000
0100
,
0010
0001
0010
0000
,
0200
0320
0032
0023
,
0032
2003
3020
0030
,
0100
0001
0100
0001
,
1000
0100
1000
0100
,
0010
0001
0100
0010
,
1000
0001
0010
0100
,
1000
0000
0000
1001
0000
1000
0000
2010
,
0000
0010
0000
0001
,
0000
0000
0010
0000
3010
0100
0010
0100
,
0000
0000
0000
0000
,
0001
0000
1000
0000
0010
1000
0010
0000
,
0100
0000
0001
1000
0100
0000
0010
0000
,
0001
0000
0010
0100
1000
0000
0001
0000
,
0100
0001
1000
0001
0100
0000
0010
0000
,
1000
0000
0001
0000
0010
0001
0010
0000
,
0100
0000
1000
0001
0100
0000
0010
0000
,
1000
0000
0010
0100
0001
0000
1000
0000
,
0100
1000
0001
1000
0100
0000
0110
0000
,
0001
0000
1000
0000
0100
1000
0100
0000
,
0010
0000
0001
1000
0010
0000
0100
0000
,
0001
0000
0100
0010
1000
0000
0001
0000
,
0010
0001
1000
0001
0010
0000
0100
0000
,
1000
0000
0001
0000
0100
0001
0100
0000
,
0010
0000
1000
0001
0010
0000
0100
0000
,
1000
0000
0100
0010
0001
0000
1000
0000
,
0010
1000
0001
1000
0010
0000
0110
0000
,
0100
0000
0001
0000
1000
0100
0000
0010
,
0000
0100
1000
0000
0010
1000
0000
0001
,
0000
0000
0100
0000
0010
0100
0000
0001
,
0000
1000
0001
0000
0010
0000
0010
0000
,
0000
0000
0100
0000
1000
0001
0000
0100
,
0000
0010
0100
0000
0001
0000
0001
0000
,
0020
0230
2300
3002
,
0203
0320
1030
0001
,
0002
1000
0000
0100
,
0000
0000
1003
0000
0001
1000
0000
0000
,
0100
0000
1000
0100
0000
0000
0010
0000
0001
0010
0000
0000
,
0001
1000
1001
0001
,
0100
0000
0010
0000
1000
0010
0000
1000
,
0000
0001
0010
0000
0100
0010
0000
0000
,
0001
0000
1000
0000
0010
0100
0000
0010
,
0000
1000
0001
0000
0100
0000
0010
0000
,
2000
0001
0000
0100
,
0000
0000
3001
0000
1000
0001
0000
0000
,
0100
0000
0001
0100
0000
0000
0010
0000
1000
0010
0000
0000
,
1000
0100
1000
1000
,
0100
0000
0010
0000
0001
0010
0000
0001
,
0000
1000
0010
0000
0100
0010
0000
0000
,
1000
0000
0100
0000
0010
0001
0000
0100
,
0000
0010
1000
0001
,
0020
0100
0000
0001
,
0000
0100
0000
0001
,
0230
0010
0000
1000
,
0300
0100
1000
1001
,
0001
0000
0100
0010
0000
0000
1000
0000
0000
0001
0000
0000
,
0010
0000
0100
1000
0000
0000
0001
0000
0000
0100
0000
0000
,
0110
0010
1000
0001
,
1001
1000
0010
1000
,
0001
0000
0010
0000
0100
1000
0010
0000
,
1000
0000
0100
0010
0001
0000
1000
0000
,
0010
0000
0100
0010
1000
0000
0001
0000
,
0010
0001
0100
0001
0010
0000
0100
0000
,
1000
0000
0010
0000
0100
0001
0010
0000
,
0001
0000
0100
0010
1000
0000
0001
0000
,
0010
0000
0100
0010
0001
0000
1000
0000
,
0010
1000
0100
1000
0010
0000
1001
0000
,
0001
0000
0100
0000
0010
1000
0100
0000
,
1000
0000
0010
0100
0001
0000
1000
0000
,
0100
0000
0010
0100
1000
0000
0001
0000
,
0100
0001
0010
0001
0100
0000
0010
0000
,
1000
0000
0100
0000
0010
0001
0100
0000
,
0001
0000
0010
0100
1000
0000
0001
0000
,
0100
0000
0010
0100
0001
0000
1000
0000
,
0100
1000
0010
1000
0100
0000
1001
0000
,
0001
0000
0001
0000
0100
0010
0100
0000
,
0001
1000
1100
0010
,
0011
0000
1000
0001
1000
0000
0010
0000
,
0100
0010
0100
0010
1000
0000
0001
0000
,
1000
0000
1000
0000
0100
0010
0100
0000
,
1000
0001
0101
0010
,
1010
0000
0001
1000
0001
0000
0010
0000
,
0100
0010
0001
1000
0010
0000
0100
0000
,
1001
0000
0000
0000
,
1001
0000
1000
0001
0020
0000
0000
0000
,
0000
0000
0000
0000
,
0000
0000
0000
0000
,
0030
0000
0000
0000
;

//--------------- dance-single - ----------------
#NOTEDATA:;
#STEPSTYPE:dance-single;
#DESCRIPTION:;
#DIFFICULTY:Medium;
#METER:14;
#RADARVALUES:0.694674,0.712285,0.136978,0.235906,0.273956,639,621,18,31,0,0,0,0,0,0.694674,0.712285,0.136978,0.235906,0.273956,639,621,18,31,0,0,0,0,0;
#CHARTNAME:;
#CHARTHASH:3990664088;
#BANNER:;
#CHARTSTYLE:;
#METERF:0.000000;
#LASTSECONDHINT:130.174744;
#CREDIT:ZSL;
#NOTES:
0000
0000
0000
0000
,
0000
0000
0000
0000
,
0000
0000
0000
0000
,
0000
0000
0000
0000
,
0000
0000
0000
0000
,
0000
0000
0000
1000
,
1001
0000
0000
0001
0000
0000
0010
0000
,
0110
0000
0100
0000
1000
0001
0100
0010
,
1000
0000
0001
0010
0000
0100
0010
0001
,
1000
0000
0001
0100
0000
0010
0100
0000
,
0001
0000
1000
0010
0000
0100
0010
1000
,
0001
0000
1000
0100
0000
0010
0001
0100
,
0010
0000
1000
0001
0000
0010
0100
0010
,
0001
0000
1000
0010
0000
0100
0001
0000
,
1000
0000
0100
0010
0000
0100
1000
0010
,
0100
0000
0100
0000
0001
0001
1000
0100
,
0010
0010
0100
0100
,
1000
0000
1000
0000
0001
1000
0001
0000
,
0200
0320
0230
0302
0203
0320
0230
0000
,
0302
2003
3002
0023
0032
2003
3001
0000
,
1000
1000
0010
0010
,
0100
0000
0100
0000
0001
1000
0001
0000
,
0010
0100
1000
0000
0010
0100
0001
0000
,
0010
0100
1000
0000
0001
1000
0010
0100
,
0001
0000
1000
1100
0000
0001
0100
0210
,
0000
0010
0010
0010
,
0010
0000
0000
0000
0010
0000
0000
0000
0301
0000
1000
0000
0001
0000
1000
0001
,
0000
0000
0000
0100
0000
0000
0001
1000
0001
1000
0000
0000
,
0001
0010
0001
1000
0010
1000
0001
0000
,
0010
0000
0000
0100
0000
0000
1000
0000
0000
0001
0000
0000
0100
0000
0000
0010
0000
0000
1000
0000
0010
0000
1000
0000
,
0010
0000
1000
0001
0010
0001
1000
0000
,
0100
1000
0100
0000
1000
0100
1000
0000
0001
0000
0100
0000
0010
0000
0000
0000
,
1000
0010
1000
0001
0010
0001
1000
0000
,
0010
0000
0000
0100
0000
0000
0001
0000
0000
1000
0000
0000
0100
0000
0000
0010
0000
0000
0001
0000
0010
0000
0001
0000
,
0010
0000
0001
1000
0010
1000
0001
0000
,
0100
0001
0100
0000
0001
0100
0001
0000
1000
0000
0000
0000
1001
0000
0000
0000
,
0001
0100
0001
1000
0100
1000
0001
0000
,
0100
0000
0000
0010
0000
0000
1000
0000
0000
0001
0000
0000
0010
0000
0000
0100
0000
0000
1000
0000
0100
0000
1000
0000
,
0100
0000
1000
0001
0100
0001
1000
0000
,
0010
1000
0010
0000
1000
0010
1000
0000
0001
0000
0010
0000
0100
0000
0000
0000
,
1000
0100
1000
0001
0100
0001
1000
0000
,
0100
0000
0000
0010
0000
0000
0001
0000
0000
1000
0000
0000
0010
0000
0000
0100
0000
0000
0001
0000
0100
0000
0001
0000
,
0100
0000
0001
1000
0100
1000
0001
0000
,
0010
0001
0010
0000
0001
0010
0001
0000
1000
0000
0000
0000
1010
0000
0000
0000
,
0010
0000
0100
0000
0001
1000
0000
0100
,
0000
0010
0100
1000
0010
0100
0000
0101
,
0000
0000
0001
0000
1000
0100
1000
0010
,
0000
1000
0100
0000
0010
0001
0010
0001
,
1000
0000
0010
0000
0100
0001
0000
0010
,
0000
0001
0100
0010
1000
0100
0010
0000
,
0200
2300
3020
2030
3200
2300
3002
0000
,
0023
0000
0032
0000
0203
0000
0302
0000
0013
0000
0001
0000
1000
0010
1000
0000
,
0020
1000
0100
0100
,
1000
0000
1030
0000
0001
0010
0100
0000
,
1000
0100
1000
0100
0000
0000
1000
0010
1000
0010
0000
0000
,
0100
0000
0000
0000
0000
0000
0000
0000
0000
0000
0000
0000
0000
0000
0000
0000
0000
0000
0000
0001
0000
0000
0000
0000
0000
0000
0000
0000
0000
0000
0000
0000
0000
0000
0000
0000
0000
0000
1000
0000
0000
0000
0000
0000
0000
0000
0000
0000
0000
0000
0000
0000
0000
0000
0000
0000
0000
0000
0100
0000
0000
0000
0000
0000
0000
0000
0000
0000
0000
0000
0000
0000
0000
0000
0000
0000
0000
0000
0000
0000
0000
0000
0000
0000
0000
0000
0000
0000
0000
0000
0000
0000
0000
0000
0000
0000
0010
0000
0000
0000
0000
0000
0000
0000
0000
0000
0000
0000
0000
0000
0000
0000
0000
0000
0000
0001
0000
0000
0000
0000
0000
0000
0000
0000
0000
0000
0000
0000
0000
0000
0000
0000
0000
0000
1000
0000
0000
0000
0000
0000
0000
0000
0000
0000
0000
0000
0000
0000
0000
0000
0000
0000
0000
0000
0010
0000
0000
0000
0000
0000
0000
0000
0000
0000
0000
0000
0000
0000
0000
0000
0000
0000
0000
0000
0000
0000
0000
0000
0000
0000
0000
0000
0000
0000
0000
0000
0000
0000
0000
0000
0000
0000
,
0100
0000
0001
1000
0001
0010
0000
0110
,
0000
0100
1000
0000
1001
0001
0000
0000
,
0101
0000
0100
0000
0010
1000
0001
0011
,
0000
0000
0010
0000
0100
0000
0000
0000
1000
0001
1000
0000
0100
0000
0000
0000
,
0020
0001
0100
0100
,
0001
0000
0031
0000
1000
0010
0100
0000
,
0001
0100
0001
0100
0000
0000
0001
0010
0001
0010
0000
0000
,
0100
0000
0010
0001
0100
0010
1000
0000
,
0100
0000
1000
0001
1000
0010
0000
0110
,
0000
0100
0001
0000
1001
1000
0000
0000
,
0110
0000
1000
0000
0001
0010
0100
1100
,
0000
0000
0001
0000
0100
0000
0000
0000
0010
0100
0010
0000
1000
0000
0000
0000
,
0002
0000
0100
0000
0000
1000
1000
0000
,
0100
0000
1000
1000
0000
0100
0100
0000
,
2003
0000
0100
0000
0000
0001
0001
0000
,
3100
0000
0000
1000
0000
0000
0001
1000
0001
1000
0000
0000
,
0010
0000
0010
0100
0000
0100
0001
0000
0001
0010
0000
0010
,
0100
0000
0100
1000
0000
1000
0010
0000
0010
0100
0000
0100
,
0001
0001
1000
1000
,
0100
0000
0000
0010
0000
0000
0100
0000
0000
0000
0000
0000
1000
0000
0000
0000
0000
0000
0000
0000
0000
0000
0000
0000
0010
0000
0000
0000
0100
0000
0000
0000
0010
0000
0000
0000
0100
0000
0000
0000
0000
0000
0000
0000
0000
0000
0000
0000
,
0001
0100
0010
1000
0100
0010
0001
0000
,
0010
0000
0000
0100
0000
0000
1000
0000
0000
0010
0000
0000
0100
0000
0000
0010
0000
0000
1000
0000
0001
0000
1000
0000
,
0100
0000
0010
0001
0100
0001
0010
0000
,
0100
1000
0100
0000
0010
0001
0010
0000
0001
0000
1000
0000
0010
0000
0000
0000
,
1000
0100
0010
0001
0100
0010
1000
0000
,
0010
0000
0000
0100
0000
0000
0001
0000
0000
0010
0000
0000
0100
0000
0000
0010
0000
0000
0001
0000
1000
0000
0001
0000
,
0100
0000
0010
1000
0100
1000
0010
0000
,
0100
0001
0100
0000
0010
1000
0010
0000
1000
0000
0000
0000
1001
0000
0000
0000
,
0001
0010
0100
1000
0010
0100
0001
0000
,
0100
0000
0000
0010
0000
0000
1000
0000
0000
0100
0000
0000
0010
0000
0000
0100
0000
0000
1000
0000
0001
0000
1000
0000
,
0010
0000
0100
0001
0010
0001
0100
0000
,
0010
1000
0010
0000
0100
0001
0100
0000
0001
0000
1000
0000
0100
0000
0000
0000
,
1000
0010
0100
0001
0010
0100
1000
0000
,
0100
0000
0000
0010
0000
0000
0001
0000
0000
0100
0000
0000
0010
0000
0000
0100
0000
0000
0001
0000
1000
0000
0001
0000
,
0010
0000
0100
1000
0010
1000
0100
0000
,
0010
0001
0010
0000
0100
1000
0100
0000
1000
0000
0000
0000
1010
0000
0000
0000
,
0010
0010
1000
1000
0100
0010
0001
0000
,
0100
0000
0000
0001
0000
0000
1000
0000
0000
0001
0000
0000
0010
0000
0000
0100
0000
0000
1000
0000
0100
0000
0010
0000
,
0001
0000
0100
0010
0100
0001
1000
0000
,
0001
1000
0001
1000
0010
0100
0001
0000
,
0010
0010
0001
0001
0100
0010
1000
0000
,
0100
0000
0000
1000
0000
0000
0001
0000
0000
1000
0000
0000
0010
0000
0000
0100
0000
0000
0001
0000
0100
0000
0010
0000
,
1000
0000
0100
0010
0100
1000
0001
0000
,
1000
0000
0001
0000
1000
0000
0001
0000
0100
0000
0010
0000
0100
0000
0010
1000
,
0001
0000
0000
0000
,
0010
0000
0100
0000
0010
0000
0001
0000
0000
1000
0000
0000
2002
0000
0000
0000
0000
0000
0000
0000
0000
0000
0000
0000
,
0000
0000
0000
0000
,
0000
0000
0000
0000
,
3003
0000
0000
0000
;

//--------------- dance-single - ----------------
#NOTEDATA:;
#STEPSTYPE:dance-single;
#DESCRIPTION:;
#DIFFICULTY:Hard;
#METER:16;
#RADARVALUES:0.88166,0.989285,0.106538,0.243516,0.741964,811,797,14,32,0,0,0,0,0,0.88166,0.989285,0.106538,0.243516,0.741964,811,797,14,32,0,0,0,0,0;
#CHARTNAME:;
#CHARTHASH:1715196269;
#BANNER:;
#CHARTSTYLE:;
#METERF:16.000000;
#LASTSECONDHINT:130.174744;
#CREDIT:ZSL;
#NOTES:
0000
0000
0000
0000
,
0000
0000
0000
0000
,
0000
0000
0000
0000
,
0000
0000
0000
0000
,
0000
0000
0000
0000
,
0000
0000
0000
1000
,
1010
0000
0000
0001
0000
0000
0010
0000
,
0110
0000
0000
0000
1100
0000
0000
0000
1000
0000
0001
0000
0100
0010
0100
0010
,
1000
0010
1000
0001
0000
0010
0100
1000
,
0001
0000
1000
0010
0000
0100
0001
0000
,
1000
0100
1000
0001
0000
0100
0010
1000
,
0001
0000
1000
0100
0010
0001
0100
0010
,
0100
0001
1000
0100
0000
0010
0100
1000
,
0010
0000
0100
0001
0000
1000
0010
0000
,
1000
0100
0010
0001
0000
0010
0001
0100
,
0010
0000
0000
0000
0010
0000
0000
0000
0100
0000
0100
0000
0001
1000
0001
1000
,
0001
0010
0100
1000
0001
0010
0100
1000
,
0001
1000
0001
1000
0001
0100
0010
0000
,
2000
3200
0320
0230
2300
3200
0320
0230
,
2300
3002
0203
0302
0023
0032
0103
0000
,
0010
0100
0010
0100
0010
1000
0010
1000
,
0001
0010
0001
0010
0001
1000
0100
0000
,
0010
0001
0010
0001
1000
0010
1000
0010
,
0100
0000
0001
0000
0010
0000
0100
0000
1000
0000
0100
0000
1000
0010
1000
0010
,
1000
0001
0010
0110
0000
0010
0001
0201
,
0000
0010
0010
0010
,
0010
0000
0000
0000
0010
0000
0000
0000
0301
1000
0001
1000
0001
1000
0001
1000
,
0000
0000
0000
0001
0000
0000
0010
0100
1000
0001
0000
0000
,
1000
0000
0010
0000
0100
0000
0010
1000
0001
0000
1000
0001
0010
0000
0000
0000
,
0100
0000
0000
0000
0000
0000
1000
0000
0000
0100
0000
0000
1000
0000
0000
0000
0000
0000
0001
0000
0000
0100
0000
0000
0001
0000
0000
0000
0000
0000
1000
0000
0000
0000
0000
0000
0010
0000
0000
0000
1000
0000
0000
0000
0001
0000
0000
0000
,
0010
0000
0100
0010
0001
0000
1000
0001
0100
0000
0010
0000
1000
0000
0000
0000
,
0100
1000
0100
1000
0100
1000
0100
1000
0100
0000
0010
0000
0001
0000
0000
0000
,
1000
0000
0100
0000
0010
0000
0100
1000
0001
0000
1000
0001
0100
0000
0000
0000
,
0010
0000
0000
0000
0000
0000
1000
0000
0000
0010
0000
0000
1000
0000
0000
0000
0000
0000
0001
0000
0000
0010
0000
0000
0001
0000
0000
0000
0000
0000
1000
0000
0000
0000
0000
0000
0100
0000
0000
0000
1000
0000
0000
0000
0001
0000
0000
0000
,
0100
0000
0010
0100
0001
0000
1000
0001
0010
0000
0100
0000
1000
0000
0000
0000
,
0010
0000
0000
1000
0000
0000
0010
0000
0000
1000
0000
0000
0010
0000
0000
1000
0000
0000
0010
0000
0000
1000
0000
0000
0010
0000
0000
0000
0100
0000
0000
0000
0001
0000
0000
0000
1000
0000
0000
0000
0000
0000
0000
0000
0000
0000
0000
0000
,
0001
0000
0010
0000
0100
0000
0010
0001
1000
0000
0001
1000
0010
0000
0000
0000
,
0100
0000
0000
0000
0000
0000
0001
0000
0000
0100
0000
0000
0001
0000
0000
0000
0000
0000
1000
0000
0000
0100
0000
0000
1000
0000
0000
0000
0000
0000
0001
0000
0000
0000
0000
0000
0010
0000
0000
0000
0001
0000
0000
0000
1000
0000
0000
0000
,
0010
0000
0100
0010
1000
0000
0001
1000
0100
0000
0010
0000
0001
0000
0000
0000
,
0100
0001
0100
0001
0100
0001
0100
0001
0100
0000
0010
0000
1000
0000
0000
0000
,
0001
0000
0100
0000
0010
0000
0100
0001
1000
0000
0001
1000
0100
0000
0000
0000
,
0010
0000
0000
0000
0000
0000
0001
0000
0000
0010
0000
0000
0001
0000
0000
0000
0000
0000
1000
0000
0000
0010
0000
0000
1000
0000
0000
0000
0000
0000
0001
0000
0000
0000
0000
0000
0100
0000
0000
0000
0001
0000
0000
0000
1000
0000
0000
0000
,
0100
0000
0010
0100
1000
0000
0001
1000
0010
0000
0100
0000
0001
0000
0000
0000
,
0010
0000
0000
0001
0000
0000
0010
0000
0000
0001
0000
0000
0010
0000
0000
0001
0000
0000
0010
0000
0000
0001
0000
0000
0010
0000
0000
0000
0100
0000
0000
0000
1000
0000
0000
0000
0001
0000
0000
0000
0000
0000
0000
0000
0000
0000
0000
0000
,
1000
0000
0010
0100
0001
1000
0001
0010
,
0100
1000
0001
0100
0010
1000
0000
0001
,
0100
0010
1000
0001
0010
0100
0010
0001
,
0000
1000
0010
0000
1000
1000
0001
0001
,
0010
0000
0100
0010
0100
1000
0000
0010
,
0100
0001
0100
0010
1000
0001
0010
0000
,
0200
0320
0032
0023
0230
0320
0032
2003
,
3020
0000
2030
0000
3200
0000
2300
0000
3010
0000
0010
0000
1000
0001
1000
0001
,
2000
0001
0010
0001
,
0100
0000
3010
0000
0100
0001
1000
0000
,
0001
0010
0001
0010
0100
0010
0100
1000
0100
1000
0001
1000
,
0010
0000
0000
0000
0000
0000
0000
0000
0000
0000
0000
0000
0000
0000
0000
0000
0000
0000
0000
0100
0000
0000
0000
0000
0000
0000
0000
0000
0000
0000
0000
0000
0000
0000
0000
0000
0000
0000
0001
0000
0000
0000
0000
0000
0000
0000
0000
0000
0000
0000
0000
0000
0000
0000
0000
0000
0000
0000
0100
0000
0000
0000
0000
0000
0000
0000
0000
0000
0000
0000
0000
0000
0000
0000
0000
0000
0000
0010
0000
0000
0000
0000
0000
0000
0000
0000
0000
0000
0000
0000
0000
0000
0000
0000
0000
0000
1000
0000
0000
0000
0000
0000
0000
0000
0000
0000
0000
0000
0000
0000
0000
0000
0000
0000
0000
0001
0000
0000
0000
0000
0000
0000
0000
0000
0000
0000
0000
0000
0000
0000
0000
0000
0000
0000
0010
0000
0000
0000
0000
0000
0000
0000
0000
0000
0000
0000
0000
0000
0000
0000
0000
0000
0000
0000
0100
0000
0000
0000
0000
0000
0000
0000
0000
0000
0000
0000
0000
0000
0000
0000
0000
0000
0000
1000
0000
0000
0000
0000
0000
0000
0000
0000
0000
0000
0000
0000
0000
0000
0000
0000
0000
0000
,
0001
0000
0100
0010
1000
0010
1000
1001
,
0000
0001
0010
0100
1100
1000
0000
0000
,
1001
0000
1000
0010
0100
0001
0010
0110
,
0000
0000
0100
0000
1000
0000
0000
0000
0100
0010
0100
0010
0001
0000
1000
0000
,
0002
1000
0010
1000
,
0100
0000
0013
0000
0100
1000
0001
0000
,
1000
0010
1000
0010
0100
0010
0100
0001
0100
0001
1000
0001
,
0010
0000
0000
0000
0001
0000
1000
0000
0010
0100
0010
0100
0001
0000
0000
0000
,
1000
0000
0100
0010
0001
0010
0001
1001
,
0000
1000
0010
0100
0101
0001
0000
0000
,
1010
0000
1000
0001
0010
0100
1000
1001
,
0000
0000
0001
0000
0100
0000
0000
0000
0010
1000
0010
1000
0001
0000
0000
0000
,
2000
0000
0010
0000
0000
0001
0010
0000
,
0100
0000
0010
0001
0000
0001
0010
0000
,
3002
0000
0010
0000
0000
1000
0010
0000
,
0103
0000
0000
0001
0000
0000
1000
0100
0010
0001
0000
0000
,
1000
0010
0100
0010
1000
0100
0010
0100
1000
0001
0000
0000
,
0100
0010
0100
0001
0010
0001
0100
0010
1000
0001
0000
0000
,
0010
0100
0010
0001
0100
0010
1000
0010
,
1000
0000
0000
0001
0000
0000
1000
0000
0000
0000
0000
0000
0100
0000
0000
0000
0000
0000
0010
0000
0000
0000
0000
0000
0001
0000
0000
0000
1000
0000
0000
0000
0010
0000
0000
0000
0100
0000
0000
0000
0000
0000
0000
0000
0000
0000
0000
0000
,
0001
0000
1000
0010
1000
0000
0001
0010
0100
0000
1000
0001
0100
0000
0000
0000
,
0010
0000
0000
0000
0000
0000
1000
0000
0000
0001
0000
0000
1000
0000
0000
0000
0000
0000
0100
0000
0000
1000
0000
0000
0010
0000
0000
0000
0000
0000
0100
0000
0000
0000
0000
0000
0001
0000
0000
0000
1000
0000
0000
0000
0100
0000
0000
0000
,
0010
0000
0001
0100
0010
0000
0100
0001
0010
0000
0100
1000
0100
0000
0000
0000
,
1000
0001
0010
0001
1000
0001
0010
0001
1000
0000
0010
0000
0100
0000
0000
0000
,
0001
0000
1000
0100
1000
0000
0001
0100
0010
0000
1000
0001
0010
0000
0000
0000
,
0100
0000
0000
0000
0000
0000
1000
0000
0000
0001
0000
0000
1000
0000
0000
0000
0000
0000
0010
0000
0000
1000
0000
0000
0100
0000
0000
0000
0000
0000
0010
0000
0000
0000
0000
0000
0001
0000
0000
0000
1000
0000
0000
0000
0010
0000
0000
0000
,
0100
0000
0001
0010
0100
0000
0010
0001
0100
0000
0010
1000
0010
0000
0000
0000
,
1000
0000
0000
0001
0000
0000
0100
0000
0000
0001
0000
0000
1000
0000
0000
0001
0000
0000
0100
0000
0000
0001
0000
0000
1000
0000
0000
0000
0001
0000
0000
0000
0010
0000
0000
0000
0100
0000
0000
0000
0000
0000
0000
0000
0000
0000
0000
0000
,
1000
0000
0001
0010
0001
0000
1000
0010
0100
0000
0001
1000
0100
0000
0000
0000
,
0010
0000
0000
0000
0000
0000
0001
0000
0000
1000
0000
0000
0001
0000
0000
0000
0000
0000
0100
0000
0000
0001
0000
0000
0010
0000
0000
0000
0000
0000
0100
0000
0000
0000
0000
0000
1000
0000
0000
0000
0001
0000
0000
0000
0100
0000
0000
0000
,
0010
0000
1000
0100
0010
0000
0100
1000
0010
0000
0100
0001
0100
0000
0000
0000
,
0001
1000
0010
1000
0001
1000
0010
1000
0001
0000
0010
0000
0100
0000
0000
0000
,
1000
0000
0001
0100
0001
0000
1000
0100
0010
0000
0001
1000
0010
0000
0000
0000
,
0100
0000
0000
0000
0000
0000
0001
0000
0000
1000
0000
0000
0001
0000
0000
0000
0000
0000
0010
0000
0000
0001
0000
0000
0100
0000
0000
0000
0000
0000
0010
0000
0000
0000
0000
0000
1000
0000
0000
0000
0001
0000
0000
0000
0010
0000
0000
0000
,
0100
0000
1000
0010
0100
0000
0010
1000
0100
0000
0010
0001
0010
0000
0000
0000
,
0001
0000
0000
1000
0000
0000
0100
0000
0000
1000
0000
0000
0001
0000
0000
1000
0000
0000
0100
0000
0000
1000
0000
0000
0001
0000
0000
0000
1000
0000
0000
0000
0010
0000
0000
0000
0100
0000
0000
0000
0000
0000
0000
0000
0000
0000
0000
0000
,
0001
0000
0001
0000
1000
0000
1000
0000
0100
0010
0100
0000
1000
0000
0000
0000
,
0001
0000
0000
0000
0000
0000
0100
0000
0000
0001
0000
0000
0100
0000
0000
0000
0000
0000
0010
0000
0000
0000
0000
0000
1000
0000
0000
0000
0000
0000
0001
0000
0000
0000
0000
0000
0010
0000
0000
0000
0100
0000
0000
0000
0010
0000
0000
0000
,
0001
0000
0100
0000
0010
0000
1000
0000
0100
1000
0100
0000
0010
0000
0000
0000
,
0001
1000
0001
1000
0010
1000
0010
1000
0001
0000
0010
0000
0100
0000
0000
0000
,
1000
0000
1000
0000
0001
0000
0001
0000
0100
0010
0100
0000
0001
0000
0000
0000
,
1000
0000
0000
0000
0000
0000
0100
0000
0000
1000
0000
0000
0100
0000
0000
0000
0000
0000
0010
0000
0000
0000
0000
0000
0001
0000
0000
0000
0000
0000
1000
0000
0000
0000
0000
0000
0010
0000
0000
0000
0100
0000
0000
0000
0010
0000
0000
0000
,
1000
0000
0100
0000
0010
0000
0001
0000
0100
0001
0100
0000
0010
0000
0000
0000
,
1000
0001
1000
0001
0010
0001
0010
0001
1000
0000
0010
0000
0100
0000
0001
0000
,
0101
0000
0000
0000
,
1000
0000
0000
0000
0100
0000
0000
0000
0010
0000
0000
0000
0001
0000
0000
1000
0000
0000
0001
0000
0000
1000
0000
0000
0002
0000
0000
0000
0000
0000
0000
0000
0000
0000
0000
0000
0000
0000
0000
0000
0000
0000
0000
0000
0000
0000
0000
0000
,
0000
0000
0000
0000
,
0000
0000
0000
0000
,
0003
0000
0000
0000
;

//--------------- dance-single - ----------------
#NOTEDATA:;
#STEPSTYPE:dance-single;
#DESCRIPTION:;
#DIFFICULTY:Challenge;
#METER:18;
#RADARVALUES:1.033857,1.108,0.205467,0.243516,1.084409,951,924,27,32,0,0,0,0,0,1.033857,1.108,0.205467,0.243516,1.084409,951,924,27,32,0,0,0,0,0;
#CHARTNAME:;
#CHARTHASH:1265022286;
#BANNER:;
#CHARTSTYLE:;
#METERF:0.000000;
#LASTSECONDHINT:130.174744;
#CREDIT:ZSL;
#NOTES:
0000
0000
0000
0000
,
0000
0000
0000
0000
,
0000
0000
0000
0000
,
0000
0000
0000
0000
,
0000
0000
0000
0000
,
0000
0000
0000
1000
,
1001
0000
0000
0101
0000
0000
0010
0000
,
1010
0000
0000
0000
1100
0000
0000
0000
0100
0010
0001
1000
0010
0100
0001
1000
,
0100
0010
0001
1000
0000
0001
0100
0110
,
0010
0000
1000
0001
0010
0001
1000
0000
,
0010
0100
0001
1000
0000
0001
0010
0110
,
0100
0000
1000
0010
0100
0001
0010
0100
,
0010
0001
1000
0010
0000
0100
0001
1001
,
1000
0000
0001
0010
0100
1000
0001
0000
,
0100
0010
1000
0100
0000
0010
0100
1100
,
1000
0000
0000
0000
1000
0000
0000
0000
0001
0000
0001
0000
0100
0010
1000
0001
,
0010
0100
1000
0100
0010
0100
1000
0001
,
0100
0001
1000
0001
0100
0001
0010
0000
,
2000
3020
0230
0320
0032
2003
3020
0230
,
2300
3200
0320
0230
0302
0023
0130
0000
,
1000
0100
1000
0100
0010
0001
0010
0001
,
1000
0010
0100
0001
1000
0100
0010
0000
,
0100
1000
0010
1000
0100
0010
0001
0100
,
0010
0000
0100
0000
0010
0000
1000
0000
0100
1000
0001
0010
0100
1000
0010
0100
,
0001
0100
0010
1010
0000
1000
0100
0021
,
0000
0001
0001
0001
,
0001
0000
0000
0000
0001
0000
0000
0000
0130
1000
0010
1000
0100
0010
0001
0100
,
0000
0000
0000
0010
0000
0000
0100
0010
0100
0101
0000
0000
,
0001
0000
1000
0100
1000
0000
0100
0010
0100
1000
0001
0100
0010
0000
1000
0000
,
0001
0000
0000
0000
0000
0000
0010
0000
0000
0100
0000
0000
0010
0000
0000
0001
0000
0000
1000
0000
0000
0010
0000
0000
0100
0000
0000
0000
0000
0000
0010
0000
0000
1000
0000
0000
0001
0000
0000
0000
0010
0000
0000
0000
0100
0000
0000
0000
,
1000
0000
0010
1000
0001
0000
1000
0010
0100
0010
1000
0001
0010
0000
0100
0000
,
0010
0000
0000
0001
0000
0000
0100
0000
0000
0001
0000
0000
0010
0000
0000
0001
0000
0000
0100
0000
0000
0001
0000
0000
0010
0000
0000
0000
0000
0000
0100
0000
0000
1000
0000
0000
0001
0000
0000
0000
0001
0000
0000
0000
0000
0000
0000
0000
,
1000
0000
0001
0100
0001
0000
0100
0010
0100
0001
1000
0100
0010
0000
0001
0000
,
1000
0000
0000
0000
0000
0000
0010
0000
0000
0100
0000
0000
0010
0000
0000
1000
0000
0000
0001
0000
0000
0010
0000
0000
0100
0000
0000
0000
0000
0000
0010
0000
0000
0001
0000
0000
1000
0000
0000
0000
0010
0000
0000
0000
0100
0000
0000
0000
,
0001
0000
0010
0001
1000
0000
0001
0010
0100
0010
0001
1000
0010
0000
0100
0000
,
0010
0000
0000
1000
0000
0000
0100
0000
0000
1000
0000
0000
0010
0000
0000
1000
0000
0000
0100
0000
0000
1000
0000
0000
0010
0000
0000
0000
0100
0000
0000
0000
0001
0000
0000
0000
1000
0000
0000
0001
0000
0000
1000
0000
0000
0000
0000
0000
,
0001
0000
1000
0010
1000
0000
0010
0100
0010
1000
0001
0010
0100
0000
1000
0000
,
0001
0000
0000
0000
0000
0000
0100
0000
0000
0010
0000
0000
0100
0000
0000
0001
0000
0000
1000
0000
0000
0100
0000
0000
0010
0000
0000
0000
0000
0000
0100
0000
0000
1000
0000
0000
0001
0000
0000
0000
0100
0000
0000
0000
0010
0000
0000
0000
,
1000
0000
0100
1000
0001
0000
1000
0100
0010
0100
1000
0001
0100
0000
0010
0000
,
0100
0000
0000
0001
0000
0000
0010
0000
0000
0001
0000
0000
0100
0000
0000
0001
0000
0000
0010
0000
0000
0001
0000
0000
0100
0000
0000
0000
0000
0000
0010
0000
0000
1000
0000
0000
0001
0000
0000
0000
0001
0000
0000
0000
0000
0000
0000
0000
,
1000
0000
0001
0010
0001
0000
0010
0100
0010
0001
1000
0010
0100
0000
0001
0000
,
1000
0000
0000
0000
0000
0000
0100
0000
0000
0010
0000
0000
0100
0000
0000
1000
0000
0000
0001
0000
0000
0100
0000
0000
0010
0000
0000
0000
0000
0000
0100
0000
0000
0001
0000
0000
1000
0000
0000
0000
0100
0000
0000
0000
0010
0000
0000
0000
,
0001
0000
0100
0001
1000
0000
0001
0100
0010
0100
0001
1000
0100
0000
0010
0000
,
0100
0000
0000
1000
0000
0000
0010
0000
0000
1000
0000
0000
0100
0000
0000
1000
0000
0000
0010
0000
0000
1000
0000
0000
0100
0000
0000
0000
0010
0000
0000
0000
0001
0000
0000
0000
1000
0000
0000
0001
0000
0000
1000
0000
0000
0010
0000
0000
,
0100
0000
0010
1000
0100
0010
0001
1000
,
0001
0100
0010
1000
0100
0010
0100
1000
,
0001
0100
0010
0100
0001
0010
0001
0100
,
0010
1000
0001
0010
0100
0100
1000
1000
,
0001
0000
0100
0010
1000
0001
1000
0100
,
0010
0001
1000
0010
0100
0001
0010
0000
,
2000
3020
0032
0203
2300
3200
0302
0023
,
2030
0000
3020
0000
0032
0000
2003
0000
3010
0000
0010
0000
0100
0010
1000
0001
,
0200
0010
1000
0010
,
0001
0000
1300
0000
0100
0001
1000
0000
,
0001
0100
0010
0001
0010
0100
0001
0010
0100
0001
0100
0010
,
0001
0000
0000
0000
0000
0000
0000
0000
0000
0000
0000
0000
0000
0000
0000
0000
0000
0000
0000
1000
0000
0000
0000
0000
0000
0000
0000
0000
0000
0000
0000
0000
0000
0000
0000
0000
0000
0000
0010
0000
0000
0000
0000
0000
0000
0000
0000
0000
0000
0000
0000
0000
0000
0000
0000
0000
0000
0000
0100
0000
0000
0000
0000
0000
0000
0000
0000
0000
0000
0000
0000
0000
0000
0000
0000
0000
0000
0001
0000
0000
0000
0000
0000
0000
0000
0000
0000
0000
0000
0000
0000
0000
0000
0000
0000
0000
0010
0000
0000
0000
0000
0000
0000
0000
0000
0000
0000
0000
0000
0000
0000
0000
0000
0000
0000
0100
0000
0000
0000
0000
0000
0000
0000
0000
0000
0000
0000
0000
0000
0000
0000
0000
0000
0000
1000
0000
0000
0000
0000
0000
0000
0000
0000
0000
0000
0000
0000
0000
0000
0000
0000
0000
0000
0000
0001
0000
0000
0000
0000
0000
0000
0000
0000
0000
0000
0000
0000
0000
0000
0000
0000
0000
0000
0100
0000
0000
0000
0000
0000
0000
0000
0000
0000
0000
0000
0000
0000
0000
0000
0000
0000
0000
,
0110
0010
1000
0001
0011
0100
1000
1001
,
0001
0100
0010
1000
1010
0001
0000
0000
,
0011
0010
0100
1000
1010
0001
0100
0110
,
0000
0000
1000
0000
0010
0000
0100
0000
0001
1000
0010
0100
0001
0010
0001
1000
,
0200
0010
0001
0010
,
1000
0000
0301
0000
0100
1000
0001
0000
,
1000
0100
0010
1000
0010
0100
1000
0010
0100
1000
0100
0010
,
1000
0000
0000
0000
0000
0000
0000
0000
0000
0000
0000
0000
0000
0000
0000
0000
0001
0000
0000
0000
0000
0000
0000
0000
0000
0000
0000
0000
0000
0000
0000
0000
0010
0000
0000
0000
0000
0000
0000
0000
0000
0000
0000
0000
0000
0000
0000
0000
0100
0000
0000
0000
0000
0000
0000
0000
0000
0000
0000
0000
1000
0000
0000
0000
0000
0000
0000
0000
0000
0000
0000
0000
0001
0000
0000
0000
0000
0000
0000
0000
0000
0000
0000
0000
1000
0000
0000
0000
0000
0000
0000
0000
0000
0000
0000
0000
0010
0000
0000
0000
0000
0000
0000
0000
0000
0000
0000
0000
0100
0000
0000
0000
0000
0000
0000
0000
0000
0000
0000
0000
0001
0000
0000
0000
0000
0000
0000
0000
0000
0000
0000
0000
1000
0000
0000
0000
0000
0000
0000
0000
0000
0000
0000
0000
0100
0000
0000
0000
0000
0000
0000
0000
0000
0000
0000
0000
0000
0000
0000
0000
0000
0000
0000
0100
0000
0000
0000
0000
0000
0000
0000
0000
0000
0000
0000
0000
0000
0000
0000
0000
0000
0000
0000
0000
0000
0000
0000
0000
0000
0000
0000
0000
,
0110
0010
0001
1000
1010
0100
0001
1001
,
1000
0100
0010
0001
0011
1000
0000
0000
,
1100
0100
0010
0001
0110
1000
0010
0101
,
0000
0000
0001
0000
0010
0000
0100
0000
1000
0001
0010
0100
1000
0010
1000
0001
,
0200
0000
0010
0000
0000
1000
0010
0000
,
0001
0000
0001
0010
0000
0010
0001
0000
,
0320
0000
0100
0000
0000
0001
0100
0000
,
1030
0000
0000
0001
0000
0000
0010
0100
1000
1001
0000
0000
,
1000
0010
0001
0010
0100
0010
0001
0010
1000
0001
0010
0100
,
0001
0100
0010
0001
0100
0010
0001
0010
1000
0001
0010
0100
,
1000
0001
0100
0010
1000
0001
1000
0100
,
0010
0000
0000
0001
0000
0000
1000
0000
0000
0000
0000
0000
0001
0000
0000
0000
0000
0000
0100
0000
0000
0000
0000
0000
0001
0000
0000
0000
1000
0000
0000
0000
0100
0000
0000
0000
1100
0000
0000
0000
0000
0000
0000
0000
0000
0000
0000
0000
,
1000
0000
0010
0100
0001
0000
1000
0100
0010
0100
1000
0001
0100
0000
0010
0000
,
1000
0000
0000
0000
0000
0000
0100
0000
0000
1000
0000
0000
0010
0000
0000
0100
0000
0000
0001
0000
0000
0100
0000
0000
0010
0000
0000
0000
0000
0000
1000
0000
0000
0001
0000
0000
0010
0000
0000
0000
0100
0000
0000
0000
1000
0000
0000
0000
,
0001
0000
0100
0010
1000
0000
0010
1000
0001
0010
0100
1000
0010
0000
0100
0000
,
1000
0000
0000
0100
0000
0000
0010
0000
0000
0100
0000
0000
1000
0000
0000
0100
0000
0000
0010
0000
0000
0100
0000
0000
0001
0000
0000
0000
0000
0000
1000
0000
0000
0001
0000
0000
0010
0000
0000
0000
0010
0000
0000
0000
0000
0000
0000
0000
,
0001
0000
0010
0100
1000
0000
0001
0100
0010
0100
0001
1000
0100
0000
0010
0000
,
0001
0000
0000
0000
0000
0000
0100
0000
0000
0001
0000
0000
0010
0000
0000
0100
0000
0000
1000
0000
0000
0100
0000
0000
0010
0000
0000
0000
0000
0000
0001
0000
0000
1000
0000
0000
0010
0000
0000
0000
0100
0000
0000
0000
0001
0000
0000
0000
,
1000
0000
0100
0010
0001
0000
0010
0001
1000
0010
0100
0001
0010
0000
0100
0000
,
0001
0000
0000
0100
0000
0000
0010
0000
0000
0100
0000
0000
0001
0000
0000
0100
0000
0000
0010
0000
0000
0100
0000
0000
1000
0000
0000
0000
0001
0000
0000
0000
0100
0000
0000
0000
0010
0000
0000
1000
0000
0000
0010
0000
0000
0000
0000
0000
,
1000
0000
0100
0010
0001
0000
1000
0010
0100
0010
1000
0001
0010
0000
0100
0000
,
1000
0000
0000
0000
0000
0000
0010
0000
0000
1000
0000
0000
0100
0000
0000
0010
0000
0000
0001
0000
0000
0010
0000
0000
0100
0000
0000
0000
0000
0000
1000
0000
0000
0001
0000
0000
0100
0000
0000
0000
0010
0000
0000
0000
1000
0000
0000
0000
,
0001
0000
0010
0100
1000
0000
0100
1000
0001
0100
0010
1000
0100
0000
0010
0000
,
1000
0000
0000
0010
0000
0000
0100
0000
0000
0010
0000
0000
1000
0000
0000
0010
0000
0000
0100
0000
0000
0010
0000
0000
0001
0000
0000
0000
0000
0000
1000
0000
0000
0001
0000
0000
0100
0000
0000
0000
0100
0000
0000
0000
0000
0000
0000
0000
,
0001
0000
0100
0010
1000
0000
0001
0010
0100
0010
0001
1000
0010
0000
0100
0000
,
0001
0000
0000
0000
0000
0000
0010
0000
0000
0001
0000
0000
0100
0000
0000
0010
0000
0000
1000
0000
0000
0010
0000
0000
0100
0000
0000
0000
0000
0000
0001
0000
0000
1000
0000
0000
0100
0000
0000
0000
0010
0000
0000
0000
0001
0000
0000
0000
,
1000
0000
0010
0100
0001
0000
0100
0001
1000
0100
0010
0001
0100
0000
0010
0000
,
0001
0000
0000
0010
0000
0000
0100
0000
0000
0010
0000
0000
0001
0000
0000
0010
0000
0000
0100
0000
0000
0010
0000
0000
1000
0000
0000
0000
0001
0000
0000
0000
0010
0000
0000
0000
0100
0000
0000
1000
0000
0000
0100
0000
0000
0010
0000
0000
,
0001
0000
0001
0000
0100
0000
0100
0000
0010
0100
0001
1000
0100
0000
0000
0000
,
1000
0000
0000
0000
0000
0000
0100
0000
0000
0010
0000
0000
0100
0000
0000
1000
0000
0000
0100
0000
0000
0010
0000
0000
0001
0000
0000
0000
0000
0000
1000
0000
0000
0001
0000
0000
0100
0000
0000
0000
0010
0000
0000
0000
0100
0000
0000
0000
,
0001
0000
1000
0100
1000
0000
0001
0100
0010
1000
0001
0010
0100
0000
1000
0000
,
0010
0000
0000
1000
0000
0000
0001
0000
0000
1000
0000
0000
0010
0000
0000
1000
0000
0000
0001
0000
0000
1000
0000
0000
0100
0000
0000
0000
0000
0000
0010
0000
0000
0001
0000
0000
1000
0000
0000
0000
0001
0000
0000
0000
0000
0000
0000
0000
,
1000
0000
1000
0000
0100
0000
0100
0000
0010
0100
1000
0001
0100
0000
0000
0000
,
0001
0000
0000
0000
0000
0000
0100
0000
0000
0010
0000
0000
0100
0000
0000
0001
0000
0000
0100
0000
0000
0010
0000
0000
1000
0000
0000
0000
0000
0000
0001
0000
0000
1000
0000
0000
0100
0000
0000
0000
0010
0000
0000
0000
0100
0000
0000
0000
,
1000
0000
0001
0100
0001
0000
1000
0100
0010
0001
1000
0010
0100
0000
0001
0000
,
0010
0001
1000
0001
0010
0001
1000
0001
0100
0000
0010
1000
0001
0010
0100
1000
,
0010
0000
0000
0000
,
1000
0000
0000
0000
0010
0000
0000
0000
0100
0000
0000
0000
0001
0000
0000
0100
0000
0000
0010
0000
0000
1000
0000
0000
0200
0000
0000
0000
0000
0000
0000
0000
0000
0000
0000
0000
0000
0000
0000
0000
0000
0000
0000
0000
0000
0000
0000
0000
,
0000
0000
0000
0000
,
0000
0000
0000
0000
,
0300
0000
0000
0000
;
