#TITLE:Azure Emotion;
#SUBTITLE:;
#ARTIST:iF;
#TITLETRANSLIT:;
#SUBTITLETRANSLIT:;
#ARTISTTRANSLIT:;
#GENRE:;
#CREDIT:;
#MUSIC:Azure Emotion.ogg;
#BANNER:;
#BACKGROUND:;
#CDTITLE:;
#SAMPLESTART:90.170;
#SAMPLELENGTH:20.000;
#SELECTABLE:YES;
#OFFSET:1.478;
#BPMS:0.000=144.000
,211.000=288.000
,212.000=144.000
,219.000=72.000
,219.333=288.000
,220.000=144.000
,252.000=288.000
,253.000=144.000
;
#STOPS:211.000=0.052
,211.250=0.052
,211.500=0.052
,211.750=0.052
,252.000=0.052
,252.250=0.053
,252.500=0.052
,252.750=0.052
;
#DISPLAYBPM:144.000;
#ORIGIN:;
#TAGS:;
#PREVIEWVID:;
#JACKET:;
#CDIMAGE:;
#DISCIMAGE:;
#BGCHANGES:;
#FGCHANGES:;

//--------------- dance-single - ----------------
#NOTES:
     dance-single:
     :
     Beginner:
     3:
     0.111343,0.147693,0,0.033166,0,94,94,0,4,0,0,0,0,0,0.111343,0.147693,0,0.033166,0,94,94,0,4,0,0,0,0,0:
0000
0000
0000
0000
,
0000
0000
0000
0000
,
0000
0000
0000
0000
,
0000
0000
0000
0000
,
1000
0000
0000
0000
,
0001
0000
1000
0000
,
0001
0000
0000
0000
,
1000
0000
0010
0000
,
1000
0000
0000
0000
,
0001
0000
0010
0000
,
0001
0000
0000
0000
,
0010
0000
0100
0000
,
0010
0000
0000
0000
,
0001
0000
0100
0000
,
0010
0000
0000
0000
,
1000
0000
0001
0000
,
0010
0000
0000
0000
,
0100
0000
1000
0000
,
0001
0000
0000
0000
,
0100
0000
0010
0000
,
1000
0000
0000
0000
,
0001
0000
0000
0000
,
0010
0000
0000
0000
,
0100
0000
0000
0000
,
1000
0000
0001
0000
,
1000
0000
0000
0000
,
0010
0000
0000
0000
,
0100
0000
0000
0000
,
0001
0000
0000
0000
,
1000
0000
1000
0000
,
0001
0000
0001
0000
,
0010
0000
0010
0000
,
0100
0000
0000
0000
,
0010
0000
0010
0000
,
0001
0000
0001
0000
,
0100
0000
0100
0000
,
0010
0000
1000
0000
,
0001
0000
0000
0000
,
0000
0000
0000
0000
,
1000
0000
0000
0000
,
0000
0000
0000
0000
,
0100
0000
0000
0000
,
0000
0000
0000
0000
,
0010
0000
0000
0000
,
0001
0000
0000
0000
,
1000
0000
0000
0000
,
0000
0000
0000
0000
,
0010
0000
0000
0000
,
0000
0000
0000
0000
,
0100
0000
0000
0000
,
0001
0000
0000
0000
,
1000
0000
0001
0000
,
0010
0000
0200
0000
,
0300
0000
0000
0000
,
0000
0000
0000
0020
,
0030
0000
0001
0000
,
1000
0000
0010
0000
,
0100
0000
0010
0000
,
1000
0000
0001
0000
,
0010
0000
0100
0000
,
0010
0000
0001
0000
,
1000
0000
0010
0000
,
0100
0000
0010
0000
,
2000
3000
0000
0000
,
0001
0000
0010
0000
,
0100
0000
1000
0000
,
0010
0000
1000
0000
,
0100
0000
0010
0000
,
0001
0000
0010
0000
,
0100
0000
1000
0000
,
0001
0000
1000
0000
,
0020
0030
0000
0000
;

//--------------- dance-single - ----------------
#NOTES:
     dance-single:
     :
     Easy:
     8:
     0.338768,0.41354,0.157539,0.016583,0.182414,286,267,19,2,0,0,0,0,0,0.338768,0.41354,0.157539,0.016583,0.182414,286,267,19,2,0,0,0,0,0:
0000
0000
0000
0000
,
0000
0000
0000
0000
,
0000
0000
0000
0000
,
0000
0000
0000
0000
,
1000
0000
0000
0000
0001
0000
1000
0000
0000
0010
0000
0000
0100
0000
0001
0000
,
1000
0100
0010
0100
,
1000
0001
0100
0001
,
0010
0100
0010
0001
,
0100
0010
0100
0001
,
0001
0100
0010
0100
,
0001
1000
0100
1000
,
0010
0100
0010
1000
,
0100
0010
0100
1000
,
0001
0000
0010
0100
0010
0000
0001
0000
,
1000
0000
0010
0100
0010
0000
1000
0000
,
0100
0000
0010
0001
0010
0000
0001
0000
,
0100
0000
0010
1000
0010
0000
1000
0000
,
1001
0000
1000
0001
1000
0000
0100
0000
,
0110
0000
0010
0100
0010
0000
0100
0000
,
1100
1000
1001
0001
,
0100
0010
0100
0000
0001
0000
1000
0000
,
0100
0010
0100
0000
,
1000
0001
1000
0000
,
0010
0100
0010
0000
,
1000
0000
0001
0000
0010
0000
0100
1000
,
0001
0100
0001
0100
,
0010
1000
0010
1000
,
0001
1000
0001
1000
,
0100
0000
0010
0000
0100
0000
1000
0001
,
0100
0000
0010
0100
0001
0000
1000
0000
,
0100
0000
0010
0001
1000
0000
0010
0000
,
0100
0000
0010
1000
0001
0000
0010
0000
,
0100
1000
0001
0100
,
0110
0000
0010
1000
0010
0000
1000
0000
,
1100
0000
0100
1000
0100
0000
0010
0000
,
0011
0001
1001
1000
,
0010
0000
0100
0000
0001
0000
0010
0100
,
1000
0000
0000
0000
,
0000
0000
0001
0000
,
0100
0000
0000
0000
,
0000
0000
0000
0000
0010
0000
0000
1000
,
0001
0000
0000
0000
,
0000
0000
0010
0100
,
1000
0000
0000
0001
0000
0000
0000
0000
,
0100
0000
0010
0000
0100
0000
0001
1000
,
0001
0000
0010
0000
,
0100
0000
1000
0100
,
0010
0000
0001
0000
,
1000
0000
0010
0000
,
0110
0000
0100
0000
,
0001
0000
0000
1000
0000
0000
0001
0000
,
0011
0010
0110
0100
,
1100
0000
0000
1001
0000
0000
0001
0000
,
0100
0000
0000
0000
,
0000
0000
0000
0020
,
1030
0000
0000
0000
0100
0000
0000
0010
0000
0001
0000
1000
0000
0000
0000
0000
,
0100
0000
0000
0000
1000
0000
0000
0010
0000
0100
0000
0001
0000
0000
0000
0000
,
0100
0000
0000
0000
0010
0000
0000
1000
0000
0001
0000
1000
0000
0000
0000
0000
,
0100
0000
1000
0000
0010
0100
0010
0100
,
0001
0000
0000
0000
0100
0000
0000
0010
0000
1000
0000
0001
0000
0000
0000
0000
,
0100
0000
0000
0000
0001
0000
0000
0010
0000
0100
0000
1000
0000
0000
0000
0000
,
0100
0000
0000
0000
0010
0000
0000
0001
0000
1000
0000
0001
0000
0000
0000
0000
,
1001
0000
0000
1100
0000
0000
0100
0000
,
0010
0000
0000
0000
0010
0000
0000
0100
0000
1000
0000
0001
0000
0000
0000
0000
,
0100
0000
0000
0010
0000
1000
0000
0010
0000
1000
0000
0001
0000
0000
0000
0000
,
0010
0000
0000
0100
0000
1000
0000
0100
0000
1000
0000
0001
0000
0000
0000
0000
,
1000
0000
0000
0010
0000
0100
0000
0000
0001
0000
1000
0000
0100
0000
1000
0000
,
0001
0000
0000
0100
0000
0010
0000
1000
0000
0001
0000
0010
0000
0000
0000
0000
,
0100
0000
0000
1000
0000
0001
0000
0100
0000
0010
0000
1000
0000
0000
0000
0000
,
1010
0010
0101
0100
,
1001
0000
0000
0011
0000
0000
0001
0000
,
2000
3010
0000
0000
;

//--------------- dance-single - ----------------
#NOTES:
     dance-single:
     :
     Medium:
     12:
     0.523551,0.649849,0.223871,0.016583,0.406285,442,415,27,2,0,0,0,0,0,0.523551,0.649849,0.223871,0.016583,0.406285,442,415,27,2,0,0,0,0,0:
0000
0000
0000
0000
,
0000
0000
0000
0000
,
0000
0000
0000
0000
,
0000
0000
0000
0000
,
1000
0000
0001
0000
1000
0000
0010
0000
0000
0100
0000
0010
1000
0000
0001
0000
,
1000
0100
0010
0100
1000
0000
0001
0000
,
0100
0010
1000
0010
0100
0000
0001
0000
,
0010
0100
1000
0001
0100
0000
0010
0000
,
0100
0001
0010
0100
1000
0000
0100
1000
,
0001
0100
0010
0100
0001
0000
1000
0000
,
0100
0010
0001
0010
0100
0000
1000
0000
,
0010
0100
0001
1000
0100
0000
0010
0000
,
0100
1000
0010
0100
0001
0000
0100
0001
,
1000
0000
0001
0000
0010
0000
0100
0000
0010
0001
0000
0000
1000
0000
0000
0000
,
0001
0000
1000
0000
0010
0000
0100
0000
0010
1000
0000
0000
0001
0000
0000
0000
,
0010
0000
0100
0000
1000
0000
0010
0000
0100
0001
0000
0000
1000
0000
0000
0000
,
0010
0000
0100
0000
0001
0000
0010
0000
0100
1000
0000
0000
0001
0000
0000
0000
,
1001
0000
1000
0000
0010
0000
0100
0000
0001
1000
0000
0000
0100
0000
0000
0000
,
1001
0000
0001
0000
0010
0000
0100
0000
1000
0001
0000
0000
0100
0000
0000
0000
,
0110
0010
1000
0000
1100
0100
0010
0000
,
0001
0000
1000
0000
0010
0000
0100
0001
0100
0000
0010
0000
1000
0000
0000
0000
,
0001
0010
0100
0010
,
0001
1000
0010
1000
,
0100
0010
0001
0010
,
0100
0000
1000
0000
0100
0000
1000
0000
0001
0000
0100
0000
0010
0000
1000
0001
,
1000
0010
0100
0001
0010
0001
0100
0000
,
0001
0010
0100
1000
0010
1000
0100
0000
,
0010
0001
1000
0010
0100
0001
0010
0000
,
0100
0000
0010
0000
0100
0000
0010
0000
0001
0000
1000
0000
0010
0000
0100
0001
,
0100
0000
0010
0000
1000
0000
0000
0001
0010
0000
0100
0000
1000
0000
0000
0100
,
0010
0000
0001
0000
1000
0000
0000
0010
0100
0000
0001
0000
1000
0000
0000
0010
,
1000
0000
0100
0000
0010
0000
0000
0100
1000
0000
0010
0000
0100
0000
0000
0001
,
0010
0000
0001
0000
0010
0000
0001
0000
1000
0000
0010
0000
0100
0000
0010
1000
,
0010
0000
1000
0000
0001
0000
0000
0010
0100
0000
1000
0000
0001
0000
0000
0010
,
0001
0000
0100
0000
0010
0000
0000
0100
0001
0000
0010
0000
0100
0000
0000
1000
,
0010
0100
0001
1000
0010
0100
0001
1000
,
0100
0000
0010
0000
0100
0000
0010
0000
0001
0000
0100
0000
0010
0000
1000
0001
,
1000
0000
0000
0000
,
0000
0000
0001
1000
,
0010
0000
0000
0000
,
0000
0000
0000
0000
0000
0000
0000
0000
1000
0000
0000
0001
0000
0000
0010
0000
,
0100
0000
0000
0000
,
0000
0000
1000
0100
,
0010
0000
0000
0001
0000
0000
1000
0000
0000
0000
0000
0000
0000
0000
0000
0000
,
0010
0000
1000
0000
0010
0000
1000
0000
0001
0000
0010
0000
0100
0000
0010
0001
,
0010
0001
1000
0010
,
0100
0000
0010
0000
1000
0001
0010
0100
,
1000
0001
0100
0010
,
0100
0000
0000
0000
0001
0000
0000
0000
1000
0000
0000
0001
0000
0000
0010
0000
,
0100
1000
0001
1000
,
0010
0000
0000
0100
0000
0000
0010
0000
0000
0000
0000
0000
1000
0000
0000
0000
,
1001
0001
0010
0000
0110
0100
1000
0000
,
1010
0000
0000
0010
0000
0000
0110
0000
0000
0100
0000
0000
0101
0000
0001
0000
,
1000
0000
0000
0000
,
0000
0000
0000
0200
,
0310
0000
0001
1000
0000
0010
0000
1000
0000
0001
0000
0100
0000
0000
0000
0000
,
0001
0000
0010
0100
0000
0010
0000
0001
0000
1000
0000
0100
0000
0000
0000
0000
,
0010
0000
0001
0100
0000
0010
0000
1000
0000
0010
0000
0100
0000
0000
0000
0000
,
0001
0000
1000
0100
0000
0010
0000
0100
1000
0000
0001
0000
0100
0000
0010
0100
,
0010
0000
1000
0001
0000
0010
0000
0001
0000
1000
0000
0100
0000
0000
0000
0000
,
1000
0000
0010
0100
0000
0010
0000
1000
0000
0001
0000
0100
0000
0000
0000
0000
,
0010
0000
1000
0100
0000
0010
0000
0001
0000
0010
0000
0100
0000
0000
0000
0000
,
1100
0000
0000
1001
0000
0000
0101
0000
0000
0110
0000
0000
1010
0000
1000
0000
,
0100
0000
0100
0000
1000
0001
0000
0010
0000
0001
0000
0011
0000
0000
0000
0000
,
0001
0000
0100
0010
0000
1000
0000
0001
0000
1000
0000
1001
0000
0000
0000
0000
,
1000
0000
0100
0010
0000
0001
0000
1000
0000
0010
0000
0110
0000
0000
0000
0000
,
0001
0000
0100
0010
0000
1000
0000
0001
0010
0000
0100
0010
0100
0000
1000
0001
,
1000
0000
0010
0100
0000
0001
0000
1001
0000
1000
0000
1100
0000
0000
0000
0000
,
0100
0000
0010
0001
0000
0100
0000
0110
0000
0010
0000
1010
0000
0000
0000
0000
,
1001
0001
0010
0100
1100
1000
0010
0100
,
0101
0000
0000
1010
0000
0000
1100
0000
0000
0011
0000
0000
0010
0001
1000
0000
,
0020
0130
0000
0000
;

//--------------- dance-single - ----------------
#NOTES:
     dance-single:
     :
     Hard:
     16:
     0.742684,0.945234,0.306787,0.049749,0.854028,627,590,37,6,0,0,0,0,0,0.742684,0.945234,0.306787,0.049749,0.854028,627,590,37,6,0,0,0,0,0:
0000
0000
0000
0000
,
0000
0000
0000
0000
,
0000
0000
0000
0000
,
0000
0000
0000
0000
,
1000
0000
0100
0000
0010
0000
0001
1000
0000
0001
0001
1000
0010
0000
0100
0000
,
0101
0000
0001
0000
1000
0000
0100
0000
0010
0001
0000
0000
0100
0000
0001
0000
,
0010
0000
0100
0000
1000
0000
0001
0000
0100
0010
0000
0000
1000
0000
0100
0000
,
1000
0000
0001
0000
1000
0000
0010
0000
0100
0001
0000
0000
0010
0000
0001
0000
,
0100
0000
0010
0000
1000
0000
0001
0000
0010
0100
0000
0000
1000
0000
0001
0000
,
0001
0000
1000
0000
0001
0000
0100
0000
0010
1000
0000
0000
0100
0000
1000
0000
,
0010
0000
0100
0000
0001
0000
1000
0000
0100
0010
0000
0000
0001
0000
0100
0000
,
0001
0000
1000
0000
0001
0000
0010
0000
0100
1000
0000
0000
0010
0000
1000
0000
,
0100
0000
0010
0000
0001
0000
1000
0000
0010
0100
0000
0000
0001
0000
1000
0000
,
1100
0000
0100
0000
0010
0000
0100
1000
0010
0100
0000
0000
0001
0000
1000
0000
,
0001
0000
0100
0000
0010
0000
0100
0001
0010
0100
0000
0000
1000
0000
0001
0000
,
1000
0000
0010
0000
0100
0000
0010
1000
0100
0010
0000
0000
0001
0000
1000
0000
,
0001
0000
0010
0000
0100
0000
0010
0001
0100
0010
0000
0000
1000
0000
0001
0000
,
0011
0000
0010
0000
0001
0000
0100
0001
0010
0100
0000
0000
1000
0000
0010
0000
,
1010
0000
1000
0000
0001
0000
0010
0001
0100
0010
0000
0000
1000
0000
0001
0000
,
0101
0100
0010
1000
1100
0100
0010
0001
,
1001
0000
1000
0000
0010
0000
0100
0001
1000
0010
0100
0000
0001
1000
0100
1000
,
0010
1000
0100
0010
,
0100
1000
0010
0100
,
0001
0010
0100
0010
,
0001
0010
0100
1000
0001
0010
0100
1000
0010
1000
0100
1000
0010
0100
0001
0010
,
0100
1000
0001
0100
0001
0010
0100
1000
,
0010
0100
0010
1000
0100
0010
0001
1000
,
0010
0100
0010
1000
0001
0010
0100
1000
,
0001
0100
0010
1000
0001
0100
0010
1000
0100
1000
0010
1000
0100
0010
0002
0000
,
0013
0001
1000
0001
0100
0000
0010
0000
0100
0001
1000
0001
0010
0000
0100
0000
,
1000
0010
0100
0001
0010
0000
0001
0000
1000
0100
0010
0001
0100
0000
0010
0000
,
0001
0010
0100
0001
1000
0000
0100
0000
0001
0100
0010
0001
1000
0000
0010
0000
,
1000
0100
0010
0001
1000
0010
0100
0001
0010
0100
1000
0010
0100
0010
2000
0000
,
3001
0010
0100
1000
0010
0000
1000
0000
0001
0100
0010
1000
0100
0000
0010
0000
,
1000
0010
0100
1000
0001
0000
0100
0000
1000
0100
0010
1000
0001
0000
0010
0000
,
0110
0100
1000
0001
0101
0100
0010
1000
,
0100
0010
0100
1000
0010
0100
0001
1000
0100
0010
0001
1000
0010
0100
0001
0010
,
0100
0000
0000
0000
,
0000
0000
1000
0001
,
0100
0000
0000
0000
,
0000
0000
0000
0000
0000
0000
0000
0000
0001
0000
0000
1000
0000
0000
0100
0000
,
0010
0000
0000
0000
,
0000
0000
0000
0000
0000
0000
0000
0000
0100
0000
0000
0000
0010
0000
0000
0001
,
0001
0000
0000
0100
0000
0000
0010
0000
0000
0000
0000
0000
0000
0000
0000
0000
,
1000
0001
1000
0001
0100
0010
0100
0010
1000
0001
0010
0100
1000
0001
0100
0010
,
1000
0010
0100
0010
,
1000
0000
0100
0000
0010
0001
1000
0010
,
0100
0001
1000
0100
,
0010
0000
0000
0000
0100
0000
0000
0000
1000
0000
0000
0010
0100
0000
0001
0000
,
1000
0000
0000
0000
0010
0000
0000
0000
0100
0000
0000
0000
0001
0000
0000
1000
,
1000
0000
0000
0100
0000
0000
1000
0000
0000
0000
0000
0000
0001
0000
0000
0000
,
0011
0001
0100
0010
1010
1000
0100
0010
,
0001
0100
0001
1000
0100
1000
0010
0100
0010
1000
0001
0010
0100
1000
0100
1000
,
0010
0000
0000
0000
,
0000
0000
0000
0200
,
0301
0000
1000
0100
0010
0001
0000
0011
0000
0010
0000
0110
0000
0100
1000
0001
,
0100
0000
0010
0100
0001
0010
0000
0110
0000
0100
0000
1100
0000
1000
0001
0010
,
0100
0000
1000
0010
0100
0010
0000
1010
0000
1000
0000
1100
0000
0100
0010
0001
,
0100
0000
0010
0100
0001
0010
0000
0001
0010
0100
1000
0010
0100
0010
1000
0001
,
0100
0000
0001
0100
0010
1000
0000
1010
0000
0010
0000
0110
0000
0100
0001
1000
,
0100
0000
0010
0100
1000
0010
0000
0110
0000
0100
0000
0101
0000
0001
1000
0010
,
0100
0000
0001
0010
0100
0010
0000
0011
0000
0001
0000
0101
0000
0100
0010
1000
,
0100
0010
0001
0010
0100
1000
0010
0100
0001
0010
0100
1000
0010
0100
0001
1000
,
0100
0010
0100
0010
0001
1000
0000
0101
0000
0001
0000
1010
0000
1000
0001
0010
,
0100
0000
1000
0010
1000
0100
0000
0110
0000
0001
0000
1100
0000
1000
0010
0100
,
1000
0000
0100
0010
1000
0001
0000
1010
0000
1000
0000
0101
0000
0001
0010
0100
,
0001
0000
0100
1000
0001
0100
0000
0010
1000
0100
0010
0100
1000
0010
0100
0001
,
1001
0000
1000
0001
0010
0100
0000
0012
0000
0103
0000
1010
0000
1000
0100
0010
,
0110
0000
0100
1000
0001
0100
0000
2010
0000
3100
0000
0011
0000
0010
0100
1000
,
1001
0001
0010
0001
0101
0100
0010
1000
,
0001
0100
0001
0010
0100
1000
0010
1000
0001
0100
0010
0100
1000
0100
0001
0000
,
2000
3100
0000
0000
;
