#TITLE:青空のラプソディ;
#SUBTITLE:;
#ARTIST:fhana;
#TITLETRANSLIT:Aozora no Rhapsody;
#SUBTITLETRANSLIT:;
#ARTISTTRANSLIT:;
#GENRE:;
#CREDIT:;
#MUSIC:Aozora no Rhapsody.ogg;
#BANNER:;
#BACKGROUND:;
#CDTITLE:;
#SAMPLESTART:50.865;
#SAMPLELENGTH:20.000;
#SELECTABLE:YES;
#OFFSET:0.678;
#BPMS:0.000=135.000;
#STOPS:;
#ORIGIN:;
#TAGS:;
#PREVIEWVID:;
#JACKET:;
#CDIMAGE:;
#DISCIMAGE:;
#BGCHANGES:;
#FGCHANGES:;

//--------------- dance-single - ----------------
#NOTES:
     dance-single:
     :
     Beginner:
     2:
     0.094375,0.131732,0.010486,0.020972,0,63,62,1,2,0,0,0,0,0,0.094375,0.131732,0.010486,0.020972,0,63,62,1,2,0,0,0,0,0:
0000
0000
0000
0000
,
0000
0000
0000
0000
,
0000
0000
0000
0000
,
0000
0000
0000
0000
,
0000
0000
0000
0000
,
1000
0000
0000
0000
,
0001
0000
0000
0000
,
0100
0000
0000
0000
,
0010
0000
0010
0000
,
0100
0000
0100
0000
,
0001
0000
0000
0000
,
1000
0000
0100
0000
,
0010
0000
0000
0000
,
0100
0000
0000
0000
,
1000
0000
0010
0000
,
0100
0000
0000
0000
,
0001
0000
0010
0000
,
0100
0000
0000
0000
,
1000
0000
0000
0000
,
0001
0000
0000
0000
,
0100
0000
0000
0000
,
0010
0000
0000
0000
,
1000
0000
0000
0000
,
0100
0000
0000
0000
,
0010
0000
0000
0000
,
0001
0000
0000
0000
,
2000
0000
3000
0001
,
0002
0000
0000
0003
,
0100
0000
0000
0000
,
0010
0000
0100
0000
,
0001
0000
0000
0000
,
1000
0000
0100
0000
,
0010
0000
0000
0000
,
0100
0000
1000
0000
,
0001
0000
0000
0000
,
0100
0000
0010
0000
,
1000
0000
0000
0000
,
0100
0000
1000
0000
,
0010
0000
0000
0000
,
0100
0000
0001
0000
,
0010
0000
0000
0000
,
0100
0000
1000
0000
,
0010
0000
0000
0000
,
0100
0000
0000
0000
,
0001
0000
0000
0000
,
1000
0000
0000
0000
,
0001
0000
0000
0000
,
0001
0000
0000
0000
,
1000
0000
1000
0000
,
0001
0000
0001
0000
,
0000
1001
0000
0000
;

//--------------- dance-single - ----------------
#NOTES:
     dance-single:
     :
     Easy:
     4:
     0.190248,0.237118,0.062917,0.073403,0,127,121,6,7,0,0,0,0,0,0.190248,0.237118,0.062917,0.073403,0,127,121,6,7,0,0,0,0,0:
0000
0000
0000
0000
,
0000
0000
0000
0000
,
0000
0000
0000
0000
,
0000
0000
0000
0000
,
0000
0000
0000
0000
,
1000
0000
0010
0000
,
0100
0000
0001
0000
,
0010
0000
0100
0000
,
0010
0010
0010
0000
,
0001
0001
0001
0000
,
1000
0010
1000
0000
,
0100
0010
0001
0000
,
1000
0010
1000
0000
,
0001
1000
0100
0000
,
0010
0100
0010
0000
,
0001
1000
0010
0000
,
0100
0001
0100
0000
,
0010
1000
0001
0000
,
0010
0100
1000
0000
,
0001
0000
0100
0000
,
0010
1000
0010
0000
,
0100
0000
0001
0000
,
0010
0001
0010
0000
,
0100
0000
1000
0000
,
0001
0100
0001
0000
,
1000
1000
0100
0100
,
0220
0000
0330
0001
,
0202
0000
0000
0303
,
1000
0000
0000
0000
,
0001
0010
0001
0100
,
0010
0000
0100
0000
,
0010
1000
0001
0010
,
0100
0000
0010
0000
,
0001
1000
0010
0100
,
0001
0010
0100
0000
,
0010
0000
0001
0000
,
2000
0000
0000
0000
0000
3000
0000
0000
,
1000
0010
1000
0100
,
0010
0000
0100
0000
,
0010
0001
1000
0010
,
0100
0000
0010
0000
,
1000
0001
0010
0001
,
0100
0010
1000
0000
,
1001
0000
0000
0000
,
0110
0000
0000
0000
,
1001
0000
0000
0000
,
2000
0100
3001
0000
,
2000
0010
3001
0000
,
0100
0010
1000
0001
,
0010
0100
1000
0001
,
0000
1001
0000
0000
;

//--------------- dance-single - ----------------
#NOTES:
     dance-single:
     :
     Medium:
     8:
     0.344545,0.36885,0.010486,0.104861,0.277883,230,229,1,10,0,0,0,0,0,0.344545,0.36885,0.010486,0.104861,0.277883,230,229,1,10,0,0,0,0,0:
0000
0000
0000
0000
,
0000
0000
0000
0000
,
0000
0000
0000
0000
,
0000
0000
0000
0000
,
0000
0000
0000
0000
,
1000
0010
1000
0000
0010
0000
0010
0000
,
0100
0001
0100
0000
0001
0000
0001
0000
,
1000
0100
0010
0000
0100
0000
0100
0000
,
1000
0000
0000
0000
0010
0000
0000
0010
0000
0000
0010
0000
0000
0000
0000
0000
,
0100
0000
0000
0000
0001
0000
0000
0001
0000
0000
0001
0000
0000
0000
0000
0000
,
1000
0000
0000
0000
0100
0000
0000
0010
0000
0000
0100
0000
0000
0000
1000
0000
,
0001
0000
0000
0000
0100
0000
0000
0010
0000
0100
0000
0010
0000
0000
0000
0000
,
1000
0000
0000
0000
0001
0000
0000
0010
0000
0000
0001
0000
0000
0000
1000
0000
,
0010
0000
0000
0100
0000
0100
0000
0001
0000
0000
0000
0000
0000
0000
0000
0000
,
1000
0000
0000
0000
0100
0000
0000
1000
0000
0000
0010
0000
0000
0000
0100
0000
,
0001
0000
0000
0000
0100
0000
0000
0010
0000
1000
0000
0100
0000
0000
0000
0000
,
0010
0000
0000
0000
0001
0000
0000
1000
0000
0000
0010
0000
0000
0000
0100
0000
,
0001
0000
0000
0010
0000
0000
0000
0100
0000
0000
0100
0000
0000
0000
1000
0000
,
0001
0000
0000
0010
0000
0000
0000
0002
0000
0000
1003
0000
0010
0000
0100
0000
,
0000
0000
0010
0000
1000
0000
0000
0002
0000
0000
0013
0000
0100
0000
0000
0000
,
0001
0200
0000
2300
0000
0000
3000
0000
,
0000
0000
0001
0000
0100
0000
0000
0020
0000
0000
1030
0000
0001
0000
0000
0000
,
0010
0000
0000
0010
0000
0000
0200
0000
0000
0000
0000
0000
0300
0000
0000
0000
,
0000
0000
1000
0000
0100
0000
0000
2000
0000
0000
3001
0000
1000
0000
0001
0000
,
0200
0000
0000
0310
0000
0000
1000
0000
0000
0000
0010
0000
0100
0000
0001
0000
,
0000
1000
0100
0010
0001
0000
1000
0000
,
0000
0010
0000
0000
0010
0000
0000
0010
0000
0000
0010
0000
0000
0000
0000
0000
,
0000
0100
0000
0000
0100
0000
0000
0100
0000
0000
0100
0000
0000
0000
0000
0000
,
0001
0000
0000
2000
0000
0000
0002
0000
0000
0000
0000
0000
3003
0000
0000
0000
,
1000
0000
0000
0100
0000
0000
0010
0000
0001
0000
0000
1000
0000
0000
0010
0000
,
0100
0000
0000
0001
0000
0000
1000
0000
0100
0000
0000
0000
0000
0000
0010
0000
,
0100
0000
0000
1000
0000
0000
0001
0000
0100
0000
0000
0010
0000
0000
1000
0000
,
0001
0000
1000
0000
0100
0000
0010
0100
,
1000
0000
0000
0001
0000
0000
0100
0000
0010
0000
0000
1000
0000
0000
0001
0000
,
0010
0000
0000
0100
0000
0000
1000
0000
0001
0000
0000
0000
0000
0000
0100
0000
,
0010
0000
0000
1000
0000
0000
0001
0000
0010
0000
0000
0100
0000
0000
1000
0000
,
0100
0000
0000
0100
0000
0000
0010
0000
0000
0010
0000
0000
0001
0000
1000
0000
,
0001
0000
0000
0010
0000
0000
0001
0000
0100
0000
0000
0010
0000
0000
1000
0000
,
0100
0000
0000
1000
0000
0000
0001
0000
0100
0000
0000
0000
0000
0000
0010
0000
,
1000
0000
0000
0001
0000
0000
0010
0000
0100
0000
0000
0010
0000
0000
0001
0000
,
0100
0000
0010
0000
0100
0000
0010
1000
,
0100
0000
0000
0010
0000
0000
0001
0000
0100
0000
0000
0010
0000
0000
0100
0000
,
1000
0000
0000
0100
0000
0000
0001
0000
1000
0000
0000
0000
0000
0000
0000
0000
,
0100
0000
1000
0000
0001
0000
0000
0010
0000
0000
0010
0000
0001
0000
0000
0000
,
0100
0000
0010
0000
1000
0000
0000
0010
0000
0000
0010
0000
0100
0000
0000
0000
,
0001
0000
0010
0000
0100
0000
0000
2000
0000
0000
3001
0000
0100
0000
0100
0000
,
0001
0001
1000
1000
,
0001
0000
0001
0000
1000
0000
0010
0010
,
0100
0000
0001
0000
1000
0100
1000
0000
,
0001
0000
0000
0000
0100
0000
0000
0000
0010
0000
1000
0000
0001
0010
0000
0000
,
0000
0110
0000
0000
;

//--------------- dance-single - ----------------
#NOTES:
     dance-single:
     :
     Hard:
     13:
     0.599208,0.579621,0.314584,0.104861,0.602953,400,370,30,10,0,0,0,0,0,0.599208,0.579621,0.314584,0.104861,0.602953,400,370,30,10,0,0,0,0,0:
0000
0000
0000
0000
,
0000
0000
0000
0000
,
0000
0000
0000
0000
,
0000
0000
0000
0000
,
0000
0000
0000
0000
,
1000
0000
0001
0000
0010
0100
0000
0010
0000
0001
0000
1000
0010
0000
0100
0000
,
0001
0000
1000
0000
0010
0100
0000
0010
0000
1000
0000
0001
1000
0100
0000
0000
,
0010
0000
0001
0000
0100
0001
0000
0100
0000
0010
0000
1000
0100
0000
0010
0000
,
0001
0010
0000
0001
0010
0000
0100
1000
0000
0100
1000
0000
0010
0000
0100
0000
,
0001
0100
0000
0001
0100
0000
0010
1000
0000
0010
1000
0000
0100
0000
0010
0000
,
0001
0000
1000
0000
0010
0000
0100
0001
0000
0100
0010
0000
1000
0000
0100
0010
,
1000
0000
0010
0000
0100
1000
0000
0001
0000
0100
0000
0010
0000
0000
0100
0000
,
0001
0000
0010
0000
0100
0000
1000
0001
0000
0100
0010
0000
1000
0000
0010
0100
,
1000
0000
0100
0010
0000
0010
0000
1000
0000
0001
0010
0000
0001
0000
1000
0000
,
0010
0000
0100
0000
0010
1000
0001
0010
0000
0100
1000
0000
0001
0000
0100
0010
,
0001
0000
0010
0000
0100
0001
0000
1000
0000
0100
0000
0010
0000
0000
0100
0000
,
1000
0000
0001
0000
0100
0010
1000
0100
0000
1000
0001
0000
0010
0000
0100
1000
,
0010
0000
1000
0001
0000
0010
0000
1000
0000
0010
0100
0000
0000
0000
1000
0000
,
0010
0000
0100
0001
0000
0100
0000
2000
0000
0000
3100
0000
0010
0000
1000
0000
,
0000
0000
0001
0000
0010
0001
0000
2000
0000
0000
3010
0000
0100
0000
0001
0000
,
0011
0100
0000
0120
0000
0000
0031
0100
,
0010
0000
1000
0000
0100
0010
0000
0002
0000
0000
0013
0000
0100
0000
1000
0000
,
0010
0000
0100
0001
0000
1000
0200
0000
0000
0000
0310
0100
0010
0000
0001
0000
,
1000
0000
0010
0000
0100
0001
0000
2000
0000
0000
3010
0000
1000
0000
0100
0000
,
0210
0000
0000
0310
0000
0000
1001
0000
0000
0000
0001
0000
1001
0000
1000
0000
,
0001
0000
0010
0100
1000
0000
0010
0100
0001
0000
1000
0000
0010
0000
1000
0000
,
0100
0010
0000
0100
0001
0000
0100
0010
0000
0100
1000
0000
0001
0000
0100
0000
,
0010
0001
0000
0010
0100
0000
0010
1000
0000
0010
0100
0000
0001
0000
1000
0000
,
0100
0000
0010
0001
0000
0100
0020
0000
0000
0000
1030
0001
1000
0000
0001
0000
,
0101
0000
0000
0100
0000
0000
0010
0000
1001
0000
0000
1000
0000
0000
0100
0000
,
0011
0000
0000
0100
0000
0000
1000
0000
1010
0000
0000
0000
0010
0000
0100
0001
,
0010
0000
0000
0100
0000
0000
0010
0000
1001
0000
0000
0001
0000
0000
0100
0000
,
1020
0000
0100
0000
0001
0030
0010
1000
,
1100
0000
0000
0010
0000
0000
0001
0000
0101
0000
0000
0010
0000
0000
0100
0000
,
1001
0000
0000
1000
0000
0000
0100
0000
0011
0000
0000
0000
1000
0000
0100
1000
,
0010
0000
0000
0100
0000
0000
0001
0000
0011
0000
0000
0100
0000
0000
1000
0000
,
1001
0000
0001
0100
0000
1000
0100
0000
0001
0100
0000
1000
0100
0000
0010
0000
,
1000
0000
0100
0010
0100
0000
0001
0000
0100
0000
1000
0010
1000
0000
0010
0000
,
0001
0000
0010
1000
0010
0000
0100
0000
0001
0000
0000
0000
0100
0000
0010
1000
,
0001
0000
0010
0100
0010
0000
0001
0000
0100
0000
0001
1000
0001
0000
0010
0000
,
0021
0000
0000
0000
0100
0000
0000
0000
1000
0000
0030
0000
0010
0000
0001
0100
,
0010
0000
0000
1010
0000
0000
1000
0000
0110
0000
0001
0010
0000
0000
0001
0000
,
0110
0000
1000
0010
0000
0000
0100
0000
0101
0000
0000
0000
0000
0000
0000
0000
,
1000
0000
0001
0000
0100
0010
0100
1000
0000
0100
0010
0000
0100
0000
0001
0000
,
1000
0000
0001
0000
0010
0100
0010
1000
0000
0010
0100
0000
0001
0000
0100
0000
,
1000
0000
0010
0000
0100
0010
1000
0200
0000
0000
1300
0000
0001
0000
0100
0000
,
0101
0101
1100
1100
,
0101
0000
0101
0000
1100
0000
1000
1000
,
0001
0000
0010
0000
0001
0000
1000
0000
0010
0000
0100
0000
0001
0000
0100
1000
,
0100
0000
0010
0000
1000
0000
0001
0000
0010
0000
0100
0000
1000
0001
0000
0000
,
0000
0110
0000
0000
;
