#TITLE:Anxiety;
#SUBTITLE:;
#ARTIST:YUKIYANAGI;
#TITLETRANSLIT:;
#SUBTITLETRANSLIT:;
#ARTISTTRANSLIT:;
#GENRE:;
#CREDIT:;
#MUSIC:Anxiety.ogg;
#BANNER:;
#BACKGROUND:;
#CDTITLE:;
#SAMPLESTART:15.615;
#SAMPLELENGTH:20.000;
#SELECTABLE:YES;
#OFFSET:-1.913;
#BPMS:0.000=140.000;
#STOPS:;
#DISPLAYBPM:140.000;
#ORIGIN:;
#TAGS:;
#PREVIEWVID:;
#JACKET:;
#CDIMAGE:;
#DISCIMAGE:;
#BGCHANGES:;
#FGCHANGES:;

//--------------- dance-single - ----------------
#NOTES:
     dance-single:
     :
     Beginner:
     4:
     0.16329,0.193004,0.009447,0.037786,0.004723,121,120,1,4,0,0,0,0,0,0.16329,0.193004,0.009447,0.037786,0.004723,121,120,1,4,0,0,0,0,0:
0000
0000
0000
0000
,
0000
0000
0000
0000
,
0000
0000
0000
0000
,
0000
0000
0000
0000
,
1000
0000
0001
0000
,
0100
0000
0010
0000
,
1000
0000
0001
0000
,
0010
0000
0100
0000
,
1000
1000
0000
0000
,
0010
0010
0000
0000
,
0100
0100
0000
0000
,
0001
0001
0000
0000
,
1000
0100
0000
0000
,
0010
0001
0000
0000
,
0100
0010
0000
0000
,
1000
0000
1000
0000
,
0001
0001
0000
0000
,
0010
0010
0000
0000
,
0100
0100
0000
0000
,
1000
1000
0000
0000
,
0001
0100
0000
0000
,
0010
1000
0000
0000
,
0100
0010
0000
0000
,
0001
0000
0001
0000
,
1000
0000
0010
0000
,
0100
0001
0100
0000
,
0001
0000
1000
0000
,
0100
0000
0010
0000
,
0001
0000
0010
0000
,
0100
1000
0100
0000
,
1000
0000
0001
0000
,
0100
0000
0010
0000
,
1000
0000
0001
0000
,
0010
0000
0100
0000
,
1000
0000
0010
0000
,
0100
0000
0001
0000
,
1000
0000
0000
0000
,
0000
0000
0000
0000
,
0002
0000
0000
0000
,
1003
0000
0010
0000
,
0100
0000
0010
0000
,
1000
0000
0001
0000
,
1000
0001
0100
0000
,
0010
1000
0010
0000
,
1000
0100
1000
0000
,
0001
0010
0001
0000
,
0100
0001
0100
0000
,
0001
1000
0001
0000
,
1000
0100
1000
0000
,
0010
0000
0200
0300
,
0001
0000
1000
0000
,
0100
0010
0001
0000
,
1000
0001
0100
0000
,
0010
1000
0001
0000
,
0010
0100
1000
0000
,
0010
0100
0001
0000
,
0010
0100
1000
0000
,
0010
0000
0100
0000
,
2002
0000
0000
3000
0000
0000
0003
0000
0000
0000
0000
0000
0000
0000
0000
0000
;

//--------------- dance-single - ----------------
#NOTES:
     dance-single:
     :
     Easy:
     6:
     0.268551,0.275721,0.066126,0.047233,0.004723,199,192,7,5,0,0,0,0,0,0.268551,0.275721,0.066126,0.047233,0.004723,199,192,7,5,0,0,0,0,0:
0000
0000
0000
0000
,
0000
0000
0000
0000
,
0000
0000
0000
0000
,
0000
0000
0000
0000
,
1000
0001
0100
0000
,
0010
1000
0001
0000
,
0010
0100
1000
0000
,
0001
1000
0001
0000
,
0100
0001
1000
0100
,
0010
0100
1000
0001
,
0100
0010
1000
0001
,
0010
0100
1000
0000
,
0100
1000
0001
0100
,
0010
0100
0001
1000
,
0100
0010
0001
1000
,
0010
0000
0000
0100
0000
0000
0010
0000
,
1000
0001
0010
0001
,
0100
0010
0100
0001
,
0010
0100
1000
0001
,
0100
0010
1000
0000
,
0001
1000
0010
1000
,
0100
0010
0100
1000
,
0010
0100
0001
1000
,
0100
0010
0200
0000
,
1300
0001
0100
0010
,
1000
0010
0100
0001
,
1001
0000
1000
0100
,
0110
0000
0001
0100
,
0001
1000
0100
0010
,
0001
0010
0100
1000
,
1001
0000
0001
0100
,
0110
0000
1000
0100
,
1000
0000
0000
0001
0000
0000
0000
0100
,
0000
0000
0000
0001
0000
0000
0000
0010
,
0000
0000
0000
0001
0000
0000
0000
0100
,
0000
0000
0000
0001
0000
0000
0000
0010
,
0100
0000
0000
0000
,
0000
0000
0000
0000
,
0200
0000
0000
0000
,
1300
0000
0000
0001
0000
0000
0100
0000
,
0010
0000
1000
0000
0001
0000
0010
0010
,
0000
0100
0100
0000
1000
0000
0002
0000
,
0103
0010
1000
0001
,
0010
0100
1000
0001
,
0100
0010
1000
0100
,
1000
0010
0100
0001
,
0010
0100
1000
0001
,
0100
0010
1000
0001
,
0010
0001
0100
0010
,
1000
0000
0002
0013
,
0110
0000
1000
0001
,
0101
0100
0010
1000
,
0100
0010
0100
1000
,
0010
0100
0001
0100
,
1000
0100
0001
0010
,
1000
0010
0001
0100
,
1000
0100
0001
0010
,
0100
0000
1000
0001
,
2002
0000
0000
3000
0000
0000
0003
0000
0000
0000
0000
0000
0000
0000
0000
0000
;

//--------------- dance-single - ----------------
#NOTES:
     dance-single:
     :
     Medium:
     9:
     0.377861,0.413581,0.085019,0.047233,0.089742,280,271,9,5,0,0,0,0,0,0.377861,0.413581,0.085019,0.047233,0.089742,280,271,9,5,0,0,0,0,0:
0000
0000
0000
0000
,
0000
0000
0000
0000
,
0000
0000
0000
0000
,
0000
0000
0000
0000
,
1001
0001
0100
0010
,
1000
0001
0010
0100
,
1100
1000
0010
0100
,
0001
1000
0001
0000
,
0100
0000
0000
0000
0010
0000
0000
1000
0000
0000
0001
0000
1000
0000
0000
0000
,
0100
0000
0000
0000
0010
0000
0000
0001
0000
0000
1000
0000
0001
0000
0000
0000
,
1000
0000
0000
0000
0010
0000
0000
0100
0000
0000
0001
0000
1000
0000
0000
0000
,
0001
0000
0000
0000
0010
0000
0000
0100
0000
0000
1000
0000
0002
0000
0000
0000
,
0013
0000
0000
0000
0001
0000
0000
1000
0000
0000
0010
0000
0100
0000
0000
0000
,
0010
0000
0000
0000
1000
0000
0000
0001
0000
0000
0010
0000
0100
0000
0000
0000
,
1000
0000
0000
0000
0100
0000
0000
0010
0000
0000
0001
0000
1000
0000
0000
0000
,
0001
0001
0000
1000
1000
0000
0010
0010
,
0100
0000
0000
0000
0001
0000
0000
1000
0000
0000
0001
0000
1000
0000
0100
0000
,
0010
0000
0000
0000
0100
0000
0000
1000
0000
0000
0001
0000
0100
0000
0010
0000
,
1000
0000
0000
0000
0001
0000
0000
0010
0000
0000
0100
0000
1000
0000
0001
0000
,
0100
0000
0000
0000
0010
0000
0000
1000
0000
0000
0010
0000
0100
0000
0001
0000
,
0010
0000
0000
0000
0010
0000
0000
0001
0000
0000
1000
0000
0001
0000
0100
0000
,
0010
0000
0000
0000
0100
0000
0000
0001
0000
0000
1000
0000
0100
0000
0010
0000
,
0001
0000
0000
0000
1000
0000
0000
0010
0000
0000
0100
0000
0001
0000
1000
0000
,
0100
0000
0000
0100
0000
0010
0100
0000
1000
0000
0001
0000
0200
0000
0000
0000
,
0310
1000
0001
0000
0010
0001
1000
0000
,
0010
0100
0010
0100
0001
0000
1000
0000
,
1100
0000
0001
0000
0100
0000
0010
1000
,
1010
0001
1000
0100
,
0010
0001
1000
0000
0010
1000
0001
0000
,
0010
0100
0010
0100
1000
0000
0001
0000
,
0101
0000
1000
0000
0100
0000
0010
0001
,
0011
1000
0001
0100
,
0010
0000
0000
0100
0001
0000
0000
0010
,
0001
0000
0000
0100
0001
0000
0000
0010
,
0100
0000
0000
1000
0010
0000
0000
0100
,
0001
0000
0000
0010
0100
0000
0000
1000
,
1001
0000
0000
0000
,
0000
0000
0000
0000
,
0002
0000
0000
0000
,
0103
0100
0000
0010
0010
0000
1000
1000
,
0001
0000
0010
0000
0100
0000
1000
0001
,
0000
1000
0001
1000
0010
0000
0200
0000
,
0301
0000
1000
0000
0100
0010
0100
0000
,
1000
0000
0001
0000
0100
0010
0100
0000
,
0001
0000
0010
0000
0001
0100
0001
0000
,
1000
0000
0010
0000
1000
0100
1000
0000
,
0001
0000
1000
0000
0010
0100
0010
0000
,
1000
0000
0001
0000
0010
0100
0010
0000
,
0001
0000
0100
0000
0001
0010
0001
0000
,
1000
0000
0000
0010
0000
0000
0100
0000
0020
0000
0000
0000
1030
0000
0001
0000
,
0100
0001
1000
0000
,
0001
1000
0001
0010
0100
0000
1000
0000
,
0001
1000
0001
0100
0010
0000
1000
0000
,
0100
0010
0001
0010
0100
0000
1000
0000
,
0010
0100
0001
0100
0010
1000
0001
0000
,
0010
0100
1000
0100
0010
0001
1000
0000
,
0001
0100
0010
1000
0100
0010
0001
0000
,
1000
0000
0000
0001
0000
0000
1000
0000
0010
0000
0100
0000
0010
0000
0000
0000
,
0220
0000
0000
0300
0000
0000
0030
0000
0000
0000
0000
0000
0000
0000
0000
0000
;

//--------------- dance-single - ----------------
#NOTES:
     dance-single:
     :
     Hard:
     12:
     0.541151,0.579013,0.018893,0.151144,0.401477,401,399,2,16,0,0,0,0,0,0.541151,0.579013,0.018893,0.151144,0.401477,401,399,2,16,0,0,0,0,0:
0000
0000
0000
0000
,
0000
0000
0000
0000
,
0000
0000
0000
0000
,
0000
0000
0000
0000
,
1001
0000
0001
0100
0010
0000
0010
0100
,
0001
0000
1000
0100
0010
0000
0010
0100
,
0100
0000
1000
0001
0100
0000
0010
1000
,
0001
0000
0010
0100
1000
0000
0000
0000
,
0001
0100
0000
0100
0001
0000
0000
1000
0000
0000
0100
0000
0010
0000
0001
0000
,
1000
0010
0000
0010
1000
0000
0000
0001
0000
0000
0010
0000
0100
0000
1000
0000
,
0100
0010
0000
0010
0001
0000
0000
1000
0000
0000
0010
0000
0100
0000
0001
0000
,
1000
0010
0000
0010
0100
0000
0000
0001
0000
0000
0010
0000
0200
0000
0000
0000
,
1300
0100
0000
0100
1000
0000
0000
0001
0000
0000
0100
0000
0010
0000
1000
0000
,
0001
0010
0000
0010
0001
0000
0000
1000
0000
0000
0010
0000
0100
0000
0001
0000
,
0100
0010
0000
0010
1000
0000
0000
0001
0000
0000
0010
0000
0100
0000
1000
0000
,
0001
0001
0000
0100
0100
0000
0010
0010
,
1000
0100
0000
0100
0010
0000
0000
0001
0000
1000
0010
0000
0100
0000
0001
0000
,
1000
0010
0000
0010
0100
0000
0000
0001
0000
1000
0100
0000
0010
0000
0001
0000
,
0100
0001
0000
0001
1000
0000
0000
0010
0000
0100
0001
0000
1000
0000
0100
0000
,
0010
0001
0000
0001
0100
0000
0000
0010
0000
0100
0001
0000
1000
0000
0010
0000
,
1000
0100
0000
0010
0001
0000
0000
0100
0000
0010
0100
0000
0001
0000
1000
0000
,
0001
0100
0000
0010
1000
0000
0000
0001
0000
0010
0100
0000
1000
0000
0001
0000
,
0100
0010
0000
1000
0100
0000
0000
0010
0000
0100
1000
0000
0001
0000
0100
0000
,
0010
0000
0010
1000
0000
1000
0001
0000
0010
0000
0010
0000
0200
0000
0000
0000
,
1300
0001
0100
0001
0010
0100
1000
0000
,
0001
1000
0001
1000
0001
0000
0010
0000
0001
0000
0100
0000
0010
0000
0000
0000
,
0001
0010
0100
0001
1000
0100
0010
1000
,
0010
0001
1000
0010
0100
0001
1000
0000
,
0001
1000
0100
1000
0010
0100
0001
0000
,
1000
0001
1000
0001
1000
0000
0010
0000
1000
0000
0100
0000
0010
0000
0000
0000
,
1000
0010
0100
1000
0001
0100
0010
0001
,
0010
1000
0001
0010
0100
1000
0001
0000
,
1000
0000
0002
0010
1003
0000
0002
0100
,
1003
0000
0002
0010
1003
0000
0002
0100
,
1003
0000
2000
0100
3001
0000
2000
0010
,
3001
0000
2000
0100
3001
0000
2000
0010
,
3001
0000
0000
0000
,
0000
0000
0000
0000
,
0200
0000
0000
0000
,
0301
0001
0000
0010
0010
0000
0100
0100
,
1000
0000
0001
0000
0100
0000
0010
0010
,
0000
1000
0001
1000
0100
0010
0002
0000
,
1003
0000
0010
0000
0100
0000
0001
0000
1000
0100
0000
0100
0010
0000
0001
0000
,
0100
0000
0010
0000
1000
0000
0001
0000
1000
0010
0000
0010
0100
0000
0001
0000
,
0010
0000
0100
0000
1000
0000
0001
0000
0100
0010
0000
0010
1000
0000
0001
0000
,
0100
0000
0001
0000
0010
0000
1000
0000
0010
0001
0000
0001
0010
0000
0100
0000
,
1000
0000
0100
0000
0010
0000
0001
0000
1000
0010
0000
0010
0100
0000
0001
0000
,
0010
0000
0100
0000
1000
0000
0001
0000
1000
0100
0000
0100
0010
0000
0001
0000
,
0100
0000
0010
0000
1000
0000
0001
0000
0010
0100
0000
0100
1000
0000
0001
0000
,
0100
0000
0000
0010
0000
0000
0100
0000
2000
0000
0000
0000
3100
0000
0001
0000
,
1000
0000
0100
0010
0100
0000
1000
0000
,
0001
0000
0100
0000
0010
0000
1000
0000
0100
1000
0000
0001
1000
0000
0001
0000
,
0100
0000
0010
0000
0100
0000
0001
0000
0010
0100
0000
1000
0100
0000
1000
0000
,
0010
0000
0100
0000
0001
0000
0100
0000
0010
1000
0000
0100
0010
0000
0100
0000
,
1000
0100
1000
0000
0001
0000
0100
0000
0010
0100
0010
0000
1000
0000
0001
0000
,
0010
0001
0010
0000
0100
0000
1000
0000
0001
1000
0001
0000
0100
0000
0010
0000
,
1000
0010
1000
0000
0001
0000
0010
0000
0100
1000
0001
0000
0100
0000
0010
0000
,
1000
0000
1000
0001
0000
0001
0010
0000
0100
0000
1000
0000
0002
0000
0003
0000
,
2002
0000
0000
3000
0000
0000
0003
0000
0000
0000
0000
0000
0000
0000
0000
0000
;

//--------------- dance-single - ----------------
#NOTES:
     dance-single:
     :
     Challenge:
     15:
     0.688247,0.79959,0.207824,0.141698,0.699043,510,488,22,15,0,0,0,0,0,0.688247,0.79959,0.207824,0.141698,0.699043,510,488,22,15,0,0,0,0,0:
0000
0000
0000
0000
,
0000
0000
0000
0000
,
0000
0000
0000
0000
,
0000
0000
0000
0000
,
1001
0000
0001
0100
0010
0000
0010
1000
,
0100
0000
1000
0100
0010
0000
0010
0011
,
1001
0000
1000
0010
0100
0000
0010
1000
,
0100
0010
0001
1000
0001
0000
0000
0000
,
1000
0010
0000
0010
0100
0000
0100
0001
0000
0001
1000
0000
0100
0010
0001
1000
,
0010
0100
0000
0100
0001
0000
0001
0010
0000
0010
0100
0000
1000
0001
0100
0010
,
1000
0100
0000
0100
0010
0000
0010
0001
0000
0001
1000
0000
0010
1000
0001
0010
,
0100
1000
0000
1000
0010
0000
0010
0100
0000
0100
0001
0000
2000
0000
0000
0000
,
3001
0010
0000
0010
0100
0000
0100
1000
0000
1000
0001
0000
0100
0010
1000
0001
,
0010
0100
0000
0100
1000
0000
1000
0010
0000
0010
0100
0000
0001
1000
0100
0010
,
0001
0100
0000
0100
0010
0000
0010
1000
0000
1000
0001
0000
0010
0001
1000
0010
,
0100
0101
0000
0010
1010
0000
1000
1100
,
0100
0010
0000
0010
0001
0000
0001
0100
0000
0100
1000
0000
0100
0010
1000
0001
,
0010
0100
0000
0100
1000
0000
1000
0010
0000
0010
0001
0000
0010
0100
0001
1000
,
0100
1000
0000
1000
0001
0000
0001
0010
0000
0010
1000
0000
0010
0100
0010
0001
,
1000
0010
0000
0010
0100
0000
0100
0001
0000
0001
0010
0000
1000
0010
0100
1000
,
0001
1000
0000
0010
1000
0000
0001
0100
0000
0010
0100
0000
0010
1000
0100
0010
,
0100
1000
0000
0001
0100
0000
0010
0100
0000
0001
0010
0000
0100
1000
0001
0100
,
0010
0100
0000
0001
1000
0000
0100
0010
0000
0100
1000
0000
0100
0000
1000
0000
,
0010
1000
0001
0010
0000
0010
0100
1000
0010
0000
0010
0000
2000
0000
0000
0000
,
3001
0000
0100
0001
0100
0000
0010
0000
1000
0000
0100
1000
0100
0000
0010
0000
,
0001
1000
0001
1000
0001
0000
0100
0000
0010
0000
1000
0000
0001
0000
0000
0000
,
0011
0010
0100
1000
0010
0100
0001
0101
,
0110
0100
0001
0010
0100
1000
0001
0000
,
1000
0000
0100
1000
0100
0000
0010
0000
0001
0000
0100
0001
0100
0000
0010
0000
,
1000
0001
1000
0001
1000
0000
0100
0000
0010
0000
0001
0000
1000
0000
0000
0000
,
1010
0010
0100
0001
0010
0100
1000
1100
,
0110
0100
1000
0010
0100
0001
1000
0000
,
0100
0010
0002
0010
1003
0010
0200
0010
,
0301
0100
0020
0100
1030
0100
2000
0100
,
3001
0010
0002
0010
0103
0010
2000
0010
,
3100
0010
0002
0100
0013
0100
2000
0100
,
3010
0000
0000
0000
,
0000
0000
0000
0000
,
0200
0000
0000
0000
,
0301
0101
0000
1000
1100
0000
0100
0110
,
0011
0000
0001
0000
0101
0000
0110
0010
,
0000
1000
1100
0100
0010
0001
2000
0000
,
3010
0000
0100
0000
0001
0000
0010
0000
0100
1000
0000
1000
0010
0100
0001
0000
,
1000
0000
0100
0000
0010
0000
0001
0000
0100
0001
0000
0001
0010
0100
1000
0000
,
0010
0000
1000
0000
0001
0000
0100
0000
1000
0100
0000
0100
0010
1000
0001
0000
,
0010
0000
0100
0000
1000
0000
0010
0000
0001
0010
0000
0010
0100
0001
0010
0000
,
0100
0000
0010
0000
0001
0000
0100
0000
0010
1000
0000
1000
0100
0010
0001
0000
,
1000
0000
0010
0000
0100
0000
0001
0000
0010
0001
0000
0001
0100
0010
1000
0000
,
0100
0000
1000
0000
0001
0000
0010
0000
1000
0010
0000
0010
0100
1000
0001
0000
,
0101
0000
0000
0100
0000
0000
0010
0000
1002
0000
0000
0000
1003
0000
0001
0000
,
0011
0000
0100
1000
0010
0000
0100
0000
,
0010
0000
1000
0000
0100
0000
0010
0000
0100
0001
0000
0100
1000
0001
0100
0000
,
0010
0000
0100
0000
0001
0000
0010
0000
1000
0010
0000
0001
1000
0010
0100
0000
,
0001
0000
1000
0000
0001
0000
0010
0000
0001
0100
0000
1000
0100
0010
1000
0000
,
0100
1000
0100
0010
0001
0100
0001
0000
1000
0010
0100
0001
0010
0100
0010
0000
,
0001
0010
0100
1000
0010
0100
0001
0000
1000
0100
0010
0001
0100
0010
1000
0000
,
0100
0010
0001
1000
0010
0100
1000
0000
0100
0010
1000
0100
0010
1000
0010
0000
,
0001
1000
0010
0100
0000
0100
0001
0010
0100
0000
0100
0000
1000
0001
1000
0002
,
0200
0000
0000
0003
0000
0000
0300
0000
0000
0000
0000
0000
0000
0000
0000
0000
;
