#VERSION:0.83;
#TITLE:愛のシュプリーム!;
#SUBTITLE:;
#ARTIST:fhana;
#TITLETRANSLIT:Ai no Supreme!;
#SUBTITLETRANSLIT:;
#ARTISTTRANSLIT:;
#GENRE:;
#CREDIT:;
#MUSIC:Ai no Supreme!.ogg;
#BANNER:;
#BACKGROUND:;
#CDTITLE:;
#SAMPLESTART:52.395;
#SAMPLELENGTH:20.000;
#SELECTABLE:YES;
#OFFSET:-0.856;
#BPMS:0.000=135.000;
#STOPS:;
#SPEEDS:0.000=1.000=0.000=0;
#SCROLLS:0.000=1.000;
#TICKCOUNTS:0.000=4;
#TIMESIGNATURES:0.000=4=4;
#LABELS:0.000=Song Start;
#COMBOS:0.000=1;
#ORIGIN:;
#TAGS:;
#PREVIEWVID:;
#JACKET:;
#CDIMAGE:;
#DISCIMAGE:;
#BGCHANGES:;
#FGCHANGES:;

//--------------- dance-single - ----------------
#NOTEDATA:;
#STEPSTYPE:dance-single;
#DESCRIPTION:;
#DIFFICULTY:Beginner;
#METER:2;
#RADARVALUES:0.128306,0.133058,0,0,0,81,81,0,0,0,0,0,0,0,0.128306,0.133058,0,0,0,81,81,0,0,0,0,0,0,0;
#CHARTNAME:;
#CHARTHASH:2147483647;
#BANNER:;
#CHARTSTYLE:;
#METERF:0.000000;
#LASTSECONDHINT:86.189339;
#CREDIT:ZSL;
#NOTES:
0000
0000
0000
0000
,
0000
0000
0000
0000
,
0000
0000
0000
0000
,
0000
0000
0000
0000
,
1000
0000
0001
0000
,
0100
0000
0000
0000
,
0010
0000
1000
0000
,
0001
0000
0000
0000
,
0010
0000
0100
0000
,
1000
0000
0100
0000
,
0010
0000
0001
0000
,
1000
0000
0010
0000
,
0100
0000
0001
0000
,
1000
0000
0100
0000
,
0010
0000
0100
0000
,
1000
0000
0001
0000
,
1000
0000
0010
0000
,
0100
0000
0001
0000
,
0010
0000
0100
0000
,
1000
0000
0100
0000
,
0010
0000
0000
0000
,
0001
0000
1000
0000
,
0010
0000
0000
0000
,
0100
0000
0001
0000
,
0010
0000
0000
0000
,
0100
0000
1000
0000
,
0010
0000
0000
0000
,
0100
0000
0001
0001
,
0000
0000
1000
0000
,
0100
0000
0010
0000
,
0100
0000
1000
0000
,
0010
0000
1000
0000
,
0100
0000
0010
0000
,
0001
0000
1000
0000
,
0010
0000
0100
0000
,
0001
0000
0010
0000
,
0001
0000
0100
0000
,
0010
0000
1000
0000
,
0100
0000
0010
0000
,
0100
0000
1000
0000
,
0010
0000
0100
0000
,
0001
0000
0000
0000
,
1000
0000
0000
0000
,
0100
0100
0000
0000
,
0000
0000
1000
1000
,
0000
0001
0000
0010
,
0000
0100
0000
1000
,
0000
0010
0000
0100
,
0100
0100
0000
0000
;

//--------------- dance-single - ----------------
#NOTEDATA:;
#STEPSTYPE:dance-single;
#DESCRIPTION:;
#DIFFICULTY:Easy;
#METER:5;
#RADARVALUES:0.255029,0.240752,0,0,0,161,161,0,0,0,0,0,0,0,0.255029,0.240752,0,0,0,161,161,0,0,0,0,0,0,0;
#CHARTNAME:;
#CHARTHASH:1960614687;
#BANNER:;
#CHARTSTYLE:;
#METERF:0.000000;
#LASTSECONDHINT:86.633781;
#CREDIT:ZSL;
#NOTES:
0000
0000
0000
0000
,
0000
0000
0000
0000
,
0000
0000
0000
0000
,
0000
0000
0000
0000
,
1000
0100
0010
0000
,
0001
0100
0010
0000
,
0100
0001
1000
0000
,
0100
0010
0001
0000
,
1000
1000
0010
0100
,
0001
0010
0100
0100
,
1000
0001
0100
0010
,
0100
0001
0010
0010
,
0100
1000
0001
0100
,
0010
1000
1000
0000
,
0001
0001
0010
0010
,
0100
0100
1000
1000
,
0001
0100
0010
1000
,
0100
0010
0001
0000
,
1000
0100
0010
0001
,
1000
0010
0100
0000
,
0001
1000
0100
1000
,
0001
0100
0010
1000
,
0001
0010
0100
0010
,
0001
1000
0010
0100
,
0001
0010
0100
1000
,
0001
0100
0010
0000
,
0100
0001
1000
0100
,
0010
0001
0100
0100
,
0000
0000
0010
0010
,
1000
0100
0010
0100
,
1000
0001
1000
1000
,
0001
0100
0010
0100
,
0001
0010
0100
0000
,
1000
0001
0100
0010
,
0100
0001
0010
0100
,
1000
0001
1000
0010
,
0100
0001
0100
0000
,
0001
1000
0010
0100
,
0001
1000
0001
0001
,
1000
0100
0010
0001
,
1000
0010
0100
0000
,
0010
1000
0100
0010
,
0100
1000
0010
0100
,
0001
0001
0000
1000
,
0000
0000
0100
0010
,
0001
1000
0010
0100
,
0010
1000
0001
0000
,
0010
0100
1000
0001
,
0100
0010
0000
0000
;

//--------------- dance-single - ----------------
#NOTEDATA:;
#STEPSTYPE:dance-single;
#DESCRIPTION:;
#DIFFICULTY:Medium;
#METER:9;
#RADARVALUES:0.369079,0.352258,0.066529,0.033265,0.166323,233,227,6,3,0,0,0,0,0,0.369079,0.352258,0.066529,0.033265,0.166323,233,227,6,3,0,0,0,0,0;
#CHARTNAME:;
#CHARTHASH:598687836;
#BANNER:;
#CHARTSTYLE:;
#METERF:0.000000;
#LASTSECONDHINT:87.744888;
#CREDIT:ZSL;
#NOTES:
0000
0000
0000
0000
,
0000
0000
0000
0000
,
0000
0000
0000
0000
,
0000
0000
0000
0000
,
1000
0000
0001
0000
0010
0000
0000
0001
0000
0001
0000
0000
0100
0000
0000
0000
,
0010
0000
1000
0000
0001
0000
0000
0010
0000
0010
0000
0000
0100
0000
0000
0000
,
1000
0000
0010
0000
0100
0000
0000
0001
0000
0001
0000
0000
0010
0000
0000
0000
,
0100
0000
0010
0000
0001
0000
0000
0100
0000
0100
0000
0000
0010
0000
0000
0000
,
1000
0000
0001
0000
0010
0100
1000
0000
,
0001
0000
0100
0000
0010
0100
0001
0000
,
1000
0100
0010
0001
,
1000
0000
1000
0000
0010
0100
0010
0000
,
1000
0001
0010
0100
,
0010
0001
1000
0000
0010
0100
0001
0000
,
0010
0110
0100
1100
,
1000
0000
0000
0000
1001
0000
0000
0001
0000
0000
0100
0000
0010
0000
0000
0000
,
0100
0001
0010
0100
,
0010
0000
0001
0000
1000
0001
0100
0000
,
0010
0100
0001
0010
,
0100
0000
0010
0000
0100
0000
0000
0000
1000
0001
0000
1000
0000
0000
0000
0000
,
0010
0100
0000
0001
0000
1000
0000
0000
0100
0000
0000
0000
0010
0000
0000
0000
,
0001
1000
0010
0000
0100
0001
1000
0000
,
0100
0000
0010
0000
0001
0100
0001
1000
,
0100
0010
0001
0100
,
0010
0000
0100
0000
0001
0010
0100
0000
,
1000
0000
0010
0000
1000
0100
0010
0000
,
0001
1000
0010
0100
,
0001
0000
1000
0000
0001
0000
1000
0000
0000
0000
0000
0000
0100
0000
0000
0010
0000
0000
0100
0000
0000
2100
0000
0000
,
0000
0000
3001
1001
,
1000
0000
0010
0000
0100
0010
1000
0000
,
0100
0000
0000
0010
0000
0000
0001
0000
0100
0000
0000
0000
0010
0000
0000
0000
,
0100
0000
0001
0000
1000
0100
0010
0100
,
1000
0000
0000
0000
0001
0100
0000
0010
0000
0000
0000
0000
0000
0000
0000
0000
,
0100
0000
0001
0000
0010
0100
1000
0000
,
0100
0010
0001
0001
,
0010
0000
0000
0010
0000
0000
0100
0000
1000
0000
0000
1000
0000
0000
0001
0000
,
0100
0010
0100
0001
1000
0000
0000
0000
,
0001
0000
0010
0000
0100
0010
0001
0000
,
0100
0000
0000
0010
0000
0000
1000
0000
0100
0000
0000
0000
0010
0000
0000
0000
,
0100
0000
1000
0000
0001
0100
0010
0100
,
0001
0000
0000
0000
1000
0100
0000
0010
0000
0000
0000
0000
0000
0000
0000
0000
,
0001
1000
0000
0001
0000
0000
0000
0000
0100
0010
0000
0100
0000
0000
0000
0000
,
0010
1000
0001
0010
0100
0000
0000
0000
,
0010
0001
1000
0010
0000
0100
0001
0010
,
0000
0000
0000
0100
1000
0000
1100
0000
,
0100
0000
0010
0000
0001
0000
0100
0010
,
1000
0000
0001
0002
0000
0000
0003
0000
,
0010
0000
0000
0000
0100
0000
1000
0001
0000
1000
0000
0000
0100
0000
1000
0000
,
0010
0100
0001
0020
0000
0000
0000
0030
;

//--------------- dance-single - ----------------
#NOTEDATA:;
#STEPSTYPE:dance-single;
#DESCRIPTION:;
#DIFFICULTY:Hard;
#METER:14;
#RADARVALUES:0.6843,0.731613,0.620939,0.12197,0.698556,432,376,56,11,0,0,0,0,0,0.6843,0.731613,0.620939,0.12197,0.698556,432,376,56,11,0,0,0,0,0;
#CHARTNAME:;
#CHARTHASH:2147483647;
#BANNER:;
#CHARTSTYLE:;
#METERF:0.000000;
#LASTSECONDHINT:87.744888;
#CREDIT:ZSL;
#NOTES:
0000
0000
0000
0000
,
0000
0000
0000
0000
,
0000
0000
0000
0000
,
0000
0000
0000
0000
,
1000
0000
0100
0000
0010
0000
0000
0001
0000
0001
1000
0000
0010
0000
0100
0000
,
0001
0000
1000
0000
0100
0000
0000
0010
0000
0010
0001
0000
0100
0000
0010
0000
,
1000
0000
0010
0000
0100
0000
0000
0001
0000
0001
1000
0000
0100
0000
0010
0000
,
0001
0000
1000
0000
0010
0000
0000
0100
0000
0100
0001
0000
0010
0000
0100
0000
,
1001
0000
0000
0000
0101
0000
0000
0010
1000
0000
0001
0000
0010
0000
0001
1000
,
0000
0010
0000
1000
0001
0000
0100
0000
0101
0000
1000
0000
1100
0000
0100
0010
,
0000
0010
0001
0000
1000
0000
0001
0000
0100
0000
1000
0100
0000
0100
0001
0000
,
1000
0100
0000
0100
0001
0100
0000
0010
0001
0000
1000
0000
1001
0000
0001
1000
,
0010
0100
0000
0010
1000
0000
0000
0110
0000
0001
1000
0000
0001
0000
1000
0100
,
0010
0001
1000
0010
0000
1000
0000
0100
0010
0001
1000
0020
0030
0000
0000
1000
,
0100
0010
0001
0000
0110
0000
0000
0100
1000
0010
0100
0000
1010
0000
0000
0010
,
1000
0001
0000
0010
0001
0000
0000
1001
0000
0000
1000
0000
1010
0000
0010
0100
,
0001
0000
1000
0001
1000
0000
0100
0010
0001
0000
1000
0000
1010
0000
0001
0100
,
0010
0100
1000
0000
0100
0000
0001
0000
1000
0100
0010
0001
0000
0000
1000
0000
,
0010
0000
1000
0100
0001
0000
0100
0010
0001
0000
1000
0000
1010
0000
0010
0100
,
0001
0000
0000
0000
1000
0000
0000
0000
0100
0000
0000
0000
0010
0000
0000
0100
0000
0000
0000
0000
0000
1000
0000
0000
0010
0000
0000
1000
0000
0000
0000
0000
0000
0110
0000
0000
0000
0000
0000
0000
0000
0000
0000
0000
0000
0001
0000
0000
,
1000
0100
0000
0011
0000
0110
0000
0000
0001
1000
0000
0001
0000
0100
0000
0010
,
1000
0100
0000
0010
0000
0010
0000
0001
0100
0000
0110
0000
0101
0000
1000
0000
,
1010
0000
0010
0100
0001
0010
0000
0001
1000
0010
0100
0001
0100
0010
0000
1000
,
0100
0000
0000
0010
0000
0000
0000
0000
0000
0000
0000
0000
1001
0000
0000
0000
0000
0000
0001
0000
0000
0010
0000
0000
0100
0000
0000
1000
0000
0000
0000
0000
0000
0000
0001
0000
0100
0000
0000
0000
0000
0000
0010
0000
0000
1000
0000
0000
,
0001
0000
0000
0010
0100
0000
1000
0001
0010
0000
0001
0100
0000
0000
0010
1000
,
0100
0000
0010
0001
0100
0010
0000
1000
0001
0000
1000
0010
0000
0000
0100
0001
,
0100
0000
0010
1000
0010
0000
0100
0000
0100
0000
0001
0010
0000
0000
1000
0000
,
0001
0000
0100
0000
0010
0000
0001
0000
0100
0000
0010
0000
0001
0000
0000
1000
0000
0000
0100
0000
0000
0201
0000
0000
,
0000
0000
0000
0000
0000
0000
0000
0000
0310
1000
0000
0000
1000
0100
0000
0000
,
0011
0000
0001
0000
0100
0000
0001
1000
0100
0000
0100
0000
1000
0000
1010
0000
,
0100
0000
0001
0010
0001
0000
0001
0000
1000
0000
0100
0000
1001
0000
0000
0000
,
0001
0000
0100
0000
0010
0000
1000
0010
1000
0000
1000
0000
0001
0000
0010
0000
,
1100
0000
0001
0000
1000
0010
0000
0202
0000
0000
0000
0000
0303
0000
0000
0000
,
1001
0000
1000
0000
0001
0000
0010
0100
1000
0000
0001
0000
0010
0000
0001
0000
,
0101
0000
0000
0110
0000
0000
1000
0000
1100
0000
0000
0000
0110
0000
0000
0000
,
0001
0100
0000
0110
0000
0000
1010
0000
1000
0100
0000
0011
0000
0000
0110
0000
,
0010
0000
0001
0000
0100
0000
0010
0000
1001
0000
0000
1001
0000
0000
0001
0000
,
0011
0000
0010
0000
0100
0000
1000
0010
0100
0000
0001
0000
0100
0000
0010
0000
,
1000
0000
0010
0001
0000
0000
0010
0000
1010
0000
0000
0000
1100
0000
0000
0000
,
0012
0000
0000
0000
0013
0000
0010
0100
1000
0000
0010
0000
1000
0000
1000
0000
,
0010
0000
0100
0000
0001
0010
0000
0110
0000
0000
0000
0000
0000
0000
0000
0000
,
1000
0100
0000
0001
0000
0000
0100
0000
1000
0010
0000
0001
0000
0000
0010
0000
,
0110
0000
1000
0000
0001
0000
1000
0000
1100
0000
0000
0110
0000
0000
0001
0000
,
1001
1000
1010
0110
0000
0100
0101
0022
,
0000
0000
0000
0000
0033
0000
0001
0010
1000
0010
0000
0000
0110
0000
0000
0000
,
0001
0000
0000
0000
1001
0000
1000
0001
0000
0100
0000
0000
0001
0000
1000
0000
,
1010
0001
0100
2020
0000
0000
3030
0010
,
1000
0000
0000
0000
0100
0000
1000
0100
0000
0100
0000
0100
0010
0000
0001
0000
,
1001
0001
0101
2020
0000
0000
0000
3030
;
