#VERSION:0.83;
#TITLE:《最愛》 ~ Curse;
#SUBTITLE:;
#ARTIST:James Landino feat.N i i;
#TITLETRANSLIT:《Saiai》 ~ Curse;
#SUBTITLETRANSLIT:;
#ARTISTTRANSLIT:;
#GENRE:;
#CREDIT:;
#MUSIC:(Saiai) ~ Curse.ogg;
#BANNER:;
#BACKGROUND:;
#CDTITLE:;
#SAMPLESTART:14.022;
#SAMPLELENGTH:20.000;
#SELECTABLE:YES;
#OFFSET:0.059;
#BPMS:0.000=157.000
,139.000=235.500
,139.750=78.500
,140.000=157.000
,155.000=235.500
,155.750=78.500
,156.000=157.000
,171.000=235.500
,171.750=78.500
,172.000=157.000
,187.000=235.500
,187.750=78.500
,188.000=157.000
;
#STOPS:;
#SPEEDS:0.000=1.000=0.000=0;
#SCROLLS:0.000=1.000;
#TICKCOUNTS:0.000=4;
#TIMESIGNATURES:0.000=4=4;
#LABELS:0.000=Song Start;
#COMBOS:0.000=1;
#DISPLAYBPM:157.000;
#ORIGIN:;
#TAGS:;
#PREVIEWVID:;
#JACKET:;
#CDIMAGE:;
#DISCIMAGE:;
#BGCHANGES:;
#FGCHANGES:;

//--------------- dance-single - ----------------
#NOTEDATA:;
#STEPSTYPE:dance-single;
#DESCRIPTION:;
#DIFFICULTY:Beginner;
#METER:4;
#RADARVALUES:0.150484,0.222538,0,0.036075,0.01443,146,146,0,5,0,0,0,0,0,0.150484,0.222538,0,0.036075,0.01443,146,146,0,5,0,0,0,0,0;
#DISPLAYBPM:157.000;
#CHARTNAME:;
#CHARTHASH:333195301;
#BANNER:;
#CHARTSTYLE:;
#METERF:0.000000;
#LASTSECONDHINT:134.654388;
#CREDIT:ZSL;
#NOTES:
0000
0000
0000
0000
,
0000
0000
0000
0000
,
0000
0000
0000
0000
,
0000
0000
0000
0000
,
0000
0000
0000
0000
,
1000
0000
0000
0000
,
0100
0000
0000
0000
,
0010
0000
0000
0000
,
0001
0000
0000
0000
,
1000
0000
0001
0000
,
0100
0000
0000
0000
,
0001
0000
1000
0000
,
0100
0000
0000
0000
,
0100
0000
1000
0000
,
0001
0000
0000
0000
,
0100
0000
0010
0000
,
1000
0000
0000
0000
,
1000
0000
0001
0000
,
0010
0000
0001
0000
,
0100
0000
0000
0000
,
0001
0000
0000
0000
,
0010
0000
0100
0000
,
1000
0000
0010
0000
,
0100
0000
0000
0000
,
0001
0000
0000
0000
,
1000
0000
0000
0000
,
0001
0000
0000
0000
,
0010
0000
0000
0000
,
0100
0000
0000
0000
,
1000
0000
0000
1000
0000
0000
0000
0000
,
0001
0000
0000
0001
0000
0000
0000
0000
,
0010
0000
0100
0010
,
0100
0000
0000
1000
,
0100
0000
1000
0000
,
0001
0000
0000
0000
0000
0000
0000
0000
1000
0000
0000
0000
0020
0000
0000
0030
,
0100
0000
0001
0000
,
1000
0000
0001
1000
,
0100
0000
0010
0000
,
0001
0000
0000
0000
0000
0000
0000
0000
1000
0000
0000
0000
0200
0000
0000
0300
,
0010
0000
0000
0000
0001
0000
0000
0100
,
0000
0010
0100
0000
,
0001
0000
1000
0000
,
0100
0000
0000
0000
0000
0000
0000
0000
0010
0000
0000
0000
0002
0000
0000
0003
,
0100
0000
0010
0000
,
1000
0000
0100
0010
,
0001
0000
1000
0000
,
0010
0000
0000
0000
0000
0000
0000
0000
0100
0000
0000
0000
0002
0000
0000
0003
,
0010
0000
0000
0010
0000
0000
0000
0000
,
0001
0000
1000
1000
,
0010
0000
0100
0000
,
0001
0000
1000
0000
,
0100
0000
0010
0000
,
0100
0100
0100
0000
,
1000
0000
0001
0000
,
0100
0000
0010
0000
,
1000
0000
0001
0001
,
0010
0000
0000
0000
,
0100
0000
0000
0000
,
1000
0000
0000
0000
,
0001
0000
0000
0000
,
0100
0000
0000
0000
,
0010
0000
0000
0000
,
0100
0000
0000
0000
,
0001
0000
0000
0000
,
1000
0000
0000
1000
,
0010
0000
0100
0000
,
0001
0000
0000
0000
,
0010
0000
0100
0000
,
1000
0000
0000
0000
,
1000
0000
0001
0000
,
0100
0000
0000
0000
,
0001
0000
0010
0000
,
0001
0000
0000
0000
,
0001
0000
1000
0000
,
0010
0000
1000
0000
,
0100
0000
0000
0000
,
1000
0000
0000
0000
,
0010
0000
0100
0000
,
0001
0000
0010
0000
,
0100
0000
0000
0000
,
1000
0000
0000
0000
,
0001
0000
0000
0001
0000
0000
0000
0000
,
0100
0000
0000
0010
0000
0000
0000
0000
,
1000
0000
0000
1000
0000
0000
0000
0000
,
0001
0000
1000
0000
,
0001
0010
0010
0000
,
0100
0100
1000
0000
,
0002
0000
0000
0000
,
0000
0003
0000
0000
0000
0000
0000
0000
;

//--------------- dance-single - ----------------
#NOTEDATA:;
#STEPSTYPE:dance-single;
#DESCRIPTION:;
#DIFFICULTY:Easy;
#METER:9;
#RADARVALUES:0.355597,0.445076,0,0.064935,0.08658,345,345,0,9,0,0,0,0,0,0.355597,0.445076,0,0.064935,0.08658,345,345,0,9,0,0,0,0,0;
#DISPLAYBPM:157.000;
#CHARTNAME:;
#CHARTHASH:3198065327;
#BANNER:;
#CHARTSTYLE:;
#METERF:0.000000;
#LASTSECONDHINT:134.654388;
#CREDIT:ZSL;
#NOTES:
0000
0000
0000
0000
,
0000
0000
0000
0000
,
0000
0000
0000
0000
,
0000
0000
0000
0000
,
0000
0000
0000
0000
,
1000
0001
1000
0100
,
0010
0001
1000
0000
,
0001
0100
0010
1000
,
0200
0000
0310
0010
,
0001
1000
0100
1000
,
0010
0100
0001
0100
,
0010
1000
0001
0010
,
0100
1000
0001
0000
,
0100
0010
1000
0100
,
0010
0001
0100
0001
,
0010
0100
1000
0001
,
0100
0000
0010
0000
,
0100
0000
0001
0000
1000
0010
0000
1000
,
0001
0010
0100
0000
,
1000
0000
0001
0010
0000
0100
0000
1000
,
0010
1000
0100
0000
,
0010
0001
0100
0010
,
0100
0001
0000
1000
0100
0000
0000
0000
,
0010
0000
0001
0000
0010
0000
0100
1000
,
0100
0010
0001
0000
,
1000
0000
0010
0100
0000
0000
0000
0000
,
0010
0000
0100
0001
0000
0000
0000
0000
,
1000
0000
0100
0010
0000
0000
0000
0000
,
0001
0000
0010
0100
0000
0000
0000
0000
,
1000
1000
0000
0001
0001
0000
0000
0000
,
0100
0100
0000
0010
0010
0000
0000
0000
,
1000
0001
1000
0001
1000
0000
1000
0000
,
0010
0000
0000
0200
,
0310
0000
0000
0000
1000
0000
0000
0000
0001
0000
0000
0010
0000
0000
0001
0000
,
1000
0000
0000
0100
0000
0000
1000
0000
0001
0000
0000
0000
0200
0000
0000
0300
,
0010
0000
0010
0000
2000
0000
0000
0000
3100
0000
0000
1000
0000
1000
0000
0000
,
0001
0000
0000
0100
0000
0100
0000
0000
0010
0000
0100
0000
0010
0000
0000
0000
,
1000
0000
0000
0000
0100
0000
0000
0000
1000
0000
0000
0010
0000
0000
1000
0000
,
0001
0000
0000
0100
0000
0000
0001
0000
1000
0000
0000
0000
0200
0000
0000
0300
,
0010
0000
0010
0000
0001
0000
0000
0000
1000
0000
0000
0010
0000
0000
0100
0000
,
0000
0001
1000
0000
0100
0010
0100
0000
,
1000
0000
0000
0000
0001
0000
0000
0000
0100
0000
0000
0010
0000
0000
1000
0000
,
0100
0000
0000
0010
0000
0000
0001
0000
1000
0000
0000
0000
0020
0000
0000
0030
,
0100
0000
0100
0000
0002
0000
0000
0000
1003
0000
0000
0001
0000
0001
0000
0000
,
0010
0000
0000
0100
0000
0100
0000
0000
1000
0000
0010
0000
1000
0000
0000
0000
,
0001
0000
0000
0000
1000
0000
0000
0000
0100
0000
0000
0010
0000
0000
0001
0000
,
0100
0000
0000
0010
0000
0000
1000
0000
0001
0000
0000
0000
0020
0000
0000
0030
,
0100
0000
0000
0100
0000
0000
0100
0000
1000
0000
0000
0000
0001
0000
0000
0000
,
0100
0000
0000
0010
0000
0000
0100
0000
0001
0000
0000
0000
1000
0000
0000
0000
,
0100
0010
0100
1000
,
0001
0100
0010
0100
,
0001
1000
0100
0010
,
0100
0100
1000
1000
,
0001
0100
0001
0000
1000
0000
0100
0000
,
0010
0100
0010
0000
0001
0000
1000
0000
,
0010
0000
0100
0000
0010
1000
0010
1000
,
0001
0000
0000
0000
,
0010
0100
1000
0100
,
0010
0001
1000
0000
,
0010
0100
0001
0010
,
0100
1000
0001
0000
,
1000
0010
0100
0010
,
1000
0100
0010
0000
,
0001
0010
0100
1000
,
0010
0000
1000
0001
,
1000
0010
1000
0001
,
0010
0100
1000
0010
,
0100
0010
1000
0001
,
0010
0001
0100
0000
,
0010
1000
0001
0010
,
0100
1000
0010
0100
,
0001
0100
0010
1000
,
0100
0000
1000
0000
,
0100
0000
1000
0000
0001
0010
0000
0001
,
1000
0010
0100
0000
,
0001
0000
1000
0010
0000
0100
0000
0001
,
0010
0001
0100
0000
,
0010
1000
0100
0010
,
0100
1000
0000
0001
0100
0000
0000
0000
,
0010
0000
1000
0000
0010
0000
0100
0001
,
0100
0010
1000
0000
,
0001
0010
0001
1000
0100
0000
0000
0000
,
1000
0100
1000
0010
0100
0000
0000
0000
,
0010
1000
0001
0010
0100
0000
0010
0000
,
0001
0000
0000
0001
0000
0000
1000
0000
0010
0000
0000
0000
0100
0000
0000
0000
,
0001
0000
1000
0010
0100
0010
1000
0000
,
0100
0010
0001
0010
0100
1000
0010
0000
,
0200
0000
0000
0000
,
0000
0300
0000
0000
0000
0000
0000
0000
;

//--------------- dance-single - ----------------
#NOTEDATA:;
#STEPSTYPE:dance-single;
#DESCRIPTION:;
#DIFFICULTY:Medium;
#METER:12;
#RADARVALUES:0.513296,0.604031,0.021645,0.1443,0.183983,498,495,3,20,0,0,0,0,0,0.513296,0.604031,0.021645,0.1443,0.183983,498,495,3,20,0,0,0,0,0;
#DISPLAYBPM:157.000;
#CHARTNAME:;
#CHARTHASH:3418373467;
#BANNER:;
#CHARTSTYLE:;
#METERF:0.000000;
#LASTSECONDHINT:134.654388;
#CREDIT:ZSL;
#NOTES:
0000
0000
0000
0000
,
0000
0000
0000
0000
,
0000
0000
0000
0000
,
0000
0000
0000
0000
,
0000
0000
0000
0000
,
1000
0001
0100
0001
,
1000
0000
0001
1000
0100
0000
0010
0000
,
0001
0000
0010
0000
0100
0000
1000
0001
,
0200
0000
0000
0000
0310
1000
0010
1000
,
0100
0010
0001
0100
,
0010
0000
0100
0001
1000
0000
0010
0000
,
1000
0000
0001
0010
0100
0000
1000
0001
,
0100
0000
0001
0000
1000
0100
0000
0010
,
0001
1000
0010
1000
,
0100
0000
0010
0100
1000
0000
0001
0000
,
0100
0000
0010
0100
0001
0000
1000
0001
,
0100
0000
0001
0010
0100
0000
1000
0000
,
0010
0000
0100
0000
0010
1000
0000
0001
,
0010
0100
1000
0001
0100
0000
0001
0000
,
0010
0000
0100
1000
0000
0010
0100
0001
,
0000
0100
0010
1000
0100
0100
0000
0000
,
0010
0000
0100
1000
0000
0001
0100
0010
,
0000
1000
0010
0100
0001
0000
1000
0000
,
0100
0010
0100
0000
1000
0000
0010
0100
,
0001
1000
0100
0000
1000
1000
0001
0000
,
1000
0100
1000
0001
0100
0001
0010
0000
,
0001
0010
0001
1000
0010
1000
0100
0000
,
0010
0100
1000
0010
0100
0001
0010
0000
,
0100
0000
0010
0010
0000
0000
0001
0000
,
1000
1000
0010
0100
0100
0010
1000
0000
,
0001
0001
0010
0100
0100
0010
0001
0000
,
0100
0100
0010
0010
1000
0001
1000
0001
,
0010
0000
0000
0000
0000
0000
0100
1000
,
0020
0000
0000
0000
0230
0000
0000
0000
0301
0000
0001
0100
0000
0100
0001
0000
,
1000
0000
1000
0100
0000
0100
0010
0000
0100
0000
1000
0000
0002
0000
0000
0003
,
1000
0000
1000
0000
0020
0000
0000
0000
1030
0001
0000
0001
0000
0001
0100
0000
,
0010
0000
0010
1000
0000
1000
0001
0000
0010
0000
0100
0000
1000
0000
0000
0000
,
0002
0000
0000
0000
0203
0000
0000
0000
0301
0000
0001
0010
0000
0010
0001
0000
,
1000
0000
1000
0010
0000
0010
0100
0000
0010
0000
1000
0000
0002
0000
0000
0003
,
0010
0000
0010
0000
0200
0000
0000
0000
1300
0000
1000
0001
0000
0001
0100
0000
,
0000
0010
1000
0100
0010
0000
0100
0000
,
2000
0000
0000
0000
3002
0000
0000
0000
0103
0000
0100
0010
0000
0010
1000
0000
,
0100
0000
0100
1000
0000
1000
0010
0000
0100
0000
0001
0000
2000
0000
0000
3000
,
0100
0000
0100
0000
0020
0000
0000
0000
0031
1000
0000
1000
0000
1000
0001
0000
,
0100
0000
0100
0010
0000
0010
0100
0000
0001
0000
1000
0000
0100
0000
0000
0000
,
0020
0000
0000
0000
0032
0000
0000
0000
0013
0000
0010
0100
0000
0100
1000
0000
,
0010
0000
0010
1000
0000
1000
0100
0000
0010
0000
0001
0000
2000
0000
0000
3000
,
0010
0000
0000
0010
0000
0000
0010
0000
1000
0001
0000
0001
0100
0000
0000
0000
,
0001
1000
0000
1000
0000
1000
0100
0000
0010
0000
0001
0000
0200
0000
0000
0000
,
0310
0100
0001
0100
0001
0000
1000
0000
,
0100
0010
0001
0010
0001
0000
1000
0000
,
0001
0100
0010
0100
0010
0000
1000
0000
,
0100
0010
0100
1000
0010
0100
0001
0000
,
1000
0100
1000
0100
0010
0001
0010
0000
,
0001
0100
0001
0100
0010
1000
0010
0000
,
1000
0000
1000
0000
0001
0000
0001
0000
0010
0100
0010
0000
0100
0010
0100
0000
,
1000
0000
0000
0000
,
0001
0100
0010
0100
,
0001
0000
1000
0100
1000
0000
0010
0000
,
0100
0010
1000
0001
,
0010
0000
0100
0010
0100
0000
1000
0000
,
0001
0100
0010
1000
,
0100
0000
0010
0100
0010
0000
0001
0000
,
1000
0000
0010
0100
0001
0000
1000
0100
,
0010
0000
0100
0000
1000
1000
0020
0000
,
0130
0000
0001
0000
0010
0000
0100
1000
,
0001
0000
0100
0010
1000
0000
0001
0000
,
0010
0000
0100
1000
0001
0000
1000
0001
,
0010
0000
0001
0000
0100
0100
0000
0010
,
1000
0000
0100
1000
0001
0000
0100
0000
,
0010
0000
1000
0001
0010
0000
0100
0000
,
1000
0000
0010
0100
0001
0000
0010
0100
,
1000
0000
0001
0000
1000
1000
0001
0000
,
0010
0000
0100
0000
0010
0001
0000
1000
,
0010
0100
0001
1000
0100
0000
1000
0000
,
0010
0000
0100
0001
0000
0010
0100
1000
,
0000
0100
0010
0001
0100
0100
0000
0000
,
0010
0000
0100
0001
0000
1000
0100
0010
,
0000
0001
0010
0100
1000
0000
0001
0000
,
0100
0010
0100
0000
0001
0000
0010
0100
,
1000
0001
0100
0000
0001
0001
1000
0000
,
0010
1000
0010
0000
0000
0000
1000
0010
1000
0000
0000
0000
0001
0000
0000
0000
,
0010
0100
0010
0000
0000
0000
0001
0100
0001
0000
0000
0000
1000
0000
0000
0000
,
0100
1000
0100
0000
0010
0000
0001
0000
0100
0010
0100
0000
0001
0000
0000
0000
,
0101
0000
0000
0100
0000
0000
0010
0000
1010
0000
0000
0000
1000
0000
0000
0000
,
0001
0000
0000
0000
0010
0000
0100
0000
1000
0001
1000
0001
1000
0000
0000
0000
,
0001
0000
0100
0000
0010
0000
1000
0000
0100
0010
0100
0010
0100
0000
0000
0000
,
2002
0000
0000
0000
,
0000
3003
0000
0000
0000
0000
0000
0000
;

//--------------- dance-single - ----------------
#NOTEDATA:;
#STEPSTYPE:dance-single;
#DESCRIPTION:;
#DIFFICULTY:Hard;
#METER:15;
#RADARVALUES:0.696764,0.85836,0.137085,0.12987,0.440115,676,657,19,18,0,0,0,0,0,0.696764,0.85836,0.137085,0.12987,0.440115,676,657,19,18,0,0,0,0,0;
#DISPLAYBPM:157.000;
#CHARTNAME:;
#CHARTHASH:2964456696;
#BANNER:;
#CHARTSTYLE:;
#METERF:0.000000;
#LASTSECONDHINT:134.654388;
#CREDIT:ZSL;
#NOTES:
0000
0000
0000
0000
,
0000
0000
0000
0000
,
0000
0000
0000
0000
,
0000
0000
0000
0000
,
0000
0000
0000
0000
,
1000
0100
0010
0001
,
0100
0000
0010
1000
0001
0000
0010
0100
,
1000
0000
0001
0100
0010
0000
1000
0001
,
0020
0000
0000
0000
0000
0000
0000
0000
0130
1000
0100
1000
0001
0100
0001
0100
,
0010
0000
1000
0010
0100
0001
0100
0010
,
1000
0001
0010
0100
0010
0001
1000
0010
,
0100
0001
0010
0100
1000
0001
1000
0010
,
0100
0000
0010
0000
1000
0000
0001
0000
0010
0000
0010
0000
0100
0000
1000
0100
,
1000
0000
0001
1000
0010
0100
0001
1000
,
0100
0010
0100
1000
0001
0010
0100
1000
,
0001
0100
0010
1000
0100
0010
0001
1000
,
0010
0000
0000
0000
0100
0000
0001
1000
0001
0000
0010
0000
0100
0000
0000
0000
,
1000
0100
0010
0100
1000
0010
0100
1000
,
0100
0010
1000
0001
0010
0000
0100
0000
,
1000
0001
0100
0001
1000
0100
0010
1000
,
0010
0001
0100
0001
1000
1000
0001
0000
,
0100
0010
1000
0001
0010
0100
1000
0001
,
0100
1000
0100
0001
1000
0000
0001
0000
,
0100
0010
1000
0001
0100
0001
0010
1000
,
0010
0000
0001
0000
1000
0000
0010
0100
0001
0000
1000
0000
0100
0000
0000
0000
,
0010
0010
0001
0100
0100
0010
1000
1000
,
0010
0010
1000
0100
0100
0010
0001
0001
,
0100
0100
0001
0010
0010
0100
1000
1000
,
0001
0000
0100
0110
0000
0000
1000
0000
,
1100
0100
0010
0011
0001
1000
1001
0001
,
0101
0100
0010
1010
1000
0001
0011
0010
,
0100
1000
0001
0010
0100
1000
0001
0100
0010
0000
0100
0000
0010
0000
1000
0000
,
0001
0000
0000
0000
0000
0000
0000
0000
0000
0000
0000
0000
1000
0001
0010
0100
,
2000
0000
0000
0000
3002
0000
0000
0000
0103
0000
0100
0010
0000
0010
1000
0010
,
0100
0000
0100
0001
0000
0001
1000
0100
0010
0000
0100
0000
2000
0000
0000
3000
,
0001
0000
0001
0000
1000
0001
1000
0001
0010
0100
0000
0100
0000
0100
1000
0000
,
1000
0010
0100
0001
0000
0001
1000
0100
0010
0000
0001
0000
0100
0000
0000
0000
,
0102
0000
0000
0000
2003
0000
0000
0000
3100
0000
0100
0010
0000
0010
0001
0010
,
0100
0000
0100
1000
0000
1000
0001
0100
0010
0000
0100
0000
0002
0000
0000
0003
,
1000
0000
1000
0000
0020
0000
0000
0000
0130
0000
0100
0001
0000
0001
0010
0000
,
0100
0000
1000
0001
0100
0000
0010
1000
0100
0000
0010
0001
0010
0000
0000
0000
,
1002
0000
0000
0000
2003
0000
0000
0000
3010
0000
0010
0100
0000
0100
0010
1000
,
0100
0000
0100
0010
0000
0010
0001
0100
0010
0000
1000
0000
0002
0000
0000
0003
,
1000
0000
1000
0000
0100
1000
0100
1000
0010
0100
0000
0100
0000
0100
0001
0000
,
0001
0010
0100
1000
0000
1000
0010
0100
0001
0000
1000
0000
0010
0000
0000
0000
,
2001
0000
0000
0000
3002
0000
0000
0000
0013
0000
0010
0100
0000
0100
0010
0001
,
0100
0000
0100
0010
0000
0010
1000
0100
0010
0000
0001
0000
2000
0000
0000
3000
,
1010
0000
0000
1001
0000
0000
0101
0000
0100
0010
0000
0010
2000
0000
0000
0000
,
3001
0010
0000
0010
0000
0010
0001
1000
0100
0000
0010
0000
0002
0000
0000
0000
,
0103
0001
1000
0010
0100
0000
0001
0000
1000
0000
0000
0000
0100
0000
0000
0000
,
0010
0100
1000
0001
0010
0000
0100
0000
1000
0000
0000
0000
0001
0000
0000
0000
,
1000
0010
0100
0001
1000
0000
0010
0000
0100
0000
0000
0000
0001
0000
0000
0000
,
1000
0100
1000
0000
0001
0100
0001
0000
1000
0001
1000
0001
1000
0000
0000
0000
,
0010
0100
0001
1000
0100
0000
0010
0000
0100
0000
1000
0000
0010
0000
0100
0000
,
0001
1000
0100
0010
0001
0000
0100
0000
0010
0000
1000
0000
0100
0000
0010
0000
,
0001
0010
0001
0010
0100
1000
0100
1000
0001
0100
0010
1000
0001
0100
0010
1000
,
0010
0000
0000
0000
,
1001
1000
0100
1000
,
0010
0000
0100
0001
0100
0000
0001
1000
,
0001
0000
1000
0100
1000
0000
0001
0010
,
0100
0000
0000
0000
1000
0000
0001
0000
0100
0000
0010
0100
0001
0000
1000
0100
,
0010
0001
1000
0010
,
0100
0000
0001
1000
0001
0000
0100
0010
,
0100
0000
0010
1000
0100
0000
0010
0001
,
0100
0000
0000
0000
0001
0000
1000
0100
1000
0000
0100
0000
0010
0001
1000
0010
,
0100
0000
0010
0100
0001
1000
0100
1000
,
0001
0100
0010
0100
0001
1000
0100
0010
,
0001
1000
0010
0100
0010
1000
0001
0010
,
0001
0000
1000
0000
0010
0000
1000
0000
0100
0000
0100
0000
1000
0000
0001
0100
,
0010
0000
1000
0010
0100
0001
0010
0100
,
1000
0100
0010
0001
0100
0010
0100
0001
,
0010
0100
1000
0010
0100
0001
0100
0010
,
1000
0000
0000
0000
0001
0000
1000
0100
0010
0000
0001
0000
1000
0000
0000
0000
,
0001
0100
0010
0100
0001
0010
0100
0001
,
0100
0010
0001
1000
0010
0000
0100
0000
,
0001
1000
0100
1000
0001
0100
0010
0001
,
0010
1000
0100
1000
0001
0001
1000
0000
,
0100
0010
0001
1000
0010
0100
0001
1000
,
0100
0001
0100
1000
0001
0000
1000
0000
,
0100
0010
0001
1000
0100
1000
0010
0001
,
0010
0000
1000
0000
0001
0000
0010
0100
1000
0000
0001
0000
0100
0000
0000
0000
,
0010
0100
0001
1000
0010
0000
0010
1000
0100
0000
1000
0000
0001
0000
0000
0000
,
1000
0100
0010
0001
0100
0000
0100
0001
0010
0000
0001
0000
1000
0000
0000
0000
,
0010
0100
0001
0010
0100
0000
0100
1000
0010
0100
0001
0000
0100
0000
0000
0000
,
0101
0000
0000
1001
0000
0000
1100
0000
0110
0000
0010
0000
0001
0000
0000
0000
,
1000
0000
0000
0000
0100
0010
0001
0010
0100
1000
0001
0100
0010
0000
0000
0000
,
0100
0010
1000
0001
1000
0100
0010
0001
1000
0010
0100
0001
0010
0000
0001
0000
,
2002
0000
0000
0000
,
0000
3003
0000
0000
0000
0000
0000
0000
;
