#TITLE:Winter;
#SUBTITLE:;
#ARTIST:DT8 Project;
#TITLETRANSLIT:;
#SUBTITLETRANSLIT:;
#ARTISTTRANSLIT:;
#GENRE:;
#CREDIT:;
#MENUCOLOR:;
#METERTYPE:DDR;
#BANNER:WinterLogo.png;
#BACKGROUND:WinterBG.png;
#LYRICSPATH:;
#CDTITLE:;
#MUSIC:Winter.ogg;
#OFFSET:-2.936;
#SAMPLESTART:37.268;
#SAMPLELENGTH:14.844;
#SELECTABLE:YES;
#LISTSORT:;
#BPMS:0.000=136.000;
#STOPS:;
#BGCHANGES:;
#ATTACKS:;

//---------------dance-single - ----------------
#NOTES:
     dance-single:
     :
     Hard:
     7:
     0.449,0.453,0.164,0.103,0.000:
0000
0000
0000
0000
,
0000
0000
0000
0000
,
0000
0000
0000
0000
,
0000
0000
0000
0000
,
1001
0000
1000
0100
0100
0000
0010
0000
,
1001
0000
0001
0100
0100
0000
0010
0000
,
1000
0100
0010
0100
,
0001
0100
1000
0010
0100
0001
0001
0000
,
1001
0000
0010
0100
0100
0000
1000
0000
,
1001
0000
0010
0100
0100
0000
0001
0000
,
0100
0010
0100
1000
,
0100
0001
0010
0100
0100
0000
1000
0000
,
0101
0000
1000
0100
0100
0000
0010
0000
,
1100
0000
0001
0100
0100
0000
0010
1000
,
0200
0000
0000
0320
0000
0032
0000
0203
,
0000
0000
0000
0010
0310
0000
1000
0000
,
0101
0000
1000
0001
0001
0000
0110
0000
,
1100
0000
0001
1000
1000
0000
0100
0010
,
0002
0000
0000
0000
0000
0203
0000
0320
,
0000
2030
0000
0000
0000
0000
3000
0000
,
0001
0100
0010
1000
0001
0100
0010
1000
,
0001
0010
0100
1000
0001
0010
0100
1000
,
0001
0100
0010
1000
0001
0100
0010
1000
,
0001
0010
0100
1000
0001
0010
0100
1000
,
0001
0100
0001
0010
0001
0100
0001
0010
,
0100
1000
0010
1000
0100
1000
0010
0100
,
0001
0010
0001
0100
0001
0010
0001
0100
,
0010
1000
0100
1000
0010
1000
0100
1000
,
0010
0100
0001
0001
1000
0100
0010
0010
,
0100
1000
0001
0001
0100
0010
1000
1000
,
0001
0100
0001
0001
1000
0100
1000
1000
,
0001
1000
0010
0010
1000
0001
0010
0010
,
0100
1000
0100
0001
0100
1000
0100
0001
,
0100
1000
0010
1000
0100
1000
0010
1000
,
0100
0010
1000
0010
0001
0010
1000
0010
,
0001
0100
0010
0100
0001
0100
0010
0100
,
0001
0000
0100
0010
0010
0000
1000
0000
,
0100
0000
0010
0001
0001
0000
0100
0000
,
0010
0000
1000
0001
0001
0000
0100
0000
,
0010
0000
1000
0100
0100
0000
1000
0000
,
0010
0000
0100
0001
0001
0000
0010
0000
,
0001
0000
0100
0010
0010
0000
1000
0000
,
0100
0000
0010
0100
0100
0000
1000
0000
,
0001
0000
0100
0001
0001
0000
0010
0000
,
0110
0000
1000
0001
0001
0000
0100
0000
,
0110
0000
0001
1000
1000
0000
0100
0000
,
0110
0000
0010
0001
0001
0000
0100
0000
,
0110
0000
0010
1000
1000
0000
0100
0000
,
0101
0000
1000
0100
0001
0000
0100
0000
,
1100
0000
0001
0100
1000
0000
0100
0000
,
0210
0000
0000
0001
0000
0010
0000
0310
,
0020
0000
0000
0100
0000
1000
0000
0130
;

//---------------dance-single - ----------------
#NOTES:
     dance-single:
     :
     Challenge:
     9:
     0.561,0.561,0.195,0.123,0.267: // measure 1
0000
0000
0000
0000
,  // measure 2
0000
0000
0000
0000
,  // measure 3
0000
0000
0000
0000
,  // measure 4
0000
0000
0000
0000
,  // measure 5
1000
0000
0000
0100
0010
0000
0001
0000
0100
0000
0000
0000
0010
0000
0000
0000
,  // measure 6
1000
0000
0000
0001
0100
0000
0010
0000
1000
0000
0000
0000
0100
0000
0000
0000
,  // measure 7
0010
0000
0000
0001
0100
0000
0010
0000
1000
0000
0000
0100
0010
0000
0001
0000
,  // measure 8
0100
0000
0000
0010
1000
0000
0100
0000
0010
0000
0000
0000
0001
0000
0000
0000
,  // measure 9
0100
0000
0000
0001
0010
0000
0100
0000
1000
0000
0000
0000
0010
0000
0000
0000
,  // measure 10
0100
0000
0000
0001
0010
0000
0100
0000
1000
0000
0000
0000
0001
0000
0000
0000
,  // measure 11
1000
0000
0000
0010
0100
0000
0001
0000
0010
0000
0000
0100
1000
0000
0010
0000
,  // measure 12
0100
0000
0000
0001
0010
0000
0100
0000
1000
0000
0000
0000
0001
0000
0000
0000
,  // measure 13
1000
0000
0100
0000
0001
0000
1000
0010
1000
0000
0010
0000
0001
0000
0100
0001
,  // measure 14
0100
0000
0010
0000
1000
0000
0100
0010
0100
0000
0001
0000
0100
0000
0000
0000
,  // measure 15
1000
0000
0001
0000
0100
0000
0010
0001
0010
0000
1000
0000
0100
0000
0010
0001
,  // measure 16
0010
0000
0100
0000
1000
0000
0010
0100
0010
0000
0100
0000
0001
0000
0000
0000
,  // measure 17
2000
0010
0001
3100
,  // measure 18
0020
0100
1000
0031
,  // measure 19
0200
0000
0000
0000
0000
0010
0000
0010
,  // measure 20
0300
0020
0000
0000
0000
0000
0030
0000
,  // measure 21
1000
0000
0001
0000
1000
0100
1000
0000
0001
0000
1000
0000
0001
0100
0001
0000
,  // measure 22
1000
0000
0001
0000
1000
0100
1000
0000
0001
0000
1000
0000
0001
0100
0001
0000
,  // measure 23
1000
0000
0001
0000
1000
0100
1000
0000
0001
0000
0100
0000
0001
0100
0001
0000
,  // measure 24
1000
0000
0001
0000
1000
0010
1000
0000
0001
0000
1000
0000
0001
1000
0001
0000
,  // measure 25
1000
0000
0010
0000
0100
0001
0100
0000
0001
0000
0010
0000
0100
1000
0100
0000
,  // measure 26
1000
0000
0010
0000
0100
0001
0100
0000
0001
0000
0010
0000
0100
1000
0100
0000
,  // measure 27
1000
0000
0010
0000
0001
0010
1000
0000
0001
0000
0010
0000
1000
0010
0001
0000
,  // measure 28
0100
0000
0010
0000
1000
0100
1000
0000
0100
0000
0010
0000
0001
0010
0001
0000
,  // measure 29
0100
0000
0010
0000
1000
0100
0010
0000
0100
0000
1000
0000
0010
0100
0001
0000
,  // measure 30
0100
0000
0010
0000
1000
0100
0010
0000
0100
0000
1000
0000
0010
0100
0001
0000
,  // measure 31
1000
0000
0100
0000
0010
1000
0010
0000
0001
0000
0100
0000
0010
0001
0010
0000
,  // measure 32
1000
0000
0100
0000
0010
1000
0010
0000
0001
0000
0100
0000
0010
0001
0010
0000
,  // measure 33
1000
0000
0001
0000
1000
0100
0001
0000
1000
0000
0010
0000
0001
0100
0010
0000
,  // measure 34
1000
0000
0001
0000
1000
0100
0001
0000
1000
0000
0010
0000
0001
0100
0010
0000
,  // measure 35
1000
0000
0010
0000
0001
0010
1000
0000
0001
0000
0010
0000
1000
0010
0001
0000
,  // measure 36
1000
0000
0100
0000
0001
0100
1000
0000
0001
0000
0100
0000
1000
0100
0001
0000
,  // measure 37
0200
0000
0010
1000
1000
0000
0010
0000
,  // measure 38
0001
0000
1000
0001
0001
0000
0010
0000
,  // measure 39
1000
0000
0001
0010
0010
0000
0001
0000
,  // measure 40
1000
0000
0001
1000
1000
0000
0310
0000
,  // measure 41
0002
0000
0010
1000
1000
0000
0100
0000
,  // measure 42
0010
0000
1000
0100
0100
0000
0010
0000
,  // measure 43
1000
0000
0100
0010
0010
0000
1000
0000
,  // measure 44
0100
0000
0010
1000
1000
0000
0103
0000
,  // measure 45
0012
0000
0103
0101
0101
0000
0010
0000
,  // measure 46
2001
0000
3100
1100
1100
0000
1000
0000
,  // measure 47
0210
0000
0301
0101
0101
0000
1000
0000
,  // measure 48
2001
0000
3010
1010
1010
0000
0100
0000
,  // measure 49
0201
0000
0310
0110
0110
0000
0010
0000
,  // measure 50
1020
0000
0130
0110
0110
0000
1001
0000
,  // measure 51
0010
0000
0001
0000
0100
1000
0100
0000
0001
0000
0010
0000
1000
0010
1000
0000
,  // measure 52
0001
0000
0100
0000
1000
0100
0001
0000
0010
0000
0100
0000
1000
0010
0001
0000
,  // measure 53
0010
0000
0000
0000
;

//---------------dance-single - ----------------
#NOTES:
     dance-single:
     :
     Medium:
     4:
     0.258,0.374,0.123,0.339,0.015:
0000
0000
0000
0000
,
0000
0000
0000
0000
,
0000
0000
0000
0000
,
0000
0000
0000
0000
,
2000
0000
0000
0000
3000
0000
0100
0020
,
0000
0000
0030
0001
,
0100
0000
0000
0010
0000
1000
0000
0200
,
0000
0000
0000
0000
0000
0300
0000
0010
,
0002
0000
0000
0000
0000
0103
0000
0020
,
0000
0000
0000
0030
0000
0000
0000
1000
,
0002
0000
0000
0103
0000
0010
0000
1000
,
0000
0100
0000
0000
0000
0000
0000
0010
,
0002
0000
0000
0000
0000
1003
0000
0200
,
0000
0000
0000
0300
0000
0000
1000
0010
,
2000
0000
0000
3010
0000
0100
0000
0002
,
0000
0000
0000
0000
0000
0003
0000
0100
,
0020
0000
0000
0000
0030
1000
0000
0200
,
0000
0000
0000
0300
0000
0000
1000
0001
,
0200
0000
0000
0000
0300
0010
0000
1000
,
0000
0002
0000
0000
0000
0000
0003
2001
,
0000
0000
0000
0000
0000
0100
3000
0200
,
0000
0000
0000
0000
0300
0000
0000
0010
,
0001
0000
0000
0100
0000
1000
0000
0100
,
0000
0000
0001
0000
0000
0000
0000
0000
0000
0000
1000
0000
0000
0100
0000
0000
,
2000
0000
0000
0000
3000
0001
1000
0020
,
0000
0000
0000
0000
0000
0030
0000
0100
,
0001
0000
0000
0010
0000
1000
0000
0020
,
0000
0000
0000
0000
0000
0000
0030
0000
0001
0000
0000
0100
0000
0000
0020
0000
,
0000
0000
0000
0000
0000
0130
0000
0200
,
0000
0000
0000
0000
0300
0000
0000
0010
,
2000
0000
0000
0001
0000
0010
0000
0100
,
0000
0000
3200
0000
0000
0000
0000
0000
0000
0300
0010
0000
0000
0001
0000
0000
,
0200
0000
0000
0300
0000
0001
1000
0200
,
0000
0000
0000
0000
0300
0000
0000
0010
,
0100
0000
0000
1000
0000
0010
0000
0100
,
0001
0000
0000
0010
0000
0100
0000
1000
,
0002
0000
0000
0000
0000
0000
0003
0020
,
0000
0000
0000
0030
0100
0000
2000
0000
,
0000
0000
0000
0000
3000
0000
0010
0200
,
0000
0000
0300
0001
,
2000
0000
0000
0000
0000
0000
3100
0020
,
0000
0000
0000
0030
0100
0000
2000
0000
,
0000
0000
0000
0000
3000
0000
0010
0200
,
0000
0000
0300
0000
,
0001
0100
0010
1010
,
1000
0100
0010
0011
,
0100
0001
0010
0110
,
0100
1000
0010
0110
,
0001
1000
0100
1100
,
1000
0001
0100
0101
,
1000
0010
0101
1100
,
0001
0010
1100
0101
,
1001
0000
0000
0000
;

//---------------dance-single - ----------------
#NOTES:
     dance-single:
     :
     Easy:
     2:
     0.216,0.241,0.000,0.596,0.000:
0000
0000
0000
0000
,
0000
0000
0000
0000
,
0000
0000
0000
0000
,
0000
0000
0000
0000
,
1000
0000
0001
0000
,
0100
0000
0010
0000
,
1000
0000
0001
0000
,
1000
0000
0001
0000
,
0100
0000
0010
0000
,
1000
0000
0100
0000
,
0010
0000
0100
0000
,
0010
0000
0100
0000
,
0001
0000
0100
0000
,
0010
0000
1000
0000
,
0100
0000
0010
0000
,
0001
0000
0100
0000
,
0010
1000
0001
0000
,
0010
0001
1000
0000
,
0020
0000
0000
0030
,
0200
0000
0000
0300
,
0002
0000
0203
0000
,
0320
0000
2030
0000
,
3200
0000
2300
0000
,
3002
0000
0203
0000
,
0302
0000
2003
0000
,
3020
0000
2030
0000
,
3002
0000
2003
0000
,
3200
0000
0302
0000
,
0203
0000
2300
0000
,
3020
0000
0032
0000
,
0023
0000
2030
0000
,
3002
0000
0203
0000
,
2300
0000
3200
0000
,
0302
0000
0023
0000
,
0230
0000
2300
0000
,
3020
0000
0230
0000
,
0302
0000
0000
0000
,
0023
0000
0000
0000
,
0230
0000
0000
0000
,
2300
0000
0000
3000
,
0020
0000
0000
0030
,
0200
0000
0000
0300
,
0002
0000
0000
0003
,
0020
0000
0000
0030
,
2000
0000
3002
0000
,
0023
0000
0230
0000
,
2300
0000
3020
0000
,
2030
0000
3002
0000
,
0023
0000
0230
0000
,
0320
0000
0032
0000
,
2003
0000
3020
0000
,
2030
0000
3200
0000
,
0301
0000
0000
0000
;
