#TITLE:V2;
#SUBTITLE:;
#ARTIST:TAKA;
#TITLETRANSLIT:;
#SUBTITLETRANSLIT:;
#ARTISTTRANSLIT:;
#CREDIT:;
#BANNER:v2.png;
#BACKGROUND:;
#LYRICSPATH:;
#CDTITLE:;
#MUSIC:V2.mp3;
#OFFSET:-0.380;
#SAMPLESTART:70.764;
#SAMPLELENGTH:14.000;
#SELECTABLE:YES;
#BPMS:0.000=150.000,156.000=75.000,168.000=150.000;
#STOPS:;
#BGCHANGES:0.000=V2.avi;

//---------------dance-single - ----------------
#NOTES:
     dance-single:
     :
     Hard:
     9:
     0.597,0.636,0.236,0.441,0.293: // measure 1
0000
0000
0000
0000
,  // measure 2
2002
0000
0000
3003
,  // measure 3
0010
0000
1000
0100
1000
0000
0100
0000
0010
0000
0001
0010
0001
0000
1000
0000
,  // measure 4
2020
0000
0000
3030
,  // measure 5
0100
0000
0001
0010
0001
0000
0010
0000
0100
0000
1000
0100
1000
0000
0001
0000
,  // measure 6
0202
0000
0000
0303
,  // measure 7
0001
0000
0010
1000
0010
0000
1000
0000
0001
0000
0100
0001
0100
0000
0010
0000
,  // measure 8
0022
0000
0000
0033
,  // measure 9
0001
0000
0100
1000
0100
0000
1000
0000
0001
0000
0010
0001
0010
0000
0100
0000
,  // measure 10
1000
0000
0010
1000
0001
0000
0010
0000
0100
0000
1000
0100
0001
0000
0010
0000
,  // measure 11
0100
0000
0001
0100
0010
0000
0001
0000
1000
0000
0100
1000
0010
0000
0001
0000
,  // measure 12
0200
0000
0010
0000
0310
0000
0000
0000
1000
0001
0000
0000
0001
1000
0000
0000
,  // measure 13
0100
0010
0000
0000
0010
0100
0000
0000
1000
0010
0000
0000
0001
0010
0000
0000
,  // measure 14
0100
1000
0100
0000
0001
0010
0001
0000
1000
0010
1000
0000
0010
0100
1000
0000
,  // measure 15
0200
0000
0000
0000
0300
0000
0000
0000
0001
1000
0001
0000
0100
0010
0100
0000
,  // measure 16
1000
0010
1000
0000
0001
0010
0001
0000
1000
0001
1000
0000
0100
0010
0100
0000
,  // measure 17
2000
0001
0001
3001
0002
1000
1000
1003
,  // measure 18
2200
0000
0000
0000
3300
0000
0000
0000
0001
0010
0001
0000
1000
0100
1000
0000
,  // measure 19
0010
0100
0010
0000
1000
0010
1000
0000
0001
1000
0001
0000
0100
0010
0001
0000
,  // measure 20
1000
0100
0010
0001
0010
0100
1000
0100
,  // measure 21
2002
3003
1001
0000
,  // measure 22
0220
0330
0110
0000
,  // measure 23
0001
0001
0001
0000
1000
1000
1000
0000
,  // measure 24
0010
0100
0010
0000
1000
0001
0100
0000
1000
0100
1000
0000
0001
0010
0001
0000
,  // measure 25
2200
0000
0000
3300
,  // measure 26
0010
0001
0010
0001
0010
0001
0010
0001
0010
0001
0010
0001
0010
0001
0010
0000
,  // measure 27
0022
0000
0000
0033
,  // measure 28
1000
0100
1000
0100
1000
0100
1000
0100
1000
0100
1000
0100
1000
0100
1000
0000
,  // measure 29
2200
0000
0000
3300
,  // measure 30
0010
0100
0010
0100
0010
0100
0010
0100
0010
0100
0010
0100
0010
0100
0010
0000
,  // measure 31
0001
0000
0000
1000
0001
0000
0000
0000
0010
0000
0000
0100
0010
0000
0000
0000
,  // measure 32
1000
0100
1000
0000
0001
0000
0001
0000
0010
0100
1000
0000
0100
0000
0100
0000
,  // measure 33
0001
0010
0100
0000
1000
0100
0010
0000
0100
0010
0001
0000
0100
0000
0000
0000
,  // measure 34
2002
0000
0000
3003
,  // measure 35
0010
1000
0010
1000
0010
1000
0010
1000
,  // measure 36
0001
0100
0001
0100
0001
0100
0001
0100
,  // measure 37
0001
0010
0001
0010
0001
0010
0001
0010
,  // measure 38
1000
0100
1000
0100
1000
0100
1000
0100
,  // measure 39
0010
0010
1000
1000
0001
0001
0100
0100
,  // measure 40
2002
0000
0000
0000
,  // measure 41
0000
0000
0000
0000
,  // measure 42
0000
0000
0000
0000
0000
0000
0000
3003
,  // measure 43
0102
1000
0100
0013
,  // measure 44
0200
0001
0010
1300
,  // measure 45
2000
0010
0100
3001
,  // measure 46
0020
0001
1000
0130
,  // measure 47
0201
0010
1000
0301
,  // measure 48
2000
0010
0100
3001
,  // measure 49
0002
0010
0100
1003
,  // measure 50
0020
0100
1000
0031
,  // measure 51
0210
0000
0001
0000
1000
0010
0301
0000
,  // measure 52
0002
0000
1000
0000
0010
0100
1003
0000
,  // measure 53
2100
0000
0010
0000
0001
0100
3010
0000
,  // measure 54
0020
0000
0100
0000
0001
0100
1030
0000
,  // measure 55
1200
0000
0010
0000
0010
0001
1300
0000
,  // measure 56
0002
0000
0010
0000
0010
0100
1003
0000
,  // measure 57
2000
0000
0010
3000
,  // measure 58
0002
0000
0100
0003
,  // measure 59
0200
0310
0020
0130
,  // measure 60
1000
0001
0010
0100
0001
1000
0100
0000
,  // measure 61
2002
0000
0000
3003
,  // measure 62
0010
0000
1000
0100
1000
0000
0100
0000
0010
0000
0001
0100
0001
0000
0100
0000
,  // measure 63
2001
0000
0010
0000
0100
0100
3100
0000
,  // measure 64
1000
0000
0100
0001
0100
0000
0001
0000
1000
0000
0010
0001
0010
0000
0001
0000
,  // measure 65
0210
0000
1000
0000
0010
0001
0310
0000
,  // measure 66
0100
0000
0001
0010
0001
0000
1000
0000
0100
0000
1000
0001
1000
0000
0010
0000
,  // measure 67
0102
0000
1000
0000
0100
0010
0103
0000
,  // measure 68
1000
0010
1000
0000
0001
0100
0001
0000
2002
0000
0000
0000
0000
0000
3003
0000
,  // measure 69
1000
0000
0010
0001
1000
0000
0100
0000
0010
0000
0100
0000
0010
0000
0000
0000
,  // measure 70
0010
0000
0001
0100
0001
0000
1000
0000
0001
0000
1000
0000
0001
0000
0000
0000
,  // measure 71
0010
0000
0001
0100
0010
0000
1000
0000
0001
0000
1000
0000
0001
0000
0000
0000
,  // measure 72
0102
0010
1000
0100
0010
0100
0013
0000
,  // measure 73
0020
0001
0100
1000
0100
0001
0130
0000
,  // measure 74
2010
0100
0010
3001
0011
0011
1100
1100
,  // measure 75
0000
2002
0000
0000
0000
0000
0000
0000
,  // measure 76
0000
0000
0000
0000
,  // measure 77
3003
0000
0000
0000
;

//---------------dance-single - ----------------
#NOTES:
     dance-single:
     :
     Medium:
     7:
     0.389,0.490,0.304,0.274,0.000:
0000
0000
0000
0000
,
2002
0000
0000
3003
,
0010
1000
0010
0000
0010
1000
0010
0000
,
0202
0000
0000
0303
,
0001
0010
0001
0000
0001
0010
0001
0000
,
0022
0000
0000
0033
,
0010
0100
0010
0000
1000
0001
1000
0000
,
2002
0000
0000
3003
,
0001
0100
0001
0000
1000
0100
1000
0000
,
0001
1000
0010
0100
,
0001
1000
0100
0010
,
1010
0001
0101
1100
,
0101
1100
0101
1100
,
0001
0010
0001
0010
,
1001
0000
0010
0010
,
1000
0010
1000
0000
0001
0000
0001
0000
,
0100
0010
0100
0010
,
1010
0000
0101
0001
,
0100
0000
0001
0000
1000
0010
1000
0000
,
0001
0100
0001
0000
0001
0010
0001
0000
,
2000
0000
0001
3001
,
0020
0000
1000
1030
,
0002
0103
2000
3100
,
0002
0013
2000
3010
,
2020
0000
0000
3030
,
0001
0000
0001
0000
0001
0100
0001
0000
,
0202
0000
0000
0303
,
0001
0010
0001
0000
0001
0010
0001
0000
,
2200
0000
0000
3300
,
0010
0010
0100
0100
0010
0010
0100
0100
,
0101
1100
0101
1100
,
0001
0010
0001
0010
0001
0010
0001
0010
,
1000
0000
1000
0000
0100
0100
0100
0000
,
2200
0000
0000
3300
,
0010
0000
0010
0000
0010
1000
0010
0000
,
0001
0000
0001
0000
0001
0100
0001
0000
,
1000
0000
1100
0000
0001
0010
0001
0000
,
1000
0010
1000
0000
0100
1000
0100
0000
,
0001
0001
0101
1100
,
2002
0000
0000
0000
,
0000
0000
0000
0000
,
0000
0000
0000
0000
0000
0000
0000
3003
,
1000
1000
1000
1000
,
0001
0001
0001
0001
,
0100
0100
0100
0100
,
0010
0010
0010
0010
,
1010
0001
0001
0001
,
0100
0100
0100
0100
,
0010
0010
0010
0010
,
1000
1000
1000
1000
,
1001
0001
0001
0001
,
1000
1000
1000
1000
,
0010
0010
0100
0100
,
0010
0010
0100
0100
,
0110
0000
1010
0000
,
0001
0001
0101
1000
,
0210
0300
0020
0030
,
2100
3000
0020
0030
,
0220
0330
2002
3003
,
1000
0001
1000
0010
,
2002
0000
0000
3003
,
0010
0000
1000
0000
0001
0100
0001
0000
,
0001
0000
0010
0000
1000
1000
1000
0000
,
0010
1000
0010
0000
0001
0100
0001
0000
,
1100
0000
0001
0000
0001
0010
0001
0000
,
1000
0000
1000
0000
1000
0010
1000
0000
,
1100
0001
0101
1000
,
0010
0010
0100
0100
,
0010
0010
0010
0010
,
0100
0100
0100
0100
,
0001
0001
1000
1000
,
0010
0000
0010
0000
1000
0010
1000
0000
,
0001
0000
0001
0000
0001
0100
0001
0000
,
1000
0000
1000
0000
0100
1000
0100
0010
,
0000
2002
0000
0000
0000
0000
0000
0000
,
0000
0000
0000
3003
;

//---------------dance-single - ----------------
#NOTES:
     dance-single:
     :
     Easy:
     4:
     0.291,0.404,0.259,0.167,0.000:
0000
0000
0000
0000
,
2002
0000
0000
3003
,
0010
0010
0100
0100
,
0220
0000
0000
0330
,
1000
1000
0001
0001
,
0022
0000
0000
0033
,
1000
0100
1000
0100
,
2200
0000
0000
3300
,
0001
0010
0001
0010
,
1000
0000
1000
1000
,
0001
0000
0001
0001
,
0100
0000
0010
0010
,
0100
0100
0010
0010
,
1000
0000
0010
1000
,
1010
0000
0101
0000
,
0001
0000
0010
0001
,
0010
0001
1000
0010
,
0100
0000
0001
0100
,
0001
0100
1000
0100
,
1000
0100
0010
0100
,
0110
0000
0001
0000
,
1010
0000
0100
0000
,
0011
0100
0110
1000
,
1010
0001
0101
1000
,
2002
0000
0000
3003
,
1000
0000
1000
0000
,
2002
0000
0000
3003
,
0010
0000
0010
0000
,
0220
0000
0000
0330
,
0100
0000
0100
0000
,
0011
0000
0010
0000
,
1000
0001
1000
0001
,
0010
0010
0010
0100
,
0220
0000
0000
0330
,
0001
0000
0001
0000
,
1000
0000
1000
0000
,
0010
0010
0010
0000
,
0100
0100
0100
0000
,
0010
1000
0001
0100
,
2002
0000
0000
3003
,
0000
0000
0000
0000
,
0000
0000
0000
0000
,
1000
1000
1000
1000
,
0001
0001
0001
0001
,
0100
0100
0100
0100
,
0010
0010
0010
0010
,
1010
1000
1000
1000
,
0001
0001
0001
0001
,
0100
0100
0100
0100
,
0010
0010
0010
0010
,
1001
1000
1000
1000
,
0010
0010
0010
0010
,
1010
1000
1000
1000
,
0001
0001
0001
0001
,
0101
0100
0100
0100
,
0010
0010
0010
0010
,
1010
0000
0101
0000
,
0011
0000
1100
0000
,
1001
0000
0110
0000
,
0101
1100
1010
0011
,
2002
0000
0000
3003
,
1000
0000
1000
1000
,
0010
0001
0010
0000
,
0001
0000
0100
0100
,
0010
0100
0010
0000
,
1000
0000
0100
0010
,
1000
0001
1000
0000
,
0001
0000
0010
0000
,
0001
0000
0001
0001
,
1000
0000
1000
1000
,
0010
0000
0100
0100
,
0010
0010
1000
1000
,
0001
0001
0100
0100
,
0001
0010
0100
1000
,
0000
2002
0000
0000
0000
0000
0000
0000
,
0000
0000
0000
3003
;
