#TITLE:Snowman;
#SUBTITLE:(Trance Remix);
#ARTIST:LUV2;
#TITLETRANSLIT:;
#SUBTITLETRANSLIT:;
#ARTISTTRANSLIT:;
#GENRE:Uplifting Trance;
#CREDIT:;
#BANNER:bn.png;
#BACKGROUND:bg.PNG;
#LYRICSPATH:;
#CDTITLE:;
#MUSIC:Snowman (Trance Remix).mp3;
#OFFSET:-0.047000;
#SAMPLESTART:13.723948;
#SAMPLELENGTH:12.000000;
#SELECTABLE:YES;
#BPMS:0.000000=140.000122;
#STOPS:;
#DELAYS:;
#TIMESIGNATURES:0.000000=4=4
;
#BGCHANGES:;
#KEYSOUNDS:;
#ATTACKS:;

//---------------dance-single - Pandemonium X----------------
#NOTES:
     dance-single:
     Pandemonium X:
     Hard:
     8:
     0.441,0.603,0.279,0.427,0.078,307.000,36.000,55.000,0.000,0.000,0.000,0.000,-1.000,-1.000,0.441,0.603,0.279,0.427,0.078,307.000,36.000,55.000,0.000,0.000,0.000,0.000,-1.000,-1.000:
0000
0000
0000
0000
,
0000
0000
0000
0000
,
0000
0000
0000
0000
,
0000
0000
0000
0000
,
0101
0000
0000
0010
0000
0000
1000
0000
0110
0000
0000
0001
0000
0000
0001
0000
,
0110
0000
0000
0010
0000
0000
1000
0000
0011
0000
0000
0001
0000
0000
0100
0000
,
1010
0000
0000
0100
0000
0000
0001
0000
1100
0000
0000
0010
0000
0000
0001
0000
,
1010
0000
0000
0100
0000
0000
0001
0000
1010
0000
0000
0100
0000
0000
0001
0000
,
0010
0000
0100
1000
0000
0010
0000
0100
,
0000
0010
1000
0100
0000
0000
0000
0000
,
0001
0000
0001
0010
0000
0100
0000
0010
,
0000
0001
0100
0010
0000
1000
0100
0000
,
1001
0110
0000
0000
,
0000
0001
1000
0001
0100
0001
0010
0001
,
0100
0010
1000
0100
0010
0100
1000
0001
,
0010
0001
0100
0010
1000
0100
0010
0100
,
1000
0000
1000
0001
0000
0010
0000
0100
,
0000
0100
0010
0001
0000
0000
0000
0000
,
0101
0000
0001
0100
0000
0010
0000
1000
,
0000
1000
0100
0010
0000
0010
0100
0000
,
1100
0110
0001
0100
,
0010
0010
1000
0001
,
0010
0001
0010
0100
1000
0001
0010
0100
,
1000
0001
0010
0100
1000
0001
0010
0100
,
2000
0100
0100
0100
,
3200
0010
0320
0001
,
0032
0100
0100
0100
,
0203
0320
0230
0302
,
2003
0100
0100
0100
,
3200
1000
2300
0100
,
3200
1000
1000
1300
,
2000
3200
0320
0032
,
0203
0001
0001
0001
,
0302
1000
2003
0010
,
3020
0100
0100
0100
,
0230
0320
2030
3020
,
0130
0000
0000
0010
0000
0000
1000
0000
1001
0000
0000
0010
0000
0000
0100
0000
,
1001
0000
0000
0010
0000
0000
0001
0000
0110
0000
0000
1000
0000
0000
1000
0000
,
0100
0010
0000
0001
0000
0000
0001
0100
0010
1000
0000
1001
0000
0000
0100
0010
,
0100
0010
0100
0010
0100
0000
0010
0000
1000
0000
0001
0000
0010
0000
0100
0000
,
0011
0100
1010
0100
,
1001
0000
0100
0000
0110
0000
0100
0001
,
1000
0001
0011
0010
,
1010
0011
1010
0011
,
1010
0100
1001
0010
,
1100
0010
1100
0001
,
0110
1000
0011
0100
,
1001
0010
1010
1000
,
1001
0000
0001
0100
0010
0000
0001
0100
,
0010
0000
0010
1000
0100
0000
0100
1000
,
0010
0000
0110
0000
,
0010
0100
0010
1000
0001
0010
0100
1000
,
0001
0100
0001
0100
1000
0100
1000
0100
,
0001
0100
0001
0100
1000
0100
1000
0100
,
0010
1000
0100
0001
0100
1000
0010
0001
,
0010
1000
0010
0100
1000
0100
0001
0010
,
0200
0000
0000
0000
,
2300
0000
3020
0000
,
2030
0000
0000
0000
,
3200
2300
3020
0230
,
0302
0000
0000
0000
,
0023
0000
0230
0000
,
0320
0000
0000
0000
,
0032
0023
0032
0203
,
0320
0000
0000
0000
,
0200
0030
0020
0300
,
0200
0000
0000
0030
,
0320
2030
3200
0320
,
0002
0000
0000
0030
,
0200
0003
0020
0300
,
2000
0000
0000
3000
,
0230
0000
0002
0300
,
0020
0000
0000
0000
,
0000
0000
0000
0000
,
0033
0000
0000
0000
;

//---------------dance-single - ----------------
#NOTES:
     dance-single:
     :
     Medium:
     5:
     0.267,0.459,0.116,0.225,0.000,197.000,15.000,29.000,0.000,0.000,0.000,0.000,-1.000,-1.000,0.267,0.459,0.116,0.225,0.000,197.000,15.000,29.000,0.000,0.000,0.000,0.000,-1.000,-1.000:
0000
0000
0000
0000
,
0000
0000
0000
0000
,
0000
0000
0000
0000
,
0000
0000
0000
0000
,
0110
0000
1001
0000
,
1010
0000
0000
0000
0011
0000
0000
1000
,
0100
0000
0000
0001
0100
0000
0000
1000
,
0100
0110
0001
1100
,
1001
0000
1000
0001
0000
0010
0000
1000
,
0000
0010
0001
0100
0000
0000
0000
0000
,
0100
0000
0010
1000
0000
0100
0000
0001
,
0000
0100
1000
0010
0000
0100
0001
0000
,
1000
0010
0000
0000
,
0100
0100
0010
0010
,
1000
0001
0010
0001
,
1000
0100
1000
0010
,
0110
0000
0010
1000
0000
0100
0000
0010
,
0000
0010
0100
1000
0000
0000
0000
0000
,
1001
0000
0001
0010
0000
0100
0000
0010
,
0000
0001
0010
0100
0000
0010
0001
0000
,
1001
0110
0000
0000
,
0020
0000
2030
0000
,
3100
1000
0100
0001
,
0100
1000
0010
0000
0100
0001
1000
0000
,
2002
0000
0000
3000
,
1000
0000
1000
0000
,
2000
0000
0000
3000
,
0100
0100
0100
0100
,
0200
0000
0000
0300
,
0010
0000
0010
0000
,
0020
0000
0000
0030
,
0010
0010
0010
0013
,
2002
0000
0000
0003
,
0100
0000
0100
0000
,
0200
0000
0000
0300
,
0010
0010
0010
0010
,
0002
0000
0000
3000
,
0200
0003
0020
0300
,
2000
0000
0000
0030
,
0200
3000
2000
3300
,
1100
0000
0010
0000
,
0100
0000
0000
0000
0010
0000
0000
1000
,
0001
0000
1100
0000
,
1000
0000
0100
0000
0010
0001
0010
0100
,
1000
0000
0100
0000
,
0001
0000
0000
0000
0100
0000
0000
1000
,
0010
0000
0100
0000
,
0001
0000
0000
0000
0001
0010
0100
1000
,
0010
0000
0100
0000
,
0001
0000
0100
0000
,
0010
0000
0100
0000
,
0010
1000
0001
0100
,
0010
0010
0100
0100
,
0001
0001
1000
1000
,
0001
1000
0001
1000
0001
1000
0001
1000
,
0001
1000
0001
1000
0001
1000
0001
1000
,
0002
0000
0000
0003
,
1000
0000
0020
0000
,
0200
0000
0000
0330
,
0010
1000
0100
0020
,
0002
0000
0000
0033
,
0002
0000
0100
0000
,
0200
0000
0000
0303
,
0010
1000
0100
1000
,
0020
0000
0000
0000
,
0100
0000
0100
0000
,
0200
0000
0000
0030
,
0010
0010
0010
0010
,
0020
0000
0000
0330
,
0002
0000
1000
0000
,
2000
0000
0000
0003
,
0100
0000
0100
0000
,
0200
0000
0000
0000
,
0000
0000
0000
0000
,
3300
0000
0000
0000
;

//---------------dance-single - ----------------
#NOTES:
     dance-single:
     :
     Easy:
     3:
     0.222,0.230,0.132,0.163,0.000,162.000,17.000,21.000,0.000,0.000,0.000,0.000,-1.000,-1.000,0.222,0.230,0.132,0.163,0.000,162.000,17.000,21.000,0.000,0.000,0.000,0.000,-1.000,-1.000:
0000
0000
0000
0000
,
0000
0000
0000
0000
,
0000
0000
0000
0000
,
0000
0000
0000
0000
,
0001
0000
1000
0000
,
0001
0000
1000
0000
,
1001
0000
0110
0000
,
1001
0000
0110
0000
,
0010
1000
0100
1000
,
0010
0100
0000
0000
,
0100
0010
1000
0001
,
0010
1000
0010
0001
,
0011
0011
0000
0000
,
0002
0000
1000
0000
,
2000
0000
0000
3003
,
0001
1000
0100
1000
,
0010
0100
0010
1000
,
0100
0010
0000
0000
,
0010
0001
0100
0010
,
0001
0001
0010
0100
,
1000
0001
0000
0000
,
0000
0000
0000
0000
,
0000
1000
0100
0010
,
0001
1000
0100
0010
,
0002
0000
0000
0003
,
0020
0030
0020
0030
,
0020
0000
0000
0030
,
0100
0100
0100
0100
,
2000
0000
0000
3000
,
0200
0300
2000
3000
,
0200
0000
0000
0300
,
0010
0010
0010
0010
,
0002
0000
0000
0003
,
0200
0300
0200
0300
,
0200
0000
0000
0300
,
0010
0010
0010
0010
,
0110
0000
1001
0000
,
1010
0000
0101
0000
,
1100
0000
0011
0000
,
0110
0000
1001
0000
,
0010
0000
0100
0000
,
0001
0000
0010
0000
,
1000
0000
0010
0000
,
0001
0010
0100
1000
,
1100
0000
0010
0000
,
0001
0000
0100
0000
,
1000
0000
1000
0000
,
0010
0000
0100
0100
,
1001
0000
0010
0000
,
1000
0000
0100
0000
,
1000
0000
0010
0000
,
0100
0001
0010
0100
,
1000
1000
0001
0001
,
1000
1000
0001
0001
,
0010
0010
0010
0010
,
0100
0100
0100
0100
,
2200
0000
0000
0300
,
0100
0000
0100
0000
,
0200
0000
0300
0000
,
3100
1000
0010
0100
,
0002
0000
0000
0000
,
0100
0000
0100
0000
,
0200
0000
0000
0300
,
0100
0100
0100
0103
,
0010
0000
0000
0000
,
0100
0000
1000
0000
,
0010
0000
0000
0000
,
0100
0010
1000
0001
,
0010
0000
0000
0000
,
0100
0000
1000
0000
,
0010
0000
0000
0000
,
0100
0000
0002
0000
,
0020
0000
0000
0000
,
0000
0000
0000
0000
,
0033
0000
0000
0000
;

//---------------dance-single - ----------------
#NOTES:
     dance-single:
     :
     Beginner:
     1:
     0.098,0.168,0.062,0.000,0.000,80.000,8.000,0.000,0.000,0.000,0.000,0.000,-1.000,-1.000,0.098,0.168,0.062,0.000,0.000,80.000,8.000,0.000,0.000,0.000,0.000,0.000,-1.000,-1.000: // measure 1
0000
0000
0000
0000
,  // measure 2
0000
0000
0000
0000
,  // measure 3
0000
0000
0000
0000
,  // measure 4
0000
0000
0000
0000
,  // measure 5
0001
0000
0001
0000
,  // measure 6
1000
0000
1000
0000
,  // measure 7
0010
0000
0100
0000
,  // measure 8
0010
0000
0100
0000
,  // measure 9
1001
0000
0000
0000
,  // measure 10
0000
0000
0000
0000
,  // measure 11
0100
0000
0000
0000
,  // measure 12
0000
0000
0000
0000
,  // measure 13
0001
0000
0000
0000
,  // measure 14
0010
0000
0000
0000
,  // measure 15
0000
0000
0000
0000
,  // measure 16
0000
0000
0000
0000
,  // measure 17
0100
0000
0000
0000
,  // measure 18
0000
0000
0000
0000
,  // measure 19
1000
0000
0000
0000
,  // measure 20
0000
0000
0000
0000
,  // measure 21
0010
0000
0000
0000
,  // measure 22
0010
0000
0000
0000
,  // measure 23
1000
0000
0000
0000
,  // measure 24
0001
0000
1000
0000
,  // measure 25
1001
0000
0000
0000
,  // measure 26
0010
0000
0010
0000
,  // measure 27
0010
0000
0000
0000
,  // measure 28
0100
0000
0100
0000
,  // measure 29
0100
0000
0000
0000
,  // measure 30
0001
0000
0001
0000
,  // measure 31
0001
0000
0000
0000
,  // measure 32
1000
0000
1000
0000
,  // measure 33
1000
0000
0000
0000
,  // measure 34
0010
0000
0010
0000
,  // measure 35
0010
0000
0000
0000
,  // measure 36
0100
0000
0100
0000
,  // measure 37
0110
0000
0010
0000
,  // measure 38
1001
0000
0001
0000
,  // measure 39
1001
0000
1000
0000
,  // measure 40
0110
0000
0010
0000
,  // measure 41
1001
0000
0000
0000
,  // measure 42
0010
0000
0000
0000
,  // measure 43
0100
0000
0000
0000
,  // measure 44
0001
0000
0001
0000
,  // measure 45
1000
0000
0000
0000
,  // measure 46
1000
0000
0000
0000
,  // measure 47
0100
0000
0000
0000
,  // measure 48
0100
0000
0000
0000
,  // measure 49
0001
0000
0000
0000
,  // measure 50
0001
0000
0000
0000
,  // measure 51
0010
0000
0000
0000
,  // measure 52
0100
0000
0100
0000
,  // measure 53
0010
0000
0000
0000
,  // measure 54
0001
0000
0000
0000
,  // measure 55
0010
0000
0000
0000
,  // measure 56
0100
0000
0000
0000
,  // measure 57
1001
0000
0000
0000
,  // measure 58
0010
0000
0010
0000
,  // measure 59
0010
0000
0000
0000
,  // measure 60
0010
0000
0010
0000
,  // measure 61
0010
0000
0000
0000
,  // measure 62
0100
0000
0100
0000
,  // measure 63
0100
0000
0000
0000
,  // measure 64
0001
0000
1000
0000
,  // measure 65
0100
0000
0000
0000
,  // measure 66
0000
0000
0000
0000
,  // measure 67
1000
0000
0000
0000
,  // measure 68
0000
0000
0000
0000
,  // measure 69
0001
0000
0000
0000
,  // measure 70
0000
0000
0000
0000
,  // measure 71
0010
0000
0000
0000
,  // measure 72
0000
0000
0000
0000
,  // measure 73
0100
0000
0000
0000
;
