#TITLE:Snow Flurries;
#SUBTITLE:;
#ARTIST:eiji;
#TITLETRANSLIT:;
#SUBTITLETRANSLIT:;
#ARTISTTRANSLIT:;
#CREDIT:;
#BANNER:Snow Flurries.png;
#BACKGROUND:Snow Flurries-bg.png;
#LYRICSPATH:;
#CDTITLE:./CDTITLES/Darien Style 8 TEMPEST.png;
#MUSIC:Snow Flurries.mp3;
#OFFSET:-0.060;
#SAMPLESTART:70.240;
#SAMPLELENGTH:13.420;
#SELECTABLE:YES;
#BPMS:0.000=140.000;
#STOPS:;
#BGCHANGES:;

//---------------dance-single - ----------------
#NOTES:
     dance-single:
     :
     Easy:
     3:
     0.251,0.335,0.108,0.118,0.000: // measure 1
0000
0000
0000
0000
,  // measure 2
0000
0000
0000
0000
,  // measure 3
0000
0000
0000
0000
,  // measure 4
0000
0000
0000
0000
,  // measure 5
0000
0000
0000
0000
,  // measure 6
0010
0100
0000
0010
,  // measure 7
0100
1000
0000
0001
,  // measure 8
0010
0100
0000
0010
,  // measure 9
0002
0000
0000
0003
,  // measure 10
0100
0100
0000
0010
,  // measure 11
0100
1001
0000
0010
,  // measure 12
0001
0010
0000
0100
,  // measure 13
1000
0001
0000
0010
,  // measure 14
0100
0001
0010
0010
,  // measure 15
0100
0000
0010
0100
,  // measure 16
1001
0000
0010
0100
,  // measure 17
0002
0000
0000
0003
,  // measure 18
0010
0010
0000
0100
,  // measure 19
1000
1000
0000
0010
,  // measure 20
0010
0001
0000
0010
,  // measure 21
1000
0100
0000
0010
,  // measure 22
0001
0001
0000
0100
,  // measure 23
1000
1000
0000
0010
,  // measure 24
0001
0000
0001
0000
,  // measure 25
0010
0110
1000
1100
,  // measure 26
2002
0000
0000
3003
,  // measure 27
0220
0000
0000
0330
,  // measure 28
0001
0001
0010
0000
,  // measure 29
0100
1000
0010
0100
,  // measure 30
0001
0000
0001
0000
,  // measure 31
0010
0000
0100
0000
,  // measure 32
1000
0010
0100
0000
,  // measure 33
0001
0010
0100
0001
,  // measure 34
0020
0000
1000
1030
,  // measure 35
0200
0000
0001
0301
,  // measure 36
0020
0000
0100
0130
,  // measure 37
2000
0000
0010
3010
,  // measure 38
0001
0010
0100
1000
,  // measure 39
0001
0010
0100
1000
,  // measure 40
0001
0010
1000
0010
,  // measure 41
2000
0000
0000
3000
,  // measure 42
0010
0000
0010
0000
,  // measure 43
0001
0010
0100
1000
,  // measure 44
0100
0000
1001
0000
,  // measure 45
0010
0100
0001
0010
,  // measure 46
0011
0000
0100
1000
,  // measure 47
0001
0010
0100
1000
,  // measure 48
1100
0000
0010
0100
,  // measure 49
1000
0100
0001
0100
,  // measure 50
1001
0010
0100
0000
,  // measure 51
0010
0100
1000
0000
,  // measure 52
0001
0010
0100
1000
,  // measure 53
0010
0000
0010
0000
,  // measure 54
0010
0100
1000
0001
,  // measure 55
0010
0000
0100
1000
,  // measure 56
0010
0010
0100
0100
,  // measure 57
0010
2000
0001
3001
,  // measure 58
0110
0000
0000
0000
;

//---------------dance-single - ----------------
#NOTES:
     dance-single:
     :
     Medium:
     6:
     0.424,0.419,0.255,0.049,0.000: // measure 1
0000
0000
0000
0000
,  // measure 2
0000
0000
0000
0000
,  // measure 3
0000
0000
0000
0000
,  // measure 4
0000
0000
0000
0000
,  // measure 5
0000
0000
0000
0000
,  // measure 6
0010
0010
0001
0100
,  // measure 7
1000
0000
0010
0000
0001
0100
1000
0100
,  // measure 8
0001
0010
0100
1000
,  // measure 9
0010
0000
0011
0000
1000
0010
0001
0010
,  // measure 10
1000
0010
0100
0100
,  // measure 11
0010
1001
0010
0000
,  // measure 12
0010
0100
1000
0010
,  // measure 13
0100
0001
0010
0000
0010
0001
0100
0000
,  // measure 14
0010
1001
0010
0100
,  // measure 15
1000
0010
0100
0000
0010
0000
1001
0000
,  // measure 16
0010
0001
0010
0100
,  // measure 17
2100
0000
0010
0000
0001
0001
3001
0000
,  // measure 18
0010
0100
0000
0010
,  // measure 19
0100
1000
0100
0000
0010
0000
0100
0000
,  // measure 20
0010
0001
0010
0000
0100
0000
1000
0000
,  // measure 21
0010
0100
1000
0000
0010
0000
0100
0000
,  // measure 22
0010
0100
0001
0000
0010
0000
0100
0000
,  // measure 23
0001
0010
0100
0000
1000
0100
0010
0000
,  // measure 24
0010
1001
0101
0010
,  // measure 25
1001
0011
1100
1001
,  // measure 26
0210
0010
0001
0001
,  // measure 27
1000
1000
0010
0310
,  // measure 28
0002
0010
0100
1000
,  // measure 29
0010
0000
0100
0000
1000
1000
1003
0000
,  // measure 30
0010
0000
0100
0000
1000
0100
0010
0000
,  // measure 31
0010
0000
0100
0000
0001
0100
1000
0100
,  // measure 32
0010
0010
1001
0010
,  // measure 33
0001
0010
1000
0010
0001
0000
0101
0000
,  // measure 34
0010
0100
0010
0000
0001
0100
1000
0100
,  // measure 35
0001
0100
0001
0000
0010
0100
0010
0100
,  // measure 36
0001
0010
0100
0000
1000
0010
0100
0010
,  // measure 37
0100
0001
1000
0000
0010
0100
0010
0100
,  // measure 38
1000
0100
0010
0000
0001
0100
1000
0100
,  // measure 39
0001
0100
1000
0000
0010
0100
0010
0100
,  // measure 40
0001
0100
1000
0000
1000
0100
0001
0000
,  // measure 41
0010
0100
0010
0100
0010
0100
0010
0000
,  // measure 42
0001
0010
0100
1000
0010
0000
0010
0000
,  // measure 43
1001
0000
0010
0000
0100
1000
0100
0010
,  // measure 44
0100
0010
2001
0010
,  // measure 45
0100
0000
0010
0000
0001
0001
3001
0000
,  // measure 46
0010
0012
0100
0100
,  // measure 47
1000
0000
0010
0000
0100
0100
0100
0103
,  // measure 48
0010
0010
0100
1000
,  // measure 49
0101
0000
0010
0000
0100
1000
0001
0100
,  // measure 50
0010
0000
0011
0000
0100
1000
0100
0010
,  // measure 51
0100
0000
0010
0000
1001
0000
0001
0010
,  // measure 52
0100
1000
0101
0010
,  // measure 53
1000
0100
0001
0100
0001
0000
0110
0000
,  // measure 54
0001
0010
1000
0000
1000
0010
0001
0000
,  // measure 55
0010
0100
0010
0000
1001
0000
0101
0000
,  // measure 56
1000
0100
0001
0010
1000
0000
0110
0000
,  // measure 57
0001
1000
0001
0000
0010
0100
0010
0100
,  // measure 58
0110
0000
0000
0000
;

//---------------dance-single - ----------------
#NOTES:
     dance-single:
     :
     Hard:
     8:
     0.540,0.475,0.127,0.020,0.505: // measure 1
0000
0000
0000
0000
,  // measure 2
0000
0000
0000
0000
,  // measure 3
0000
0000
0000
0000
,  // measure 4
0000
0000
0000
0000
,  // measure 5
0000
0000
0000
0000
,  // measure 6
0010
0001
0010
0000
0100
1000
0100
0010
,  // measure 7
0100
0001
0100
0000
0010
0100
1000
0100
,  // measure 8
0001
0010
0100
0000
1000
0100
0001
0100
,  // measure 9
1000
0010
0100
0000
0010
0100
0010
1000
,  // measure 10
0101
0000
0010
0000
0100
1000
0001
0100
,  // measure 11
0010
0100
0010
0000
0001
0100
1000
0100
,  // measure 12
0001
0100
0010
0000
0010
0100
0001
0010
,  // measure 13
0100
1000
0010
0000
0010
0100
0010
0100
,  // measure 14
0001
0010
0100
0000
0010
0001
0010
1000
,  // measure 15
0010
0001
0100
0000
0010
0100
0010
0100
,  // measure 16
0001
0010
0100
0000
1000
0010
0100
0000
,  // measure 17
0010
0100
0010
1000
0010
0100
0010
0100
,  // measure 18
1001
0000
0011
0000
0010
0000
0100
1000
,  // measure 19
0010
0100
0010
0000
0010
0000
0100
0000
,  // measure 20
1000
0001
1000
0010
0100
0001
0010
0100
,  // measure 21
0100
0010
1000
0001
0010
0100
0110
0000
,  // measure 22
0001
0000
1000
0000
0010
0000
0000
0000
0010
0000
0100
0000
0000
1000
0100
0000
,  // measure 23
0010
0000
0100
0000
0000
0000
0010
0000
0100
0000
0001
0000
0000
0010
0100
0000
,  // measure 24
0010
1000
0010
0000
0010
0100
0010
0000
,  // measure 25
1000
0100
0010
0100
0010
0100
0010
1000
,  // measure 26
1001
0000
0000
0001
0000
0000
0010
0000
0100
0000
0000
0100
0000
0010
0000
0100
,  // measure 27
0010
0000
0000
0100
0000
0000
0010
0000
1000
0010
0000
0100
0000
0010
0000
0100
,  // measure 28
0010
0000
0000
0001
0000
0000
0010
0000
0100
1000
0000
0100
0000
0010
0000
0100
,  // measure 29
0010
0000
0000
1000
0000
0000
0001
0000
0100
0010
0000
0100
0000
0000
0010
0000
,  // measure 30
1000
0000
0000
1000
0000
0000
0010
0000
0100
0000
0000
0001
0000
1000
0000
0001
,  // measure 31
0100
0000
0000
0010
0000
0000
0001
0000
0010
0001
0000
0010
0000
0001
0000
0010
,  // measure 32
0100
0000
0000
0010
0000
0000
0100
0000
1000
0100
0000
0010
0000
0100
0000
0010
,  // measure 33
0100
0000
0000
0010
0000
0000
1000
0000
0001
0100
0000
0010
0000
0000
0100
0000
,  // measure 34
2001
0000
0010
0000
0100
0100
0100
0100
,  // measure 35
0010
0010
0010
3000
0001
0010
0100
1000
,  // measure 36
0100
0010
0110
0000
0001
0010
0100
1000
,  // measure 37
0100
0010
2001
0000
0010
0010
0100
0100
,  // measure 38
0100
0000
0000
0000
0010
0000
0000
0000
0001
0000
0001
0000
0001
3000
0000
0000
,  // measure 39
0011
0000
1100
0000
0001
0100
0010
0100
,  // measure 40
0001
0010
0100
0000
1000
0100
0010
0100
,  // measure 41
0010
0010
0100
0100
1000
0100
0010
0100
,  // measure 42
0011
0000
0011
0000
0100
1000
0100
0010
,  // measure 43
0100
0000
0000
0010
0000
0000
0100
0000
0010
1000
0000
0010
0000
0100
0000
0010
,  // measure 44
0100
0000
0000
0001
0000
0000
0010
0000
0100
1000
0000
0100
0000
0010
0000
0100
,  // measure 45
0010
0000
0000
0001
0000
0000
0001
0000
1000
0010
0000
0100
0000
0000
1000
0000
,  // measure 46
0010
0000
0000
1000
0000
0000
0001
0000
0100
0000
0000
0010
0000
0100
0000
0010
,  // measure 47
1000
0000
0000
0010
0000
0000
0100
0000
0010
0100
0000
0010
0000
1000
0000
0001
,  // measure 48
0010
0000
0000
0100
0000
0000
0010
0000
1000
0010
0000
0100
0000
0010
0000
0100
,  // measure 49
0010
0000
0000
1000
0000
0000
0001
0000
0100
0001
0000
0100
0000
0010
0000
1000
,  // measure 50
0010
0000
0000
0010
0000
0000
0010
0000
0100
0000
0000
0001
0000
1000
0000
0010
,  // measure 51
0100
0000
0000
0010
0000
0000
0001
0000
0010
0100
0000
1000
0000
0100
0000
0010
,  // measure 52
0100
0000
0000
0010
0000
0000
0001
0000
0010
1000
0000
0010
0000
1000
0000
0001
,  // measure 53
1000
0000
0000
0001
0000
0000
0001
0000
0010
0100
0000
0010
0000
0000
1000
0000
,  // measure 54
0100
0000
0000
1000
0000
0000
0100
0000
0001
0000
0000
0010
0000
0001
0000
0010
,  // measure 55
0100
0000
0000
0010
0000
0000
0100
0000
0010
0100
0000
0010
0000
1000
0000
0001
,  // measure 56
0100
0000
0000
0010
0000
0000
0100
0000
1000
0100
0000
0010
0000
0100
0000
0010
,  // measure 57
0100
0000
0000
0010
0000
0000
0001
0000
0010
0100
0000
0010
0000
0100
0010
0000
,  // measure 58
1010
0000
0000
0000
;
