#TITLE:Silver Bells;
#SUBTITLE:;
#ARTIST:Relient K;
#TITLETRANSLIT:;
#SUBTITLETRANSLIT:;
#ARTISTTRANSLIT:;
#CREDIT:;
#BANNER:;
#BACKGROUND:;
#LYRICSPATH:;
#CDTITLE:;
#MUSIC:Silver Bells Relient K.mp3;
#OFFSET:-0.054;
#SAMPLESTART:69.689;
#SAMPLELENGTH:12.000;
#SELECTABLE:YES;
#BPMS:0.000=86.000;
#STOPS:;
#BGCHANGES:;

//---------------dance-single - ----------------
#NOTES:
     dance-single:
     :
     Hard:
     9:
     0.470,0.478,0.179,0.161,0.918:
0000
0000
0000
0000
,
1000
0100
2000
0000
0000
0000
0000
0000
0000
3000
0000
0000
,
0001
0100
0002
0000
0000
0000
0000
0000
0000
0003
0000
0000
,
1000
0000
0001
0000
1000
0000
0100
0000
0000
0000
0010
0001
,
0100
0002
0000
0000
0000
0000
0000
0000
0000
0000
0000
0000
,
1003
0100
1000
1100
0000
0000
0100
0000
0000
0110
0000
0000
,
0001
0100
0010
1010
0000
0000
1000
0000
0000
1001
0000
0000
,
0100
0000
1000
0000
0010
0000
0200
0000
0300
0002
0000
0003
,
0100
0010
1000
0001
1000
0001
1000
0010
0100
0001
0100
0010
,
1000
0010
0100
0001
0100
0001
0100
0010
1000
0010
0100
0001
,
0100
0010
1000
0010
0100
0001
0100
0001
0100
0010
1000
0010
,
1000
0000
0010
0000
0100
0000
0001
0000
0100
0000
0001
0000
0100
0000
0001
0000
0000
0010
0001
0000
1000
0000
0001
0000
,
1000
0100
0010
0001
0001
0001
0010
0010
0010
0001
0001
0001
,
1000
1000
1000
0100
0100
0100
0010
0010
0010
0001
0001
0001
,
1000
1000
1000
0010
0010
0010
0100
0100
0100
0001
0001
0001
,
0100
0010
1000
1010
1000
0001
1000
0010
1000
0010
0100
0001
,
0101
0001
0100
0000
0010
1000
0020
0000
0030
1010
0000
0000
,
0100
1000
0001
0000
0001
1000
0200
0000
0300
1100
0000
0000
,
0010
0000
0001
0000
0100
0000
0002
0000
0000
0003
1000
0010
,
0100
0001
0000
0011
0000
0000
1000
1000
1000
0010
0010
0010
,
1000
0100
0010
0000
0001
0010
0100
0000
0000
1100
0000
0000
,
0001
1000
0001
0000
0100
1000
0002
0000
0000
0003
0000
0000
,
2000
0000
3020
0000
0230
0000
0302
0000
0023
0000
0031
0000
,
0011
0000
0000
0001
0000
0000
0001
0001
0010
0110
0010
0100
,
1000
0010
1000
0010
0100
0010
0100
0010
0001
0010
0001
0010
,
0100
0010
0100
0010
1000
0010
1000
0010
0100
0001
0100
0010
,
0100
0001
0010
0100
1000
0100
0001
0100
0010
0100
1000
0010
,
0100
0001
0100
0010
1000
0010
1010
1000
0001
1001
1000
0100
,
0010
0001
0100
1000
0100
0010
0100
0001
0010
0100
1000
0010
,
0001
0010
0100
0001
0100
0010
0100
0010
0100
0001
0100
0010
,
1000
0010
0100
0001
0100
0010
1000
0100
0010
0001
1000
0100
,
0010
0010
0001
0100
0100
0010
1000
1000
0010
0100
0100
0001
,
1000
0100
0001
0000
0001
0100
1000
0000
0000
0002
0000
0000
,
1003
0010
1000
0000
1000
0010
1000
0000
0000
0011
0000
0000
,
0001
0000
0100
0000
0010
0000
2000
0000
0000
3000
0010
0100
,
0001
0001
0000
0011
0000
0000
1000
1000
1000
0001
0001
0001
,
1001
1000
0100
0000
0100
0010
0001
0000
0000
1001
0000
0000
,
0001
0100
0010
0000
0100
0010
1000
0000
0000
1001
0000
0000
,
0100
0000
0010
0000
0001
0000
1000
0000
0001
0000
0100
0000
,
2002
0000
3003
0000
;

//---------------dance-single - ----------------
#NOTES:
     dance-single:
     :
     Medium:
     6:
     0.310,0.283,0.036,0.152,0.623:
0000
0000
0000
0000
,
1000
0100
2000
0000
0000
0000
0000
0000
0000
3000
0000
0000
,
0001
0100
0002
0000
0000
0000
0000
0000
0000
0003
0000
0000
,
1000
0000
0001
0000
1000
0000
0100
0000
0000
0000
0010
0001
,
0100
0002
0000
0000
0000
0000
0000
0000
0000
0000
0000
0000
,
1003
0100
2000
0000
0000
0000
0000
0000
0000
3000
0000
0000
,
0001
0100
0002
0000
0000
0000
0000
0000
0000
0000
0000
0003
,
0010
0000
1000
0000
0010
0000
0100
0000
0000
0001
0000
0000
,
1000
0000
0100
0000
0010
0001
0001
0000
0100
0000
0010
1000
,
0010
0000
0100
0000
0001
0000
0011
0000
0000
0000
0001
1000
,
0001
0000
0100
0000
0010
0000
1000
0000
0010
0000
1000
0000
,
0001
0000
1002
0000
0000
0000
1000
0000
0000
0100
0000
0003
,
1000
0000
0100
0000
0010
0001
0010
0000
0100
0000
1000
0010
,
1000
0000
0001
0000
1000
0000
1001
0000
0000
0000
0001
1000
,
0001
0000
0100
0000
0100
0000
0010
0000
1000
0000
0001
0000
,
1000
0000
1000
0001
0000
0001
1000
0000
1000
0010
0000
0010
,
0100
0001
0100
0000
0010
1000
0020
0000
0000
0000
0000
0000
,
0130
1000
0001
0000
0001
1000
0200
0000
0000
0000
0000
0000
,
0310
0000
0001
0000
0100
0000
0002
0000
0000
0003
1000
0010
,
0100
0001
0000
0000
0000
0000
1000
0010
1000
0010
1000
0010
,
1000
0100
0010
0000
0001
0010
0100
0000
0000
0000
0000
0000
,
0001
1000
0001
0000
0010
0100
2000
0000
0000
3000
0000
0000
,
1000
0000
0010
0000
0100
0000
0001
0000
0010
0000
0001
0000
,
2000
0000
0000
0001
0000
0000
0010
0000
0000
3000
0001
0010
,
0001
0000
0010
0000
0100
1000
0010
0000
0100
0000
0001
0100
,
0010
0000
1000
0000
0010
0000
2000
0000
0000
3000
0001
0010
,
0001
0000
0100
0000
0010
0000
1000
0000
0010
0000
0100
0000
,
0001
0000
0002
0000
0000
0000
1000
0000
0000
0100
1003
0100
,
0010
0000
0001
0000
0100
0010
1000
0000
0001
0000
0100
0010
,
1000
0000
0100
0000
0001
0000
0002
0000
0000
0003
0010
0100
,
1000
0000
1000
0000
0100
0000
0010
0000
0001
0000
1000
0000
,
1000
0000
1000
0100
0000
0100
0010
0000
0010
0100
0000
0100
,
1000
0100
1000
0000
0001
0010
0100
0000
0000
0000
0000
0000
,
1000
0010
1000
0000
0010
1000
0100
0000
0000
0000
0000
0000
,
0010
0000
0001
0000
0010
0000
0200
0000
0000
0300
1000
0010
,
0100
0001
0000
0000
0000
0000
1000
0000
0000
0001
0000
0000
,
0100
1000
0100
0000
0100
0010
0001
0000
0000
0000
0000
0000
,
0001
0100
0010
0000
0100
0010
1000
0000
0000
0000
0000
0000
,
0100
0000
0010
0000
0001
0000
1000
0000
0001
0000
0100
0000
,
2002
0000
3003
0000
;

//---------------dance-single - ----------------
#NOTES:
     dance-single:
     :
     Easy:
     3:
     0.179,0.195,0.116,0.134,0.000: // measure 1
0000
0000
0000
0000
,  // measure 2
0002
0000
0000
0003
,  // measure 3
2000
0000
0000
3000
,  // measure 4
0100
0000
0010
0000
,  // measure 5
0002
0000
0000
0003
,  // measure 6
2000
0000
1000
0000
,  // measure 7
0100
0000
0100
0000
,  // measure 8
0010
0000
0010
0001
,  // measure 9
1000
0100
0010
0001
,  // measure 10
0100
0010
0100
0010
,  // measure 11
0001
1000
0100
0010
,  // measure 12
0001
1000
1000
1001
,  // measure 13
0001
1000
0001
0100
,  // measure 14
0010
1000
0010
0001
,  // measure 15
1000
0001
1000
0001
,  // measure 16
1001
1000
1001
0001
,  // measure 17
2000
0000
3002
0000
,  // measure 18
2003
0000
3200
0000
,  // measure 19
0310
0000
0001
0000
,  // measure 20
1001
0000
1000
0001
,  // measure 21
1001
0000
1001
0000
,  // measure 22
1000
0000
0001
0000
,  // measure 23
2000
3000
0200
0300
,  // measure 24
0010
0010
0001
0001
,  // measure 25
1000
0100
0010
0001
,  // measure 26
0100
0001
0010
0100
,  // measure 27
0010
0001
0100
1000
,  // measure 28
0100
0001
0010
0011
,  // measure 29
0001
1000
0001
1000
,  // measure 30
0100
0010
0001
0100
,  // measure 31
0010
1000
0001
1000
,  // measure 32
1001
0001
1001
0001
,  // measure 33
0001
0000
1000
0001
,  // measure 34
1000
0100
0010
0001
,  // measure 35
2000
3000
1100
0000
,  // measure 36
0200
0000
0000
0300
,  // measure 37
0110
0000
0002
0003
,  // measure 38
1001
0000
2000
0000
,  // measure 39
3001
0000
0001
0000
,  // measure 40
2002
0000
3003
0000
;
