#TITLE:Sevivon (Electro Mix);
#SUBTITLE:;
#ARTIST:Ori Zadoka & Daniel Dayan;
#TITLETRANSLIT:;
#SUBTITLETRANSLIT:;
#ARTISTTRANSLIT:;
#GENRE:;
#CREDIT:Telperion;
#BANNER:sevivon-electro-bn.png;
#BACKGROUND:sevivon-electro-bg.png;
#LYRICSPATH:;
#CDTITLE:ZIVWinterClassic2010.png;
#MUSIC:sevivon-electro.ogg;
#OFFSET:-7.780;
#SAMPLESTART:22.845;
#SAMPLELENGTH:12.000;
#SELECTABLE:YES;
#DISPLAYBPM:130.570;
#BPMS:0.000=122.387,2.000=129.029,3.000=129.023,4.000=129.029,5.000=124.371,6.000=134.043,7.000=129.029,8.000=129.023,9.000=124.371,10.000=129.029,11.000=131.485,12.000=122.161,13.000=129.029,14.000=129.023,15.000=129.029,16.000=131.904,17.000=123.431,18.000=129.687,19.000=129.680,30.000=129.687,31.000=129.218,32.000=126.651,33.000=129.408,34.000=129.401,37.000=129.408,38.000=129.401,41.000=129.408,42.000=129.401,45.000=129.408,46.000=129.401,47.000=129.693,48.000=137.519,49.000=130.570;
#STOPS:;
#BGCHANGES:;
#KEYSOUNDS:;

//---------------dance-single - Telperion----------------
#NOTES:
     dance-single:
     Telperion:
     Hard:
     9:
     0.482,0.492,0.128,0.128,0.339:
0000
1000
0100
0001
0000
0001
0100
1000
,
0000
0010
0100
1000
0000
1000
0100
0001
,
0000
1000
0001
0200
0000
0301
1000
0100
,
0000
1000
0001
1000
0000
0110
0110
0110
,
0000
0001
0001
0100
0010
1000
0000
1000
,
0000
0100
0010
0001
0010
0100
0000
0100
,
0000
0010
0001
0100
0000
0010
1000
0100
,
0000
0001
0100
1000
0100
0010
0010
0010
,
0000
0001
0100
1000
0000
1000
0100
0001
,
0000
0010
0100
0001
0000
0001
0100
1000
,
0000
0001
1000
0200
0000
1300
0001
0100
,
0000
0001
1000
0001
0000
0110
0110
0110
,
0000
0100
0000
0100
0000
0100
0000
0100
,
0000
0100
0000
0100
0000
0100
0000
0100
,
0002
1000
1003
0000
,
2000
0001
3001
0000
,
1001
1000
0100
1000
0001
1000
0100
0000
,
1001
0001
0100
0001
0011
0010
0100
0000
,
1000
0000
0010
0000
0100
0000
0001
0100
0001
0000
0010
0000
0100
0000
1000
0100
,
1000
0000
0001
0000
0010
0000
0001
0100
0001
0000
0010
0000
0100
0000
1000
0100
,
0002
0000
0000
0000
0200
0000
0000
0003
,
0301
0100
1000
0001
0100
0100
0100
0000
,
1001
0100
1001
0100
,
1001
0000
0000
0010
0000
0000
1000
0010
1000
0001
0001
0001
,
0010
1001
0010
1001
,
0001
0000
0000
1000
0000
0000
0001
0000
0000
1000
0000
0000
0001
0000
0000
0000
0000
0000
0000
0000
0000
0000
0000
0000
0000
0000
0000
0000
0000
0000
0000
0000
0000
0000
0000
0000
0010
0000
0000
0000
0100
0000
0000
0000
1000
0000
0000
0000
,
0010
0000
0000
0000
0100
0000
0001
0000
0000
1000
0000
1000
0100
0000
0000
0000
,
0010
0000
0000
0001
0000
0000
0010
0000
0000
0000
0000
0000
0001
0000
0100
0000
0001
0000
1000
0000
1000
0000
1000
0000
,
0100
0000
0000
0000
0010
0000
0001
0000
0000
0001
0000
1000
0001
0000
0000
0000
,
0100
0001
0100
0001
0100
0000
0000
0000
0010
1000
0010
1000
0200
0000
0000
0000
,
0310
0000
0001
0010
0000
0000
0001
0000
1000
0000
0010
1000
0000
0000
0100
0000
,
0010
0000
0001
1000
0000
0000
0001
0000
0010
0000
0000
0000
0010
0000
0000
0000
,
0001
0000
1000
0001
0000
0000
0100
0000
0010
0000
1000
0010
0000
0000
0100
0000
,
0001
0000
0000
0000
0000
0000
0010
0000
0000
0001
0000
0000
0000
0000
0000
0000
0000
0000
0010
0000
0000
0000
0000
0000
0100
0000
0000
0000
1000
0000
0000
0000
0100
0000
0000
0000
0010
0000
0000
0000
0001
0000
0000
0000
0100
0000
0000
0000
,
0010
0000
1000
0010
0000
0000
0010
0000
0100
0001
0000
0001
0100
0000
0000
0000
,
0010
0000
0000
1000
0000
0000
0010
0000
0000
1000
0000
0000
0100
0000
0000
0000
0000
0000
0000
0000
0000
0000
0000
0000
0010
0000
0000
0000
0001
0000
0000
0000
0010
0000
0000
0000
0100
0000
0000
0000
1000
0000
0000
0000
0010
0000
0000
0000
,
0100
0000
0001
1000
0000
0000
0100
0000
0010
0001
0000
0010
0001
0000
0000
0000
,
1000
0001
0010
0100
1000
0000
0000
0000
0000
0000
0000
0000
2000
0000
0000
0000
,
3002
0000
0000
0000
0003
0000
0001
0000
0000
0100
0000
0000
1000
0000
0000
0000
,
0100
0000
0000
0001
0000
0000
0010
0000
0000
0000
0000
0000
0100
0000
1000
0000
0001
0000
0100
0000
0001
0000
0010
0000
,
0200
0000
0000
0000
0300
0000
1000
0000
0000
0100
0000
0000
0001
0000
0000
0000
,
0100
0000
0000
1000
0000
0000
0010
0000
0000
0000
0000
0000
0100
0000
0010
0000
0100
0000
0002
0000
0000
0000
0000
0000
,
2003
0000
0000
0000
3000
0000
1000
0000
0000
0010
0000
0000
0001
0000
0000
0000
,
0010
0000
0000
1000
0000
0000
0100
0000
0000
0000
0000
0000
0001
0000
0100
0000
0010
0000
0001
0000
0100
0000
0010
0000
,
0200
0000
0000
0000
0300
0000
0001
0000
0000
0010
0000
0000
1000
0000
0000
0000
,
0010
0000
0000
0001
0000
0000
0010
0000
0000
0001
0000
0000
0100
0000
0000
0000
0000
0000
0000
0000
0000
0000
0000
0000
0010
0000
0000
0000
0100
0000
0000
0000
0010
0000
0000
0000
0200
0000
0000
0000
0000
0000
0000
0000
0000
0000
0000
0000
,
0301
0000
0000
1000
0000
0000
0100
0000
0010
0000
0000
0001
0000
0000
0010
0000
,
0100
0000
0000
0001
0000
0000
0100
0000
0010
0000
0000
0001
0000
0000
0100
0000
,
0010
0000
0000
1000
0000
0000
0001
0000
0100
0000
0000
0010
0000
0000
0100
0000
,
1000
0000
0000
0100
0000
0000
0010
0000
1000
0000
0000
0001
0000
0000
0010
0000
,
0100
1000
0001
1000
,
0010
0100
0100
0001
,
0001
0010
0010
0100
,
0100
1000
0100
0010
;

//---------------dance-single - Telperion----------------
#NOTES:
     dance-single:
     Telperion:
     Medium:
     6:
     0.356,0.353,0.137,0.101,0.000:
0000
1000
0000
0001
0000
0100
0100
0100
,
0000
0010
0000
0100
0000
0001
0010
0001
,
0000
0010
0000
0100
0000
1000
0010
1000
,
0000
0100
0000
0001
0000
0010
0000
1000
,
0000
0010
0000
0010
0000
0100
0010
0100
,
0000
0001
0000
1000
0000
0100
0010
0100
,
0000
1000
0000
0001
0000
0100
0010
0100
,
0000
1000
0000
0010
0000
0001
0000
0100
,
0000
0010
0100
0010
0000
1000
0100
1000
,
0000
0010
0100
0001
0000
0010
0001
0100
,
0000
0010
1000
0001
0000
0010
0001
1000
,
0000
0100
0000
0001
0000
0010
0000
1000
,
0000
0001
0000
1000
0000
0001
0000
1000
,
0000
0001
0000
1000
0000
0001
0000
1000
,
0002
1000
1003
0000
,
2000
0001
3001
0000
,
2002
3003
0000
0000
,
0220
0330
0011
1100
,
0101
0001
1010
1000
,
0011
0001
0110
1000
,
0202
0000
0000
0003
,
1300
0010
0001
0100
,
0010
0000
0010
0000
,
0010
0000
0100
0001
,
0010
0000
0010
0000
,
0010
0010
0010
0000
,
0001
0000
0100
0010
0100
0000
0100
0000
,
0001
1000
0100
0000
0010
0100
0010
0000
,
0001
0000
0010
0100
0010
0000
0010
0000
,
0001
1000
0010
0000
0100
0100
0020
0000
,
0130
0001
1000
0000
0100
1000
0001
0000
,
0100
0010
1000
0000
0100
0010
0100
1000
,
0001
0100
0001
0000
1000
0100
1000
0000
,
0001
0010
0100
0000
0010
0001
0100
0010
,
1000
0010
1000
0000
0001
0010
0001
0000
,
1000
0100
0010
0000
0001
0010
0100
0010
,
0001
1000
0100
0000
1000
0001
0100
0000
,
0001
1000
0010
0100
0000
0000
0110
0000
,
1001
0000
0011
0000
0100
1000
0001
0000
,
0100
0001
0100
0000
0010
1000
0100
0010
,
0001
0000
0011
0000
1000
0001
0010
0000
,
0100
1000
0100
0000
0010
0001
0100
0010
,
1000
0000
1010
0000
0100
0010
0001
0000
,
1000
0001
1000
0000
0010
0010
0100
0100
,
0001
0000
1100
0000
0001
1000
0100
0000
,
1000
0001
0100
0000
0010
0010
0200
0000
,
0301
1000
0000
1000
,
0000
0100
0010
0001
,
0100
1000
0000
1000
,
0000
1000
0100
0001
,
0010
0100
0000
0100
,
0000
0100
1000
0100
,
0000
0100
0010
1000
,
0100
0001
0010
0100
,
0020
0000
0000
0000
,
0030
0000
0000
0000
;

//---------------dance-single - Telperion----------------
#NOTES:
     dance-single:
     Telperion:
     Easy:
     3:
     0.250,0.396,0.082,0.229,0.000:
0000
1000
0000
0001
0000
0100
0000
1000
,
0000
0001
0000
1000
0000
0100
0000
0001
,
0000
1000
0000
1000
0000
0001
0000
0001
,
0000
0010
0000
1000
0000
0100
0000
0001
,
0000
1000
0000
0001
0000
0010
0000
1000
,
0000
0001
0000
1000
0000
0100
0000
0001
,
0000
1000
0000
0001
0000
0010
0000
0001
,
0000
0100
0000
1000
0000
0010
0000
0001
,
0000
1000
0000
0001
0000
0100
0000
1000
,
0000
0001
0000
1000
0000
0100
0000
0001
,
0000
1000
0000
1000
0000
0001
0000
0001
,
0000
0010
0000
1000
0000
0100
0000
0001
,
0000
0000
0000
0000
,
0000
0000
0000
0000
,
2002
0000
3003
0000
,
2002
0000
3003
0000
,
0220
0000
0330
0000
,
2002
3003
1001
0000
,
0220
0330
2002
3003
,
0220
0330
2002
3003
,
0020
0000
0230
0000
,
0300
0000
0000
0000
,
0100
0001
1000
0010
,
0000
0010
0000
0100
,
0001
0010
0100
1000
,
0000
0100
0010
0000
,
0001
1000
1000
0010
,
0000
0010
0000
0010
,
0100
0001
0001
1000
,
0000
0100
0020
0000
,
0031
1000
0010
1000
,
0001
0010
0100
0000
,
0010
0001
1000
0010
,
0100
0001
0100
0000
,
0010
1000
0100
0010
,
0001
0010
0001
0000
,
1000
0001
0010
0001
,
1000
0010
0000
0000
,
0200
0000
0310
0100
,
0001
0010
0100
0000
,
0200
0000
0310
0100
,
0010
0001
1000
0000
,
0002
0000
1003
0010
,
0100
0010
1000
0000
,
2000
0000
3001
1000
,
0100
0010
0001
0000
,
2000
0001
0000
3001
,
0000
0001
0100
0100
,
0002
1000
0000
1003
,
0000
1000
0000
1000
,
0100
0010
0000
0010
,
0000
0010
0000
0010
,
0000
0010
0000
0010
,
0001
0100
1000
0010
,
0001
0000
0000
0000
;

//---------------dance-single - Easy----------------
#NOTES:
     dance-single:
     Easy:
     Beginner:
     1:
     0.099,0.123,0.009,0.000,0.000:
0000
0000
0000
0000
,
0000
0000
0000
0000
,
0000
0000
0000
0000
,
0000
0000
0000
0000
,
0000
0000
0000
0000
,
0000
0000
0000
0000
,
0000
0000
0000
0000
,
0000
0000
0000
0000
,
0000
0000
0000
0000
,
0000
0000
0000
0000
,
0000
0000
0000
0000
,
0000
0000
0000
0000
,
0000
0000
0000
0000
,
0000
0000
0000
0000
,
1001
0000
0000
0000
,
0001
0000
0000
0000
,
0001
0000
0000
0000
,
0001
0000
1000
0000
,
0100
0000
0000
0000
,
0100
0000
0000
0000
,
0010
0000
0010
0000
,
0010
0000
0000
0000
,
0000
0010
0000
0010
,
0000
0010
0000
0010
,
0000
0100
0000
0100
,
0000
0100
0000
0000
,
0000
1000
0000
0001
,
0000
1000
0000
0001
,
0000
0100
0000
0010
,
0000
0100
0100
0000
,
0000
0001
0000
0010
,
0000
0100
0000
1000
,
0000
0001
0000
0010
,
0000
0100
0000
0000
,
0000
1000
0000
0010
,
0000
0100
0000
0001
,
0000
1000
0000
0010
,
0100
0100
0000
0000
,
0000
0001
0000
1000
,
0000
0001
0010
0000
,
0000
1000
0000
0001
,
0000
1000
0010
0000
,
0000
1000
0000
0001
,
0000
1000
0001
0001
,
0000
1000
0000
0001
,
0000
1000
0001
1000
,
0000
0010
0000
0010
,
0000
0010
0000
0100
,
0010
0100
0000
0100
,
0000
0100
0000
0001
,
0000
1000
0000
0001
,
0000
1000
0000
0001
,
0000
1000
0000
0001
,
0000
1000
0000
0001
;

//---------------dance-double - Telperion----------------
#NOTES:
     dance-double:
     Telperion:
     Hard:
     9:
     0.510,0.517,0.110,0.101,0.376:
00000000
00000001
00000100
00001000
00000000
00010000
01000000
10000000
,
00000000
00100000
00010000
00001000
00000000
00010000
01000000
10000000
,
00000000
10000000
01000000
00010000
00000000
00001000
00000100
00000001
,
00000000
00000010
00000100
00010000
00001000
00000100
00000100
00000100
,
00000000
00001000
00010000
01000000
00100000
00010000
01000000
10000000
,
00000000
01000000
00010000
00100000
01000000
00010000
00001000
00000100
,
00000000
00001000
00000100
00000001
00000010
00000100
00001000
00000010
,
00000000
00001000
00000010
00010000
00001000
01000000
00010000
10000000
,
00000000
10000000
01000000
00010000
00000000
00001000
00000100
00000001
,
00000000
00000010
00000100
00000001
00000000
00000100
00000010
00000001
,
00000000
00000100
00001000
00010000
00000000
01000000
10000000
00010000
,
00000000
01000000
10000000
01000000
00010000
00100000
00100000
00100000
,
00000000
00100000
00000000
00100000
00000000
00100000
00000000
00100000
,
00000000
00100000
00000000
00100000
00000000
00100000
00000000
00100000
,
10010000
10000000
00000000
01000000
00000000
01000000
00000000
00010000
,
00001000
00010000
00000000
00000100
00000000
00000100
00000000
00000010
,
00000011
00000001
00000100
00000010
00001000
00000100
00000010
00000100
,
00010100
00001000
00000100
00010000
00010100
00001000
00100000
00010000
,
00100000
00000000
01000000
00000000
10000000
01000000
10000000
00000000
01000000
00000000
00010000
00000000
00001000
00010000
00001000
00000000
,
00010000
00000000
00001000
00000000
00000100
00001000
00000100
00000000
00000001
00000000
00000100
00000000
00000001
00000010
00000001
00000000
,
00000100
00000001
00000100
00000001
00001000
00000010
00001000
00000010
00010000
00001000
00010000
00001000
01000000
00010000
01000000
00010000
,
20000000
00000000
30000000
00000000
01000000
00010000
00000100
00000000
,
00000010
00000101
00000010
00001100
,
00000001
00000000
00000000
00001000
00000000
00000000
00001100
00000000
00000000
00000000
00000000
00000000
00001000
00000000
00000100
00000000
00010000
00000000
00001000
00000000
01000000
00000000
00100000
00000000
,
10000000
11000000
00100000
01010000
,
00100000
10000000
00100000
10000000
01000000
00000000
00000000
00000000
10010000
00000000
00000000
00000000
00000000
00000000
00000000
00000000
,
10000000
00000000
00000000
00000000
00110000
00000000
00010000
00000000
00000000
00100000
00000000
00100000
01000000
00000000
00000000
00000000
,
00010000
00000000
00000000
00001000
00000000
00000000
00000100
00000000
00000000
00000000
00000000
00000000
00001000
00000000
00010000
00000000
00000100
00000000
00001000
00000000
00000100
00000000
00000010
00000000
,
00000001
00000000
00000000
00000000
00001100
00000000
00001000
00000000
00000000
00000001
00000000
00000001
00000100
00000000
00000000
00000000
,
00000010
00001000
00000010
00001000
00000100
00000000
00000000
00000000
00010000
00001000
00100000
01000000
20000000
00000000
00000000
00000000
,
30010000
00000000
10000000
01000000
00000000
00000000
10000000
00000000
00100000
00000000
01000000
00010000
00000000
00000000
01000000
00000000
,
00001000
00000000
00000000
00000000
00000000
00000000
00010000
00000000
00000000
00001000
00000000
00000000
00000000
00000000
00000000
00000000
00000000
00000000
00010000
00000000
00000000
00000000
00000000
00000000
00000100
00000000
00000000
00000000
00001000
00000000
00000000
00000000
00000100
00000000
00000000
00000000
00000010
00000000
00000000
00000000
00000001
00000000
00000000
00000000
00000010
00000000
00000000
00000000
,
00000100
00000000
00001000
00000001
00000000
00000000
00000001
00000000
00000100
00000000
00000100
00001000
00000000
00000000
00010000
00000000
,
01000000
00000000
00000000
10000000
00000000
00000000
10000000
00000000
00000000
00000000
00000000
00000000
01000000
00000000
10000000
00000000
00010000
00000000
01000000
00000000
00100000
00000000
01000000
00000000
,
00010000
00000000
00100000
01000000
00000000
00000000
00100000
00000000
00001000
00000000
00010000
00000010
00000000
00000000
00001000
00000000
,
00000010
00000000
00000000
00000100
00000000
00000000
00001000
00000000
00000000
00000100
00000000
00000000
00001000
00000000
00000000
00000000
00000000
00000000
00000000
00000000
00000000
00000000
00000000
00000000
00000100
00000000
00000000
00000000
00000010
00000000
00000000
00000000
00001000
00000000
00000000
00000000
00000001
00000000
00000000
00000000
00000010
00000000
00000000
00000000
00000100
00000000
00000000
00000000
,
00001000
00000000
00000100
00000010
00000000
00000010
00000001
00000000
00000100
00000000
00001000
00010000
00000000
00010000
01000000
00000000
,
10000000
01000000
10000000
01000000
00020000
00000000
00030000
00000000
00000000
00000000
00000000
00000000
00002000
00000000
00000000
00000000
,
00023000
00000000
00000000
00000000
00000000
00000000
00031000
00000000
00000000
00000100
00000000
00000000
00000001
00000000
00000000
00000000
,
00000010
00000000
00000000
00000100
00000000
00000000
00001000
00000000
00000000
00000000
00000000
00000000
00000100
00000000
00010000
00000000
00001000
00000000
01000000
00000000
00010000
00000000
10000000
00000000
,
02000000
00000000
00000000
00000000
00000000
00000000
13000000
00000000
00000000
00100000
00000000
00000000
00010000
00000000
00000000
00000000
,
00001000
00000000
00000000
00010000
00000000
00000000
01000000
00000000
00000000
00000000
00000000
00000000
00010000
00000000
00001000
00000000
00010000
00000000
00000100
00000000
00001000
00000000
00000001
00000000
,
00000200
00000000
00000000
00000000
00000000
00000000
00000301
00000000
00000000
00000010
00000000
00000000
00001000
00000000
00000000
00000000
,
00010000
00000000
00000000
00001000
00000000
00000000
00000100
00000000
00000000
00000000
00000000
00000000
00000010
00000000
00000100
00000000
00001000
00000000
00010000
00000000
00000100
00000000
00000010
00000000
,
00002000
00000000
00000000
00000000
00000000
00000000
00013000
00000000
00000000
01000000
00000000
00000000
10000000
00000000
00000000
00000000
,
10000000
00000000
00000000
01000000
00000000
00000000
00010000
00000000
00000000
00000000
00000000
00000000
00001000
00000000
00000100
00000000
00000010
00000000
00000002
00000000
00000000
00000000
00000000
00000000
,
00000003
00000000
00000010
00001000
00000000
00000000
00000100
00000000
00000000
00000000
00010000
00001000
00000000
00000000
01000000
00000000
,
00000000
00000000
00001000
00010000
00000000
00000000
00000100
00000000
00000020
00000000
00000000
00000000
00000230
00000000
00000000
00000000
,
00010300
00000000
00001000
00010000
00000000
00000000
01000000
00000000
00000000
00000000
10000000
01000000
00000000
00000000
00100000
00000000
,
00000000
00000000
00010000
01000000
00000000
00000000
00100000
00000000
00000000
00000000
01000000
00000000
00001000
00000000
00010000
00001000
,
00010000
00001000
00000100
00000001
,
00000010
00001000
00000100
00000010
,
00001000
00000100
00010000
00100000
,
10000000
01000000
00010000
00100000
;
