#TITLE:Semesta Bertasbih;
#SUBTITLE:;
#ARTIST:Opick;
#TITLETRANSLIT:;
#SUBTITLETRANSLIT:;
#ARTISTTRANSLIT:;
#CREDIT:348;
#BANNER:Semesta Bertasbih Banner.png;
#BACKGROUND:Semesta Bertasbih Background.png;
#LYRICSPATH:Semesta Bertasbih.lrc;
#CDTITLE:;
#MUSIC:Semesta Bertasbih.mp3;
#OFFSET:-0.534;
#SAMPLESTART:9.480;
#SAMPLELENGTH:15.000;
#SELECTABLE:YES;
#BPMS:0.000=55.000,24.000=110.000;
#STOPS:;
#BGCHANGES:;

//---------------dance-single - ----------------
#NOTES:
     dance-single:
     :
     Beginner:
     1:
     0.069,0.100,0.000,0.000,0.000: // measure 1
0000
0000
0000
0000
,  // measure 2
0000
0000
0000
0000
,  // measure 3
1000
0000
0001
0000
,  // measure 4
1000
0000
0001
0000
,  // measure 5
0100
0000
0010
0000
,  // measure 6
0100
0000
0010
0000
,  // measure 7
0000
0000
1000
0000
,  // measure 8
0000
0000
1000
0000
,  // measure 9
0000
0000
0100
0000
,  // measure 10
0000
0000
0100
0000
,  // measure 11
0000
0000
0010
0000
,  // measure 12
0000
0000
0010
0000
,  // measure 13
0000
0000
0001
0000
,  // measure 14
0000
0000
0001
0000
,  // measure 15
0000
0000
0100
0000
,  // measure 16
0000
0000
0100
0000
,  // measure 17
0100
0000
0010
0000
,  // measure 18
0000
0000
0010
0000
,  // measure 19
0010
0000
1000
0000
,  // measure 20
0000
0000
0001
0000
,  // measure 21
1000
0000
0001
0000
,  // measure 22
0000
0000
1000
0000
,  // measure 23
0001
0000
0100
0000
,  // measure 24
0000
0000
0001
0000
,  // measure 25
0000
0000
1000
0000
,  // measure 26
0000
0000
0010
0000
,  // measure 27
0000
0000
0100
0000
,  // measure 28
0000
0000
0001
0000
,  // measure 29
0000
0000
1000
0000
,  // measure 30
0000
0000
0010
0000
,  // measure 31
0000
0000
1000
0000
,  // measure 32
1000
0000
1000
0000
,  // measure 33
0000
0000
0010
0000
,  // measure 34
0010
0000
0010
0000
,  // measure 35
0000
0000
0100
0000
,  // measure 36
0100
0000
0100
0000
,  // measure 37
0000
0000
0001
0000
,  // measure 38
0001
0000
0001
0000
,  // measure 39
0000
0000
0100
0000
,  // measure 40
0000
0000
0010
0000
,  // measure 41
0000
0000
1000
0000
,  // measure 42
0000
0000
0000
0001
,  // measure 43
0000
0001
0000
0000
,  // measure 44
0000
0000
0000
1000
,  // measure 45
0000
1000
0000
0000
,  // measure 46
0000
0010
0000
0010
,  // measure 47
0000
0000
0000
0100
,  // measure 48
0000
0100
0000
0000
,  // measure 49
0000
0000
0001
0000
,  // measure 50
1000
0000
0000
0000
,  // measure 51
0000
0000
0010
0000
,  // measure 52
1000
0000
0000
0000
,  // measure 53
0000
0000
0001
0000
,  // measure 54
0100
0000
0000
0000
,  // measure 55
0000
0000
0010
0000
,  // measure 56
0100
0000
0000
0000
,  // measure 57
0000
0000
0001
0000
,  // measure 58
0000
0000
1000
0000
;

//---------------dance-single - ----------------
#NOTES:
     dance-single:
     :
     Easy:
     3:
     0.171,0.201,0.147,0.133,0.000: // measure 1
0000
0000
0000
0000
,  // measure 2
0000
0000
0000
0000
,  // measure 3
1000
0100
2000
3000
,  // measure 4
0001
0010
0002
0003
,  // measure 5
0100
0001
0200
0300
,  // measure 6
0010
1000
0020
0030
,  // measure 7
0200
0000
0301
0000
,  // measure 8
0010
0000
0100
0000
,  // measure 9
1000
0000
0001
0000
,  // measure 10
0100
0000
0010
0000
,  // measure 11
1000
0001
1000
0000
,  // measure 12
0100
0000
0010
0000
,  // measure 13
0001
0000
1000
0000
,  // measure 14
0010
0000
0100
0000
,  // measure 15
0001
0000
1001
0000
,  // measure 16
1100
0000
1001
0000
,  // measure 17
0101
0000
0110
0000
,  // measure 18
1010
0000
0110
0000
,  // measure 19
0011
0000
1001
0000
,  // measure 20
0011
0000
0110
0000
,  // measure 21
0101
0000
0110
0000
,  // measure 22
1010
0000
1001
0000
,  // measure 23
1100
0000
0002
0000
,  // measure 24
2003
0000
3200
0000
,  // measure 25
0320
0000
0031
0000
,  // measure 26
0110
0000
1000
0000
,  // measure 27
0110
0000
0020
0000
,  // measure 28
2030
0000
3002
0000
,  // measure 29
0203
0000
0310
0000
,  // measure 30
1001
0000
0100
0000
,  // measure 31
1001
0000
0001
0000
,  // measure 32
0100
0010
0100
0000
,  // measure 33
0001
0001
1000
0000
,  // measure 34
0010
0100
0010
0000
,  // measure 35
1000
1000
0100
0000
,  // measure 36
1000
0001
1000
0000
,  // measure 37
0100
0100
0010
0000
,  // measure 38
0001
1000
0001
0000
,  // measure 39
0010
0010
0002
0000
,  // measure 40
2003
0000
3002
0000
,  // measure 41
2003
0000
3001
0000
,  // measure 42
1000
1000
0000
0010
,  // measure 43
0010
0000
1000
0000
,  // measure 44
0001
0001
0000
0100
,  // measure 45
0100
0000
0010
0000
,  // measure 46
1000
1000
0000
0100
,  // measure 47
0100
0000
0100
0000
,  // measure 48
0010
0010
0000
0001
,  // measure 49
0001
0000
1000
0000
,  // measure 50
0100
0000
0001
0100
,  // measure 51
1000
0000
0001
0000
,  // measure 52
0100
0000
1000
0100
,  // measure 53
0001
0000
1000
0000
,  // measure 54
0010
0000
0001
0010
,  // measure 55
1000
0000
0001
0000
,  // measure 56
0010
0000
1000
0010
,  // measure 57
0001
0000
2002
0000
,  // measure 58
0000
0000
3003
0000
;

//---------------dance-single - ----------------
#NOTES:
     dance-single:
     :
     Medium:
     4:
     0.199,0.241,0.112,0.126,0.000: // measure 1
0000
0000
0000
0000
,  // measure 2
0000
0000
0000
0000
,  // measure 3
1000
0100
0010
0001
,  // measure 4
0001
0010
0100
1000
,  // measure 5
0002
0000
1003
0001
,  // measure 6
0200
0000
0310
0100
,  // measure 7
2002
0000
0000
0000
3003
0000
1000
0000
0000
0001
0000
0000
,  // measure 8
0100
0000
0001
1000
,  // measure 9
0010
0000
0100
0010
,  // measure 10
0100
0000
0002
0000
,  // measure 11
1003
0000
0010
0100
,  // measure 12
0001
0000
0010
0100
,  // measure 13
1000
0000
0001
1000
,  // measure 14
0001
0000
0200
0000
,  // measure 15
0310
0000
1000
0001
,  // measure 16
0100
0001
1000
0010
,  // measure 17
1001
0000
0010
1000
,  // measure 18
0100
0001
0100
1000
,  // measure 19
0110
0000
0001
0100
,  // measure 20
0010
0100
1000
0100
,  // measure 21
0110
0000
1000
0100
,  // measure 22
0001
1000
0010
0001
,  // measure 23
1001
0000
2000
3001
,  // measure 24
0020
0130
0200
0310
,  // measure 25
0002
1003
0110
0000
,  // measure 26
0001
1000
1001
0000
,  // measure 27
0100
0010
2000
3100
,  // measure 28
0200
0310
0020
0031
,  // measure 29
0002
1003
1001
0000
,  // measure 30
0100
0010
0110
0000
,  // measure 31
1000
0001
1000
0000
,  // measure 32
0001
0000
1000
1000
,  // measure 33
0010
0010
0100
0000
,  // measure 34
0010
0000
0100
0100
,  // measure 35
0001
0001
0100
0000
,  // measure 36
0010
0000
1000
0100
,  // measure 37
0001
0010
1000
0000
,  // measure 38
0001
0000
0100
0001
,  // measure 39
0010
1000
0100
0000
,  // measure 40
0001
0000
1000
0000
,  // measure 41
0010
0000
1000
0100
,  // measure 42
0001
0000
0001
0100
,  // measure 43
1000
0000
0002
0000
,  // measure 44
1003
0000
0001
0010
,  // measure 45
0100
1000
0001
0010
,  // measure 46
1000
0000
1000
0010
,  // measure 47
0001
0000
0200
0000
,  // measure 48
0310
0000
1000
0001
,  // measure 49
0100
0010
1100
0000
,  // measure 50
0101
0000
1000
0010
,  // measure 51
0100
0000
0011
0000
,  // measure 52
1010
0000
0001
0100
,  // measure 53
0010
0000
1000
0000
,  // measure 54
0001
0001
0100
0000
,  // measure 55
1001
0000
0010
0000
,  // measure 56
1000
1000
0001
0000
,  // measure 57
0110
0000
2002
0000
,  // measure 58
0000
0000
3003
0000
;

//---------------dance-single - ----------------
#NOTES:
     dance-single:
     :
     Hard:
     6:
     0.287,0.281,0.258,0.202,0.293: // measure 1
0000
0000
0000
0000
,  // measure 2
0000
0000
0000
0000
,  // measure 3
1000
0000
0000
0011
0000
0000
0100
0000
0010
0100
0000
0000
,  // measure 4
0010
0000
0000
1100
0000
0000
0001
0000
1000
0001
0000
0000
,  // measure 5
1000
0000
0001
0100
0000
0000
0010
0000
1000
0001
0000
0000
,  // measure 6
0100
1001
0010
1001
,  // measure 7
0200
0000
0010
0000
0310
0000
0110
0000
0000
0000
1000
0000
,  // measure 8
0001
0000
0000
0000
0000
0000
1100
0000
0000
0000
0001
0000
,  // measure 9
1000
0000
0000
0000
0000
0000
0011
0000
0000
0000
1000
0000
,  // measure 10
0001
0000
0000
0000
0000
0000
0100
0000
0010
0000
0100
0000
,  // measure 11
0010
0000
0000
0000
0000
0000
1001
0000
0000
0000
0100
0000
,  // measure 12
0100
0000
0000
0000
0000
0000
1010
0000
0000
0000
0001
0000
,  // measure 13
0001
0000
0000
0000
0000
0000
0101
0000
0000
0000
1000
0000
,  // measure 14
1000
0000
0000
0000
0000
0000
0001
0000
1000
0000
0001
0000
,  // measure 15
1000
0000
0011
1000
,  // measure 16
0101
0000
0000
1000
0000
0000
0001
0000
0010
0000
0100
0000
,  // measure 17
1000
0000
1100
0001
,  // measure 18
1010
0000
0000
0001
0000
0000
1000
0000
0100
0000
0010
0000
,  // measure 19
0001
0000
1010
0100
,  // measure 20
0011
0000
0000
0100
0000
0000
0010
0000
1000
0000
0001
0000
,  // measure 21
0100
0000
0101
0010
,  // measure 22
1100
0000
0000
0010
0000
0000
0100
0000
0001
0000
1000
0000
,  // measure 23
0010
0000
0000
0000
0000
0000
2000
0000
0000
0000
0010
0000
,  // measure 24
3020
0000
0000
0000
0100
0000
0230
0000
0000
0000
0001
0000
,  // measure 25
0302
0000
0000
0000
1000
0000
1003
0000
0000
0000
0000
0000
,  // measure 26
0001
0000
1000
0000
0001
0000
1000
0000
0000
0000
0110
0000
,  // measure 27
0110
0000
0000
0000
1000
0000
2000
0000
0000
0000
0100
0000
,  // measure 28
3200
0000
0000
0000
0010
0000
0320
0000
0000
0000
0001
0000
,  // measure 29
0032
0000
0000
0000
1000
0000
1003
0000
0000
0000
0000
0000
,  // measure 30
0010
0000
0100
0000
0010
0000
0100
0000
0000
0000
0000
0000
,  // measure 31
0001
0000
1000
0000
0010
0000
0100
0000
0000
0000
0010
0000
,  // measure 32
1000
0000
0000
0000
1000
0000
0001
0000
0000
0000
0001
0000
,  // measure 33
0200
0000
0000
0000
0001
0000
0301
0000
0000
0000
1000
0000
,  // measure 34
0010
0000
0000
0000
0010
0000
0100
0000
0000
0000
0100
0000
,  // measure 35
0002
0000
0000
0000
0010
0000
0013
0000
0000
0000
0001
0000
,  // measure 36
1000
0000
0000
0000
1000
0000
0100
0000
0000
0000
0100
0000
,  // measure 37
0020
0000
0000
0000
0001
0000
0031
0000
0000
0000
0001
0000
,  // measure 38
0100
0000
0000
0000
0100
0000
0010
0000
0000
0000
0010
0000
,  // measure 39
2000
0000
0000
0000
3001
0000
1001
0000
0000
0100
0000
0000
,  // measure 40
1001
0010
0110
1000
,  // measure 41
0110
0000
0000
0001
0000
0000
2000
0000
0000
0000
0010
0000
,  // measure 42
3010
0000
0000
1010
0000
0000
0002
0000
0000
0000
0100
0000
,  // measure 43
0103
0000
0000
0101
0000
0000
0200
0000
0000
0000
0010
0000
,  // measure 44
0310
0000
0000
0110
0000
0000
0100
0000
0001
0000
1000
0000
,  // measure 45
0100
0000
0000
1001
0000
0000
0020
0000
0000
0000
0001
0000
,  // measure 46
0031
0000
0000
0011
0000
0000
0200
0000
0000
0000
1000
0000
,  // measure 47
1300
0000
0000
1100
0000
0000
2000
0000
0000
0000
0001
0000
,  // measure 48
3001
0000
0000
0110
0000
0000
0010
0000
1000
0000
0001
0000
,  // measure 49
0010
0000
0000
1001
0000
0000
1000
0000
0100
0000
0001
0000
,  // measure 50
0200
0000
0000
0000
0000
0000
0310
0000
1000
0000
0010
0000
,  // measure 51
0002
0000
0000
0000
0000
0000
1003
0000
0100
0000
0001
0000
,  // measure 52
1000
0000
0010
0000
0001
0000
1000
0000
0000
0000
1001
0000
,  // measure 53
2002
0000
0000
3003
0000
0000
0010
0000
0001
0000
0100
0000
,  // measure 54
0002
0000
0000
0000
0000
0000
1003
0000
0010
0000
1000
0000
,  // measure 55
0200
0000
0000
0000
0000
0000
0310
0000
0001
0000
0100
0000
,  // measure 56
0010
0000
1000
0000
0100
0000
0010
0000
0000
0000
0110
0000
,  // measure 57
0220
0330
2002
0000
,  // measure 58
0000
0000
3003
0000
;

//---------------dance-single - ----------------
#NOTES:
     dance-single:
     :
     Challenge:
     7:
     0.348,0.401,0.265,0.258,0.517: // measure 1
0000
0000
0000
0000
,  // measure 2
0000
0000
0000
0000
,  // measure 3
1001
0000
0010
0001
0000
1000
0100
0000
1000
0001
0000
0000
,  // measure 4
0110
0000
1000
0001
0000
0000
0100
0010
1000
0001
0000
0000
,  // measure 5
0110
0000
0001
0010
0000
0010
0100
1000
0001
0010
0000
0000
,  // measure 6
1100
0000
0000
0011
0000
0000
1000
0100
1000
0001
0010
0001
,  // measure 7
1000
0100
1000
0001
0010
0001
1000
0000
0100
0000
0010
0000
,  // measure 8
0001
0000
0010
0000
0100
0000
1000
0000
0001
0000
1000
0000
,  // measure 9
0220
0000
0330
0000
0001
0000
0100
0000
0001
0000
0100
0000
,  // measure 10
0010
0000
1000
0000
0010
0000
0100
0000
0010
0000
0100
0000
,  // measure 11
2002
0000
3003
0000
0100
0000
0100
0000
0000
0000
0010
0000
,  // measure 12
0010
0000
0000
0000
1000
0000
0001
0000
0001
0000
1000
0000
,  // measure 13
2000
0000
0000
0000
3010
0000
0220
0000
0330
0000
0001
0000
,  // measure 14
0001
0000
0000
0000
1000
0000
0100
0000
0100
0000
1000
0000
,  // measure 15
1000
0000
0000
0000
0010
0000
0210
0000
0000
0000
0301
0000
,  // measure 16
0102
0000
0000
0000
1003
0000
1001
0000
0100
0000
0010
0000
,  // measure 17
1001
0000
0000
0000
1000
0000
2001
0000
0000
0000
3010
0000
,  // measure 18
1020
0000
0000
0000
0130
0000
0110
0000
1000
0000
0001
0000
,  // measure 19
0220
0000
0000
0330
0000
0000
1000
0000
1000
0000
1000
0000
,  // measure 20
0001
0000
0001
0000
0001
0000
0100
0000
0010
0000
0100
0000
,  // measure 21
0020
0000
0000
0000
0000
0000
1030
0000
0000
0001
1000
0000
,  // measure 22
1001
0000
0000
0000
1000
0000
0001
0000
0010
0000
0100
0000
,  // measure 23
2000
0000
0000
0000
0000
0000
3002
0000
0010
0000
0013
0000
,  // measure 24
0020
0000
0100
0000
0130
0000
0200
0000
1000
0000
1300
0000
,  // measure 25
2000
0000
0001
0000
3001
0000
0001
0000
0000
0100
0010
0000
,  // measure 26
0101
0000
0010
0000
0100
0000
1010
0000
0000
0100
0010
0000
,  // measure 27
0001
0000
0010
0000
0100
0000
2000
0000
0010
0000
3010
0000
,  // measure 28
0020
0000
0100
0000
0130
0000
0200
0000
0001
0000
0301
0000
,  // measure 29
0002
0000
1000
0000
1003
0000
1000
0000
0000
0001
1000
0000
,  // measure 30
0011
0000
1000
0000
0001
0000
1100
0000
0000
0010
0100
0000
,  // measure 31
0001
0000
1000
0000
0010
0000
0100
0000
0001
0000
0001
0000
,  // measure 32
2000
0000
0000
0000
0000
0000
3010
0000
1000
0000
0001
1000
,  // measure 33
0002
0000
0000
0000
0000
0000
1003
0000
0010
0000
0010
0000
,  // measure 34
0200
0000
0000
0000
0000
0000
0310
0000
1000
0001
1000
0000
,  // measure 35
0020
0000
0000
0000
0000
0000
1030
0000
0100
0000
0010
0001
,  // measure 36
0020
0000
0000
0000
0000
0000
0031
0000
1000
0000
1000
0000
,  // measure 37
0002
0000
0000
0000
0000
0000
0103
0000
0001
1000
0001
0000
,  // measure 38
0200
0000
0000
0000
0000
0000
0310
0000
1000
0000
0100
0000
,  // measure 39
2000
0000
0000
0000
0000
0000
3001
0000
0010
0000
1000
0000
,  // measure 40
0010
0000
0001
0000
1000
0000
0100
0000
0001
0000
0100
0000
,  // measure 41
1000
0000
0100
0000
0010
0000
1001
0000
0000
0000
0100
0000
,  // measure 42
1010
0000
0000
0000
0010
0000
0101
0000
0000
0000
1000
0000
,  // measure 43
1001
0000
0000
0000
0000
0000
0110
0000
0000
0000
0001
0000
,  // measure 44
1100
0000
0000
0000
1000
0000
0011
0000
0000
0000
0100
0000
,  // measure 45
0110
0000
0000
0000
0000
0000
1001
0000
0000
0000
0001
0000
,  // measure 46
1001
0000
0000
0000
0010
0000
1000
0000
0010
0000
0001
0000
,  // measure 47
0010
0000
0000
0000
0000
0000
0110
0000
0000
0000
0010
0000
,  // measure 48
0110
0000
0000
0000
0100
0000
0001
0000
0100
0000
1000
0000
,  // measure 49
0100
0000
0000
0000
0000
0000
1000
0000
0010
0000
0001
0000
,  // measure 50
1000
0000
0010
0000
0001
0000
1000
0000
0000
0000
0001
0000
,  // measure 51
0011
0000
0000
0000
0010
0000
0001
0000
0100
0000
1000
0000
,  // measure 52
0001
0000
0100
0000
1000
0000
0001
0000
0000
0000
1000
0000
,  // measure 53
1100
0000
0000
0000
0000
0000
0001
0000
1000
0000
0100
0000
,  // measure 54
1001
0000
0000
0000
0010
0000
0200
0000
0000
0000
0301
0000
,  // measure 55
2000
0000
0000
0000
3000
0000
0010
0000
0100
0000
0001
0000
,  // measure 56
0110
0000
0000
0000
0100
0000
0020
0000
0000
0000
1030
0000
,  // measure 57
0002
0003
2002
0000
,  // measure 58
0000
0000
3003
0000
;

//---------------dance-single - ----------------
#NOTES:
     dance-single:
     :
     Edit:
     9:
     0.557,0.662,0.335,0.335,0.960: // measure 1
0000
0000
0000
0000
,  // measure 2
0000
0000
0000
0000
,  // measure 3
1001
0100
0010
0001
1000
0100
0010
0001
1000
0001
0000
0000
,  // measure 4
0110
0000
1000
0100
2000
0000
0001
0000
3001
0010
0002
0000
1000
0000
0103
0001
0200
0000
0001
0000
0310
1000
0010
0000
,  // measure 5
0110
1000
0001
0100
0001
1000
0100
0010
0100
0010
0000
0000
,  // measure 6
1001
0000
0010
0100
0020
0000
1000
0000
1030
0001
1000
0000
0010
0000
0100
0001
1000
0010
1000
0001
2000
0000
0000
0000
,  // measure 7
3001
0010
1000
0010
0001
1000
0001
0000
1000
0100
0001
0100
,  // measure 8
2000
0000
0001
0000
0001
0000
3001
0000
0001
0010
1000
0010
,  // measure 9
0002
0000
1000
0000
1000
0000
1003
0000
0010
1000
0001
1000
,  // measure 10
0020
0000
0100
0000
0130
0000
1100
0000
0101
0000
1010
0000
,  // measure 11
0011
0000
0000
0000
1001
0000
0110
0000
0001
0010
1000
0010
,  // measure 12
0002
0000
0010
0000
0100
0000
1003
0000
1000
0010
0001
0010
,  // measure 13
2000
0000
0100
0000
0010
0000
3001
0000
0100
1000
0001
1000
,  // measure 14
0200
0000
1000
0000
1300
0000
0011
0000
1010
0000
0101
0000
,  // measure 15
1100
0000
0001
1000
0001
1000
0001
0000
1000
0000
0110
0000
,  // measure 16
0010
0000
0100
0000
1001
0000
0010
0000
1000
0100
0010
0001
,  // measure 17
0100
0000
1001
0000
0110
0000
0001
0000
1000
0010
0100
0000
,  // measure 18
0001
0000
0100
0001
0010
0000
0001
0000
1000
0100
0010
0100
,  // measure 19
1000
0000
0011
0000
1100
0000
0101
0000
0010
0000
1000
0000
,  // measure 20
0011
0000
1000
0000
0100
0000
1010
0000
0100
0000
0001
0000
,  // measure 21
1100
0000
0001
0010
0100
0010
0001
0000
1000
0100
0010
0000
,  // measure 22
0100
0000
1000
0001
0010
0000
1001
0000
0001
0100
1000
0100
,  // measure 23
0001
1000
0001
0000
0010
0000
0110
0000
2000
0000
3100
0000
,  // measure 24
1100
0000
0020
0000
0031
0000
0011
0000
2000
0000
3010
0000
,  // measure 25
1010
0000
0200
0000
0301
0000
0101
0000
0100
0010
0100
0010
,  // measure 26
0100
0000
0002
0000
1003
0000
1001
0000
0010
1000
0100
1000
,  // measure 27
0010
0000
0100
0001
0010
0001
0100
0000
0002
0000
0103
0000
,  // measure 28
0101
0000
0020
0000
1030
0000
1010
0000
0002
0000
0013
0000
,  // measure 29
0011
0000
0200
0000
1300
0000
1100
0000
0010
1000
0001
0100
,  // measure 30
0001
0000
0200
0000
0310
0000
0110
0000
1000
0001
1000
0001
,  // measure 31
1000
0000
0110
0000
1001
0000
0110
0000
1000
0100
0010
0001
,  // measure 32
0010
0000
0001
0100
0001
1000
0100
0000
1000
0010
0100
0010
,  // measure 33
0200
0000
0302
0000
2003
0000
3010
0000
0001
0010
1000
0001
,  // measure 34
1000
0000
0010
0100
0010
1000
0002
0000
0203
0000
2300
0000
,  // measure 35
3100
0000
0001
0010
1000
0010
0001
0000
1000
0100
0001
0000
,  // measure 36
1000
0000
0010
0001
1000
0010
2000
0000
3002
0000
0203
0000
,  // measure 37
0310
0000
1000
0010
0100
0001
1000
0000
0010
0100
0010
0000
,  // measure 38
1000
0000
0001
0100
0010
1000
0001
0000
0010
0001
1000
0100
,  // measure 39
2000
0000
3200
0000
0320
0000
0031
0000
1000
0100
0020
0000
,  // measure 40
0130
0000
1000
0001
0200
0000
0310
0000
1000
0100
0002
0000
,  // measure 41
0103
0000
0001
0100
2000
0000
3001
0000
0010
0001
0010
1000
,  // measure 42
0020
0000
0031
0010
0001
0100
0002
0000
1003
0001
0100
0000
,  // measure 43
1000
0000
0001
0010
1000
0000
0001
0000
1000
0100
0010
0100
,  // measure 44
2000
0000
3001
1000
0001
0100
0020
0000
1030
0000
0101
0000
,  // measure 45
0100
0000
0001
0000
1010
0000
1000
0000
0001
0010
0100
0000
,  // measure 46
1000
0000
0001
1000
0100
0000
0010
0000
0001
1000
0100
1000
,  // measure 47
0001
0000
1000
0100
0001
0000
0010
0000
1000
0100
1000
0010
,  // measure 48
1000
0000
0001
0100
1000
0001
0010
0000
0100
0000
0110
0000
,  // measure 49
0001
0000
1000
0001
0100
0001
1000
0000
0001
0010
0100
0000
,  // measure 50
1000
0000
0001
0010
0100
0000
1000
0000
0010
0001
1000
0100
,  // measure 51
0010
0000
0001
0010
1000
0100
0010
0000
0001
1000
0001
0000
,  // measure 52
0100
0000
0010
1000
0010
0100
0020
0000
1030
0100
0010
0000
,  // measure 53
0001
0000
1000
0000
0110
0000
0001
0000
1000
0100
2000
0001
,  // measure 54
3001
0000
0010
0100
0002
1000
1003
0000
0010
0100
0001
1000
,  // measure 55
0010
0000
1100
0000
0101
0000
1000
0000
0001
0010
0100
0010
,  // measure 56
0001
0000
1000
0100
0010
0001
2000
0000
3001
0000
1001
0000
,  // measure 57
0020
0000
0130
0000
0110
0000
2002
0000
0000
0000
0000
0000
,  // measure 58
0000
0000
3003
0000
;
