#TITLE:SNOW NOISE MONSTER;
#SUBTITLE:;
#ARTIST:buzzG feat. GUMI;
#TITLETRANSLIT:;
#SUBTITLETRANSLIT:;
#ARTISTTRANSLIT:;
#GENRE:;
#CREDIT:Azn_Punk_07/GuardianFrozen;
#MENUCOLOR:#0a9cd2;
#BANNER:SNOW NOISE MONSTER-bn.png;
#BACKGROUND:SNOW NOISE MONSTER-bg.png;
#LYRICSPATH:;
#CDTITLE:!cdtitle.png;
#MUSIC:SNOW NOISE MONSTER.mp3;
#OFFSET:-0.658;
#SAMPLESTART:107.260;
#SAMPLELENGTH:15.000;
#SELECTABLE:YES;
#LISTSORT:;
#BPMS:0.000=180.000;
#STOPS:;
#TICKCOUNT:0.000=2;
#BGCHANGES:0.000=SNOW NOISE MONSTER-bg.png=0.100=0=0=1,
26.667=clouds01.avi=0.500=1=0=1,
36.000=SNOW NOISE MONSTER-bg.png=0.100=1=0=1,
42.667=clouds01.avi=0.500=1=0=1,
52.000=SNOW NOISE MONSTER-bg.png=1.000=1=0=1,
58.000=Snowfallgreen.avi=1.000=0=0=1,
58.667=Snowfallred.avi=1.000=0=0=1,
59.333=Snowfallblue.avi=1.000=0=0=1,
60.000=Snowfall01.avi=1.000=0=0=1,
61.000=Snowfallred.avi=1.000=0=0=1,
68.000=Snowfall01.avi=1.000=0=0=1,
69.000=Snowfallblue.avi=1.000=0=0=1,
76.000=Snowfallred.avi=1.000=0=0=1,
77.000=Snowfallgreen.avi=1.000=0=0=1,
84.000=Snowfallblue.avi=1.000=0=0=1,
85.000=Snowfall01.avi=1.000=0=0=1,
90.000=Snowfallblue.avi=1.000=0=0=1,
90.667=Snowfallgreen.avi=1.000=0=0=1,
91.333=Snowfallred.avi=1.000=0=0=1,
92.000=clouds02.avi=2.000=1=0=1,
100.000=Snowfall01.avi=1.000=1=0=1,
132.000=Snowfallblue.avi=1.000=0=0=1,
133.000=Snowfall01.avi=1.000=0=0=1,
140.000=Snowfallred.avi=1.000=0=0=1,
141.000=Snowfall01.avi=1.000=0=0=1,
148.000=Snowfallgreen.avi=1.000=0=0=1,
149.000=Snowfall01.avi=1.000=0=0=1,
156.000=Snowfallblue.avi=1.000=0=0=1,
157.000=Snowfallred.avi=1.000=0=0=1,
158.000=Snowfallgreen.avi=1.000=0=0=1,
159.000=Snowfall01.avi=0.800=0=0=1,
162.000=Snowfall01.avi=2.000=0=0=1,
164.000=Snowfallblue.avi=1.600=1=0=1,
196.000=Snowfallgreen.avi=1.600=1=0=1,
224.000=Clouds01.avi=1.000=0=0=1,
224.500=clouds02.avi=1.000=0=0=1,
226.000=Clouds01.avi=1.000=0=0=1,
226.500=clouds02.avi=2.000=0=0=1,
227.500=Snowfallred.avi=2.000=0=0=1,
260.000=Snowfall01.avi=2.000=0=0=1,
292.000=Snowfallblue.avi=1.000=0=0=1,
293.000=Snowfallgreen.avi=1.000=0=0=1,
294.000=Snowfallred.avi=1.000=0=0=1,
295.000=Snowfallblue.avi=1.000=0=0=1,
296.000=Snowfallgreen.avi=1.000=0=0=1,
297.000=Snowfallred.avi=1.000=0=0=1,
298.000=Snowfallblue.avi=1.000=0=0=1,
299.000=Snowfallgreen.avi=1.000=0=0=1,
300.000=Snowfallred.avi=1.000=0=0=1,
301.000=Snowfallblue.avi=1.000=0=0=1,
302.000=Snowfallgreen.avi=1.000=0=0=1,
303.000=Snowfallred.avi=1.000=0=0=1,
304.000=Snowfallblue.avi=1.000=0=0=1,
305.000=Snowfallgreen.avi=1.000=0=0=1,
306.000=Snowfallred.avi=1.000=0=0=1,
307.000=Snowfallblue.avi=1.000=0=0=1,
308.000=Snowfallgreen.avi=1.000=0=0=1,
309.000=Snowfallred.avi=1.000=0=0=1,
310.000=Snowfallblue.avi=1.000=0=0=1,
311.000=Snowfallgreen.avi=1.000=0=0=1,
312.000=Snowfallred.avi=1.000=0=0=1,
313.000=Snowfallblue.avi=1.000=0=0=1,
314.000=Snowfallgreen.avi=1.000=0=0=1,
315.000=Snowfallred.avi=1.000=0=0=1,
316.000=Snowfallblue.avi=1.000=0=0=1,
317.000=Snowfallgreen.avi=1.000=0=0=1,
318.000=Snowfallred.avi=1.000=0=0=1,
319.000=Snowfallblue.avi=1.000=0=0=1,
320.000=Snowfallgreen.avi=1.000=0=0=1,
321.000=Snowfallred.avi=1.000=0=0=1,
322.000=Snowfallblue.avi=1.000=0=0=1,
323.000=Snowfallgreen.avi=1.000=0=0=1,
324.000=Snowfallred.avi=1.000=0=0=1,
325.000=Snowfallblue.avi=1.000=0=0=1,
326.000=Snowfallgreen.avi=1.000=0=0=1,
327.000=Snowfallred.avi=1.000=0=0=1,
328.000=Snowfallblue.avi=1.000=0=0=1,
329.000=Snowfallgreen.avi=1.000=0=0=1,
330.000=Snowfallred.avi=1.000=0=0=1,
331.000=Snowfallblue.avi=1.000=0=0=1,
332.000=Snowfallgreen.avi=1.000=0=0=1,
333.000=Snowfallred.avi=1.000=0=0=1,
334.000=Snowfallblue.avi=1.000=0=0=1,
335.000=Snowfallgreen.avi=1.000=0=0=1,
336.000=Snowfallred.avi=1.000=0=0=1,
337.000=Snowfallblue.avi=1.000=0=0=1,
338.000=Snowfallgreen.avi=1.000=0=0=1,
339.000=Snowfallred.avi=1.000=0=0=1,
340.000=Snowfallblue.avi=1.000=0=0=1,
341.000=Snowfallgreen.avi=1.000=0=0=1,
342.000=Snowfallred.avi=1.000=0=0=1,
343.000=Snowfallblue.avi=1.000=0=0=1,
344.000=Snowfallgreen.avi=1.000=0=0=1,
345.000=Snowfallred.avi=1.000=0=0=1,
346.000=Snowfallblue.avi=1.000=0=0=1,
347.000=Snowfallgreen.avi=1.000=0=0=1,
348.000=Snowfallred.avi=0.500=0=0=1,
349.000=Snowfallblue.avi=0.500=0=0=1,
350.000=Snowfallgreen.avi=0.500=0=0=1,
351.000=Snowfallred.avi=0.500=0=0=1,
352.000=Snowfallblue.avi=0.500=0=0=1,
353.000=Snowfallgreen.avi=0.800=0=0=1,
354.000=Snowfallred.avi=0.800=0=0=1,
355.000=Snowfallblue.avi=0.800=0=0=1,
356.000=Snowfallgreen.avi=1.000=0=0=1,
357.000=Snowfallred.avi=1.000=0=0=1,
358.000=Snowfallblue.avi=1.000=0=0=1,
359.000=Snowfallgreen.avi=1.000=0=0=1,
360.000=Snowfallred.avi=1.000=0=0=1,
361.000=Snowfallblue.avi=1.200=0=0=1,
362.000=Snowfallgreen.avi=1.200=0=0=1,
363.000=Snowfallred.avi=1.200=0=0=1,
364.000=Snowfallblue.avi=1.400=0=0=1,
365.000=Snowfallgreen.avi=1.400=0=0=1,
366.000=Snowfallred.avi=1.400=0=0=1,
367.000=Snowfallblue.avi=1.600=0=0=1,
368.000=Snowfallgreen.avi=1.600=0=0=1,
369.000=Snowfallred.avi=1.600=0=0=1,
370.000=Snowfallblue.avi=1.800=0=0=1,
371.000=Snowfallgreen.avi=1.800=0=0=1,
372.000=Snowfallred.avi=1.800=0=0=1,
373.000=Snowfallblue.avi=2.000=0=0=1,
374.000=Snowfallgreen.avi=2.000=0=0=1,
375.000=Snowfallred.avi=2.000=0=0=1,
375.875=TV noise.avi=1.000=0=0=1,
380.000=TV noise.avi=1.400=0=0=1,
382.000=TV noise.avi=2.000=0=0=1,
383.875=SNOW NOISE MONSTER-bg.png=1.000=1=0=1,
99999=-nosongbg-=1.000=0=0=0 // don't automatically add -songbackground-
;
#KEYSOUNDS:;
#ATTACKS:;

//---------------dance-single - ----------------
#NOTES:
     dance-single:
     :
     Hard:
     9:
     0.651,0.709,0.358,0.342,0.443:
0000
0000
0000
0000
,
0000
0000
0000
0000
,
0000
0000
0000
0000
,
0000
0000
0000
0000
,
0000
0000
0000
0000
,
0000
0000
0000
0000
,
0000
0000
0000
0000
0000
0000
0000
0000
0010
0000
0010
0000
,
0200
0000
0001
0000
0302
0000
0023
0000
0100
0000
0230
0000
,
2300
0000
0001
0000
3002
0000
0203
0000
0010
0000
0320
0000
,
2030
0000
0000
0000
,
0000
0000
0000
0000
0000
0000
0000
0000
3001
0000
0001
0000
,
0020
0000
0100
0000
0230
0000
2300
0000
0010
0000
3020
0000
,
0032
0000
0010
0000
0023
0000
0230
0000
1000
0000
2300
0000
,
0002
0000
0000
0000
,
0000
0000
0000
3003
0000
0000
0010
0000
0100
0000
0010
0000
,
1001
0000
0000
0000
0110
0000
0000
0000
1000
0000
0100
0000
0000
1000
0100
0000
,
0000
1000
0100
0000
0000
1000
0100
0000
0010
0000
0001
0000
1000
0000
0010
0000
,
0011
0000
0000
0000
1100
0000
0000
0000
0001
0000
0100
0000
0000
0001
0100
0000
,
0000
0001
0100
0000
0000
0001
0100
0000
0010
0000
1000
0000
0001
0000
0010
0000
,
1010
0000
0000
0000
0101
0000
0000
0000
0010
0000
0100
0000
0000
1000
0100
0000
,
0000
0010
0100
0000
0000
0001
0100
0000
1000
0000
0001
0000
0100
0000
0010
0000
,
0110
0000
1001
0000
0001
0100
1000
0100
,
0001
0000
0000
0010
0000
0000
0100
0000
0000
1000
0000
0000
0001
0000
0000
0000
1000
0000
0000
0000
0001
0000
0000
0000
,
1001
0100
0001
0000
0001
0000
0000
0000
,
1000
0100
1000
0000
1000
0000
0000
0000
,
0001
0000
0100
0000
1000
0000
0100
0001
,
0000
0001
0010
0000
0100
0000
0000
0000
,
1000
0000
0100
0000
0001
0000
0100
1000
,
0000
1000
0010
0000
0100
0000
0000
0000
,
0002
0200
0003
0020
,
0300
1000
0130
0000
,
2000
0200
3000
0020
,
0300
0001
0130
0000
,
1001
0000
0110
0000
1000
0000
0001
0010
,
0000
1000
0010
0000
1001
0000
0100
0010
,
0100
0000
0001
1000
0100
0000
1000
0010
,
0000
0001
0010
0000
0110
0000
0001
0010
,
0100
0000
0100
0010
0001
0000
1000
0010
,
0000
0010
0100
0000
0001
0000
0010
0100
,
1000
0000
1000
0100
0010
0001
0000
2002
,
0000
0000
3003
0000
,
0101
0000
1000
0100
0001
0000
0001
0100
,
1000
0000
1000
0010
0000
1010
0000
0101
,
0000
0001
0010
0000
0100
1000
0100
0000
,
1000
0010
1000
0000
0010
0100
0000
0001
,
0010
0000
0010
0001
0000
0001
1000
0000
,
1001
0000
1000
0010
0000
0010
0100
0000
,
0011
1100
1001
0110
,
1001
0010
0000
0000
1001
0100
0010
0100
,
0001
0101
1001
1010
,
1000
1100
1010
1001
,
0010
0100
0220
0330
,
1000
0100
0010
0000
0001
0100
0010
0000
,
1000
0000
0100
0010
0000
0010
0001
0000
,
0100
0000
0001
0100
0000
0100
0010
0000
,
1000
0100
0010
0001
1000
0100
0010
0001
,
1000
1010
0000
0001
0011
0200
0320
0030
,
1001
0101
1001
1001
,
1000
0100
1000
0100
0010
0001
0010
0001
,
0100
1000
0100
0010
0100
0001
0010
1000
,
0010
0100
0010
0100
0010
0001
0100
0000
,
1010
0000
1000
0100
0010
0100
1000
0000
,
0101
0000
0001
0100
0010
0100
0001
0000
,
1000
0100
0010
0001
0000
0011
0000
1100
,
0000
0001
0100
0000
1000
0010
0100
0000
,
1002
0103
2001
3100
,
0020
0230
0320
0230
,
0301
1000
0001
0000
2002
0000
3003
0000
,
1000
0100
0000
0001
0100
0000
0010
0100
,
0010
0000
1000
0001
0000
0001
1000
0001
,
0000
0001
0100
0000
1000
0100
0001
0000
,
2002
0000
0000
0000
3003
0000
0010
0100
,
0010
0010
0100
0010
0000
0010
0100
0010
,
1000
0000
0000
1000
0100
0000
0000
1000
0100
0000
0000
1000
0100
0000
0000
0100
,
0010
0000
0000
0100
0010
0000
0000
0100
0010
0000
0000
0010
0001
0000
0000
0001
,
0100
0000
0000
0001
0100
0000
0000
0100
1000
0000
0000
1000
0100
0000
0000
0100
,
0010
0000
0000
0100
0010
0000
0000
0100
0010
0000
0000
0010
1000
0000
0000
1000
,
0001
0000
0000
0001
0010
0000
0000
0001
0010
0000
0000
0001
0010
0000
0000
0010
,
0100
0000
0000
0100
1000
0000
0000
0100
1000
0000
0000
1000
0001
0000
0000
0001
,
0100
0000
0000
0001
0100
0000
0000
0001
0100
0000
0000
0100
0010
0000
0000
0010
,
0100
0000
0000
0010
0100
0000
0000
0100
0001
0000
0000
0100
0001
0000
0000
0001
,
1000
0000
0000
0001
1000
0000
0000
0001
1000
0000
0000
1000
0100
0000
0000
0100
,
0010
0000
0000
0100
0010
0000
0000
0010
0001
0000
0000
0001
0100
0000
0000
0100
,
0010
0000
0000
0010
0001
0000
0000
0001
0010
0000
0000
0010
1000
0000
0000
1000
,
0100
0000
0000
1000
0100
0000
0000
0100
1000
0000
0000
0100
1000
0000
0000
1000
,
0001
0000
0000
0001
0010
0000
0000
0010
0100
0000
0000
0100
1000
0000
0000
1000
,
0010
0000
0000
1000
0010
0000
0000
0010
0001
0000
0000
0010
0001
0000
0000
0010
,
2000
0000
0000
0000
0000
0000
3001
0100
0002
0000
0000
0000
0000
0000
0013
1000
,
0010
0000
0100
0000
1000
0000
0010
0000
0100
0000
0001
0000
,
0010
0000
0000
0001
0010
0000
0000
0001
0100
0000
0000
0100
0010
0000
0000
0010
,
1000
0000
0000
1000
0100
0000
0000
1000
0010
0000
0000
0010
0100
0000
0000
0100
,
0010
0000
0000
0100
1000
0000
0000
0100
0001
0000
0000
0001
0010
0000
0000
0010
,
0100
0000
0000
0010
0001
0000
0000
0001
1000
0000
0000
1000
0010
0000
0000
1000
,
0100
0000
0000
0100
0010
0000
0000
0001
1000
0000
0000
1000
0010
0000
0000
0000
,
0220
0000
0000
0000
,
0000
0000
0000
0000
0000
0000
0000
0000
0000
0000
0000
0000
0000
0000
0000
0000
0000
0000
0000
0000
0000
0000
0000
0000
0000
0000
0000
0000
0000
0000
0000
0330
;

//---------------dance-single - ----------------
#NOTES:
     dance-single:
     :
     Challenge:
     9:
     0.696,0.858,0.746,0.249,0.144:
0000
0000
0000
0000
,
0000
0000
0000
0000
,
0000
0000
0000
0000
,
0000
0000
0000
0000
,
0000
0000
0000
0000
,
0000
0000
0000
0000
,
0000
0000
0000
0000
0000
0000
0000
0000
0010
0000
1000
0000
,
0100
0000
0100
0000
0010
0000
0001
0000
0001
0000
0100
0000
,
1000
0000
0100
0000
0001
0000
0010
0000
0100
0000
0100
0000
,
1000
0000
0000
0000
,
0000
0000
0000
0000
0000
0000
0000
0000
0001
0000
0100
0000
,
0010
0000
0010
0000
0001
0000
0010
0000
1000
0000
0100
0000
,
0010
0000
0001
0000
1000
0000
0100
0000
0001
0000
0100
0000
,
0010
0000
0000
0000
,
0000
0000
0000
0000
0000
0000
0101
0000
1100
0000
0101
0000
,
1100
0000
0011
0000
1000
0000
0010
0001
,
0010
1000
0010
0001
0010
1000
0010
0001
,
1010
0000
0101
0000
1000
0010
0100
0001
,
1000
0100
0001
0100
1000
0100
0001
0100
,
1001
0000
0110
0000
1000
0100
0000
1000
,
0001
0100
1000
0100
0001
0010
1000
0010
,
1100
0000
0101
0000
0001
0010
1000
0010
,
0100
0000
0000
1000
0000
0000
0010
0000
0000
0001
0000
0000
1010
0000
0000
0000
1001
0000
0000
0000
0011
0000
0000
0000
,
2002
0000
0000
0000
,
0000
0000
0000
0000
3003
0000
0001
0010
,
2000
0000
3020
0000
0032
0000
0203
1000
,
0000
1300
0001
0000
0010
0000
1000
0100
,
0002
0000
0203
0000
2300
0000
3020
0001
,
0000
0031
1000
0000
0100
0000
0001
0010
,
0200
0000
1000
0000
0010
0000
1300
0001
,
0000
0010
0001
0100
1000
0000
0100
0010
,
2000
0000
0100
0000
0001
0000
3010
0001
,
0000
0010
1000
0100
0010
0000
0001
1000
,
0002
0000
0100
0000
1003
0000
0100
0010
,
0000
0010
0001
0000
0101
0000
0010
0100
,
2000
0000
0100
0000
3010
0000
0100
0010
,
0000
0010
0001
0000
1010
0000
0011
0000
,
1001
0000
0001
0100
0001
0000
0010
0100
,
0000
1000
0100
0010
0001
0000
1000
0010
,
0001
0000
0010
0000
0100
0000
0001
1000
,
0000
0001
1000
0000
0100
0010
0000
0000
,
0011
0000
0100
0001
0010
0000
0010
0001
,
0100
0000
0001
0100
0000
0010
1000
0100
,
0000
1000
0100
1000
0010
0100
0000
0101
,
0000
0010
1000
0000
1100
0000
0010
0001
,
0100
0000
0001
1000
0010
1000
0100
1000
,
0010
0000
0010
0100
0001
0100
0001
0010
,
1000
0000
0010
0001
0000
0011
0000
1100
,
0000
0000
0001
0000
0100
0000
0010
1000
0010
0000
0100
0000
0001
0000
1000
0000
,
0100
0000
0210
0000
2300
0000
3001
0010
,
0001
0100
2000
0000
3200
0000
0320
0000
,
0032
0000
0013
1000
0200
0000
0320
0000
,
0031
0100
0001
0100
0000
0010
1000
0010
,
1000
0100
0010
0100
0000
1000
0001
1000
,
0000
0001
0100
1000
0100
0010
0100
0001
,
0010
0010
0100
0100
1000
1000
0001
0001
,
0102
1000
0000
0003
2100
0001
0000
3010
,
0120
0000
0030
1000
0102
0000
0003
0010
,
1000
0000
0100
0000
0010
0001
1000
0001
1000
0001
0100
0000
0010
0000
1000
0000
,
0100
0010
0001
0011
0000
1100
0000
1001
,
0000
0000
0001
0000
0100
0000
0000
0000
1000
0000
0010
0000
0101
0000
0000
0001
,
1000
0000
0100
0000
0001
0000
0100
0000
0010
0000
0100
0000
1000
0000
0000
1000
,
0001
0000
0100
0000
1000
0000
0100
0000
0010
0000
0100
0000
0001
0000
0000
0001
,
0010
0100
1000
0010
0000
1010
0000
0101
,
0000
1000
0100
0000
0001
0100
1001
0010
,
0100
0100
1010
0000
0011
0000
0100
0000
,
0010
0010
0101
0000
1100
0000
1001
0000
,
1000
1000
0011
0000
0001
0001
1010
0000
,
0010
0100
0000
0100
0001
0010
0100
1000
,
0010
1000
0100
0000
0010
0000
0001
0100
,
0000
0001
0100
0000
0010
1000
0100
0000
,
0010
0100
0010
0100
1000
0000
1000
0010
,
0001
0010
0100
0100
0000
0010
0010
1000
,
0001
0101
1010
0101
,
1100
0011
1100
0011
,
1001
0110
1001
0101
,
1100
1001
1010
0011
,
0110
1001
0110
1001
,
0011
1100
0101
1010
,
1001
0000
0110
0000
1001
0000
0110
0001
,
1100
0101
1100
0011
,
0110
0000
1100
0000
0011
0000
0110
1000
,
0101
0000
1010
0000
0101
0000
1001
0010
,
1001
0100
0010
1000
0101
0000
1010
0001
,
0100
0010
1000
0100
1010
0001
1100
0010
,
0101
1000
0010
0100
0011
0000
0101
1000
,
0010
0000
0100
0000
0001
0000
0010
0000
0101
0000
1000
0001
1000
0001
1000
0000
,
0202
0000
0303
0010
2200
0000
3300
0010
,
1001
0000
0010
0000
0100
0000
1001
0000
0010
0000
0100
0000
,
0001
0010
1000
0010
0001
1000
0001
0100
,
1000
0100
0001
0010
0100
1000
0100
1000
,
0010
0001
0010
0100
0001
0010
0100
1000
,
0010
0001
1000
0010
1000
0100
0001
1000
,
0010
0001
0010
0100
0001
0010
0100
1000
,
0220
0000
0000
0000
,
0000
0000
0000
0000
0000
0000
0000
0000
0000
0000
0000
0000
0000
0000
0000
0000
0000
0000
0000
0000
0000
0000
0000
0000
0000
0000
0000
0000
0000
0000
0000
0330
;

//---------------dance-single - ----------------
#NOTES:
     dance-single:
     :
     Medium:
     6:
     0.435,0.597,0.171,0.342,0.062:
0000
0000
0000
0000
,
0000
0000
0000
0000
,
0000
0000
0000
0000
,
0000
0000
0000
0000
,
0000
0000
0000
0000
,
0000
0000
0000
0000
,
0000
0000
0000
0000
0000
0000
0000
0000
1000
0000
0100
0000
,
1000
0000
0000
0000
0100
0000
0010
0000
0000
0000
0010
0000
,
0001
0000
0000
0000
0001
0000
0100
0000
0000
0000
0100
0000
,
0020
0000
0000
0000
,
0030
0000
0000
0000
0000
0000
0000
0000
0001
0000
0010
0000
,
0001
0000
0000
0000
0010
0000
0100
0000
0000
0000
0100
0000
,
1000
0000
0000
0000
1000
0000
0010
0000
0000
0000
0010
0000
,
0200
0000
0000
0000
,
0300
0000
0000
0000
0000
0000
0010
0000
0010
0000
0010
0000
,
1001
0000
0011
0000
0200
0000
0000
0020
,
0000
0000
0000
0330
,
1001
0000
1010
0000
0020
0000
0000
0200
,
0000
0000
0000
0330
,
1001
0000
1100
0000
0002
0000
0000
2000
,
0000
0000
0000
3003
,
1001
0000
0101
0000
2000
0000
0000
0002
,
0000
0000
0000
3003
0000
0000
1001
0000
0000
0000
0000
0000
0010
0000
0000
0000
0010
0000
0000
0000
0010
0000
0000
0000
,
2002
0000
0000
0000
,
0000
0000
0000
3003
,
0200
0010
0000
0302
,
0000
0000
0000
0000
,
2003
0010
0000
3200
,
0000
0320
0000
0000
,
0032
0100
0000
2003
,
0000
0000
0000
0000
,
3020
0100
0000
0032
,
0000
0000
0000
0000
,
0013
0000
1000
0000
0100
0000
0010
0001
,
0000
0001
0100
0000
0010
0000
0000
0000
,
1000
0000
0100
0000
0001
0000
0100
1000
,
0000
1000
0010
0000
0100
0000
0000
0000
,
0001
0000
0010
0000
0100
0000
1000
0001
,
0000
1000
0010
0000
0100
0000
0000
0000
,
1000
0000
0100
0000
0010
0000
0001
0100
,
0000
0001
1000
0000
0220
0000
0330
0000
,
0011
0000
0001
0100
0001
0000
0010
0000
,
0100
0000
1000
0010
0100
0000
0001
0000
,
1000
0000
1000
0100
0010
0001
0100
0000
,
0010
0100
0010
0000
1000
0000
0000
0000
,
0101
0000
0001
0010
0000
0000
0000
0000
,
1100
0000
1000
0010
0000
0000
0000
0000
,
1001
0000
0001
1000
0000
2000
0000
0002
,
0000
0000
0000
0000
3003
0000
0010
0001
,
0200
0001
0320
1000
,
0030
0000
0100
0000
0001
0010
0100
0000
,
1000
0002
2000
0000
,
0000
3003
0100
0010
,
0001
0000
0100
0001
0100
0000
0010
1000
,
0010
1000
0001
1000
,
0100
0010
0100
0010
0100
0010
0100
0010
,
0002
0100
0003
0000
2000
0100
3000
0001
,
0100
0000
0000
0100
0010
0000
0000
0010
,
1000
0000
0100
0001
0000
0100
0000
1000
,
0100
0000
0010
0001
0000
0100
0000
0010
,
0000
1000
0100
0000
0000
0000
0000
0010
,
0001
0000
0001
0100
0000
0000
0000
0010
,
1000
0000
1000
0100
0000
0000
0000
1000
,
0001
0000
0001
1000
0000
1001
0000
0110
,
0000
0010
0100
0000
0001
0010
0100
1000
,
0002
0100
2003
0100
,
3000
0020
0100
0001
,
0230
1000
0010
0300
,
0001
0010
0000
0000
0100
1000
0000
0000
,
1000
0010
0101
0010
,
1100
0010
1001
0110
,
2000
0000
0000
3001
,
1000
0100
1000
0100
0000
0010
0001
0010
,
0001
0100
1000
0100
,
0001
0001
0001
0010
,
0100
0100
1000
0010
,
0100
0100
0100
0001
,
1000
0100
0100
0100
,
0010
0001
0001
0100
,
0010
0010
0010
1000
,
0100
1000
0100
0000
1000
0000
0010
0000
,
0001
0010
1000
0001
,
0010
0001
0010
0000
1000
0000
0010
0000
,
0001
0001
0100
0010
,
1000
1000
1000
1000
,
0100
0010
0010
0001
,
0100
0100
0100
0010
,
2000
0000
0000
3001
0200
0000
0000
0310
,
0002
0023
2030
3200
,
0310
0000
0010
0001
0010
0000
0001
0000
,
0100
0001
0100
0000
0010
0000
1000
0100
,
1000
0100
1000
0100
0010
0000
0001
0100
,
0010
1000
0010
1000
0001
0000
0010
0100
,
0010
0100
0010
0001
1000
0000
0010
0100
,
0220
0000
0000
0000
,
0000
0000
0000
0000
0000
0000
0000
0000
0000
0000
0000
0000
0000
0000
0000
0000
0000
0000
0000
0000
0000
0000
0000
0000
0000
0000
0000
0000
0000
0000
0000
0330
;

//---------------dance-single - ----------------
#NOTES:
     dance-single:
     :
     Beginner:
     2:
     0.113,0.224,0.101,0.132,0.000:
0000
0000
0000
0000
,
0000
0000
0000
0000
,
0000
0000
0000
0000
,
0000
0000
0000
0000
,
0000
0000
0000
0000
,
0000
0000
0000
0000
,
0000
0000
0000
0000
,
0020
0000
0000
0000
,
0000
0000
0000
0000
,
0030
0000
0000
0000
,
0000
0000
0000
0000
,
0200
0000
0000
0000
,
0000
0000
0000
0000
,
0300
0000
0000
0000
,
0000
0000
0000
0000
,
0001
0001
0000
0000
,
0000
0000
0000
0000
,
1000
1000
0000
0000
,
0000
0000
0000
0000
,
0100
0100
0000
0000
,
0000
0000
0000
0000
,
0010
0010
0000
0000
,
0000
0000
0000
0000
,
2002
0000
0000
0000
,
3003
0000
0000
0000
,
0010
0000
0000
0000
,
0000
0000
0000
0000
,
0100
0000
0000
0000
,
0000
0000
0000
0000
,
0001
0000
0000
0000
,
0000
0000
0000
0000
,
1000
0000
0000
0000
,
0000
0000
0000
0000
,
1001
0000
0000
0000
,
0000
0000
0000
0000
,
0110
0000
0000
0000
,
0000
0000
0000
0000
,
1001
0000
0000
0000
,
0000
0000
0000
0000
,
0110
0000
0000
0000
,
0000
0000
0001
0000
,
0001
0000
0000
0000
,
0000
0000
1000
0000
,
1000
0000
0000
0000
,
0000
0000
0100
0000
,
0100
0000
0000
0000
,
0000
0000
0010
0000
,
0010
0000
0000
0000
,
0000
0000
0001
0000
,
0001
0001
0000
0000
,
0000
0000
1000
0000
,
1000
1000
0000
0000
,
0000
0000
0010
0000
,
0010
0010
0000
0000
,
0000
0000
0100
0000
,
0100
0100
0000
0000
,
1001
0000
1001
0000
,
1001
0000
0000
0000
,
0000
0000
0010
0010
,
0010
0000
0000
0000
,
0000
0000
0100
0000
,
1000
0000
0000
0000
,
0000
0000
0001
0001
,
0001
0000
0000
0000
,
0000
0000
1000
0000
,
0010
0000
0000
0000
,
0000
0000
1000
1000
,
1000
0000
0000
0000
,
0000
0000
0001
0000
,
0010
0000
0000
0000
,
0000
0000
0100
0100
,
0100
0000
0000
0000
,
1001
0000
1001
0000
,
2002
0000
0000
0000
,
0000
0000
0000
0000
,
0000
0000
0000
0000
,
0000
0000
0000
0000
,
0000
0000
0000
0000
,
0000
0000
0000
0000
,
0000
0000
3003
0000
,
0220
0000
0000
0000
,
0000
0000
0000
0000
,
0000
0000
0000
0000
,
0000
0000
0000
0000
,
0000
0000
0000
0000
,
0000
0000
0000
0000
,
0000
0000
0330
0000
,
0002
0000
0003
0000
,
2000
0000
3000
0000
,
0200
0000
0300
0000
,
0020
0000
0030
0000
,
0002
0000
0003
0000
,
0200
0000
0300
0000
,
0020
0000
0030
0000
,
2002
0000
0000
0000
,
0000
0000
0000
0000
0000
0000
0000
0000
0000
0000
0000
0000
0000
0000
0000
0000
0000
0000
0000
0000
0000
0000
0000
0000
0000
0000
0000
0000
0000
0000
0000
3003
;

//---------------dance-single - ----------------
#NOTES:
     dance-single:
     :
     Easy:
     5:
     0.381,0.522,0.179,0.280,0.000:
0000
0000
0000
0000
,
0000
0000
0000
0000
,
0000
0000
0000
0000
,
0000
0000
0000
0000
,
0000
0000
0000
0000
,
0000
0000
0000
0000
,
0000
0000
0000
0000
,
0001
0010
0100
1000
,
0001
0010
0100
1000
,
2002
0000
0000
0000
,
3003
0000
0000
0000
,
1000
0010
0100
0001
,
1000
0010
0100
0001
,
2002
0000
0000
0000
,
3003
0000
0010
0010
,
0110
0110
1000
1000
,
1000
0000
1000
0000
0100
0010
0100
0000
,
0110
0110
0001
0001
,
0001
0000
0001
0000
0100
0010
0100
0000
,
0110
0110
1000
0001
,
0010
0000
0100
0000
1000
0001
1000
0000
,
0110
0110
0001
1000
,
0010
0000
0100
0000
0001
1000
0001
0000
,
2002
0000
0000
0000
,
3003
0000
0000
0000
,
0002
0000
0003
0000
,
2000
0000
3000
0000
,
0200
0000
0300
0000
,
0020
0000
0030
0000
,
0002
0000
0003
0000
,
0200
0000
0300
0000
,
0020
0000
0030
0000
,
2000
0000
3000
0000
,
0002
0010
0013
0000
,
2000
0100
3100
0000
,
0020
1000
1030
0000
,
0200
0001
0301
0000
,
0020
1000
0130
0000
,
2000
0100
3001
0000
,
0002
0010
1003
0000
,
0200
0010
0301
0000
,
0001
0100
1000
0100
,
0001
0100
1000
0100
,
0001
0010
0100
1000
,
0001
0000
1000
0000
0010
1000
0100
0000
,
1000
0100
0001
0100
,
1000
0100
0001
0100
,
1000
0010
0100
0001
,
1000
0000
0001
0000
0010
0001
0100
0000
,
0010
0100
1000
0100
,
0010
0100
0001
0100
,
0010
0100
1000
0100
,
0010
0100
0001
0100
,
1000
0010
0100
0010
,
1000
0010
0001
0010
,
0100
0010
1000
0010
,
0220
0330
0000
0000
2002
3003
0000
0000
,
1001
0010
0100
1000
,
0010
0100
0001
1000
,
0100
0001
1000
0010
,
0001
0100
0010
1000
,
0001
0100
1000
0100
,
0001
0010
1000
0010
,
0001
0100
0010
1000
,
0200
0310
0020
0130
,
1100
1100
0001
0100
,
0101
0101
1000
0100
,
0010
0010
0100
0000
,
0010
0010
1001
1001
,
0010
0100
0001
0010
,
0100
1000
0010
0100
,
2002
0000
3003
0000
,
0110
0000
0000
0000
,
0001
0001
0001
0000
,
1000
0000
0100
0000
,
0010
0010
0010
0000
,
0001
0001
0001
0000
,
0100
0000
0010
0000
,
1000
1000
1000
0000
,
0100
0000
0010
0000
,
0100
0000
0100
1000
0100
0000
1000
0000
,
0001
0001
0001
0000
,
0100
0000
0100
0001
0100
0000
0001
0000
,
1000
1000
1000
0000
,
0010
0010
0010
0100
,
0001
0001
0001
1000
,
0100
0100
0010
0001
,
0020
0000
0230
0000
,
2300
0000
3002
0000
,
0103
0000
0100
0010
0100
0000
0010
0000
,
1000
1000
1000
0100
,
0100
0100
0100
0010
,
0001
0000
0001
1000
0001
0000
0100
0000
,
0100
0000
0100
0010
0100
0000
0010
0000
,
2002
0000
0000
0000
,
0000
0000
0000
0000
0000
0000
0000
0000
0000
0000
0000
0000
0000
0000
0000
0000
0000
0000
0000
0000
0000
0000
0000
0000
0000
0000
0000
0000
0000
0000
0000
3003
;

//---------------dance-double - ----------------
#NOTES:
     dance-double:
     :
     Challenge:
     9:
     0.645,0.671,0.264,0.358,0.455: // measure 1
00000000
00000000
00000000
00000000
,  // measure 2
00000000
00000000
00000000
00000000
,  // measure 3
00000000
00000000
00000000
00000000
,  // measure 4
00000000
00000000
00000000
00000000
,  // measure 5
00000000
00000000
00000000
00000000
,  // measure 6
00000000
00000000
00000000
00000000
,  // measure 7
00000000
00000000
00000000
00000000
00000000
00000000
00000000
00000000
00100000
00000000
00100000
00000000
,  // measure 8
02000000
00000000
00010000
00000000
03020000
00000000
00230000
00000000
01000000
00000000
02300000
00000000
,  // measure 9
23000000
00000000
00010000
00000000
30020000
00000000
02030000
00000000
00001000
00000000
03002000
00000000
,  // measure 10
00023000
00000000
00000000
00000000
,  // measure 11
00000000
00000000
00000000
00000000
00000000
00000000
00000000
00000000
00031000
00000000
00001000
00000000
,  // measure 12
00000020
00000000
00000001
00000000
00000032
00000000
00000203
00000000
00010000
00000000
00020300
00000000
,  // measure 13
00032000
00000000
00000010
00000000
00003020
00000000
00000230
00000000
00000001
00000000
00000302
00000000
,  // measure 14
00002000
00000000
00000000
00000000
,  // measure 15
00000000
00000000
00000000
00003003
00000000
00000000
00001000
00000000
00010000
00000000
00001000
00000000
,  // measure 16
00110000
00000000
00000000
00000000
01010000
00000000
00000000
00000000
10000000
00000000
00100000
00000000
00000000
10000000
00100000
00000000
,  // measure 17
00000000
10000000
00100000
00000000
00000000
00100000
01000000
00000000
00010000
00000000
00100000
00000000
00001000
00000000
00010000
00000000
,  // measure 18
00001100
00000000
00000000
00000000
00001010
00000000
00000000
00000000
00000001
00000000
00000010
00000000
00000000
00000001
00000010
00000000
,  // measure 19
00000000
00000001
00000010
00000000
00000000
00000010
00000100
00000000
00010000
00000000
00000100
00000000
00001000
00000000
00000010
00000000
,  // measure 20
00010100
00000000
00000000
00000000
00010010
00000000
00000000
00000000
00100000
00000000
01000000
00000000
00000000
10000000
01000000
00000000
,  // measure 21
00000000
00100000
01000000
00000000
00000000
00010000
01000000
00000000
10000000
00000000
00100000
00000000
00010000
00000000
00100000
00000000
,  // measure 22
01001000
00000000
00000000
00000000
00101000
00000000
00000000
00000000
00000100
00000000
00000010
00000000
00000000
00000001
00000010
00000000
,  // measure 23
00000000
00000000
00000000
00000100
00000000
00000000
00000010
00000000
00000000
00000000
00000000
00000000
00000000
00000000
00000000
00001000
00000000
00000000
00000010
00000000
00000000
00000000
00000000
00000000
00000001
00000000
00000000
00000000
00000000
00000000
00000000
00000000
00000101
00000000
00000000
00000000
00000000
00000000
00000000
00000000
00001100
00000000
00000000
00000000
00000000
00000000
00000000
00000000
,  // measure 24
00001001
00000000
00000000
00000000
,  // measure 25
00000000
00000000
00000000
00000000
,  // measure 26
00001000
00000000
00000010
00000000
00000001
00000000
00000010
00001000
,  // measure 27
00000000
00001000
00000100
00000000
00000010
00000000
00000000
00000000
,  // measure 28
00010000
00000000
01000000
00000000
10000000
00000000
01000000
00010000
,  // measure 29
00000000
00010000
00100000
00000000
01000000
00000000
00000000
00000000
,  // measure 30
00020000
02000000
00030000
00002000
,  // measure 31
03000000
00010000
00003100
00000000
,  // measure 32
00000002
00002000
00000003
00000200
,  // measure 33
00003000
00010000
00100300
00000000
,  // measure 34
10010000
00000000
01100000
00000000
10000000
00000000
00010000
00100000
,  // measure 35
00000000
10000000
00100000
00000000
10010000
00000000
01000000
00100000
,  // measure 36
00010000
00000000
01000000
00001000
01000000
00000000
00001000
00010000
,  // measure 37
00000000
00010000
00000100
00000000
00000110
00000000
00001000
00000100
,  // measure 38
00000010
00000000
00000010
00000100
00001000
00000000
00000001
00000100
,  // measure 39
00000000
00000100
00000010
00000000
00001000
00000000
00000100
00000010
,  // measure 40
00000001
00000000
00000001
00000010
00000100
00001000
00000000
00002002
,  // measure 41
00000000
00000000
00003003
00000000
,  // measure 42
00011000
00000000
00001000
00000100
00000010
00000000
00000010
00000100
,  // measure 43
00001000
00000000
00010000
00100000
01000000
00000000
01000000
00100000
,  // measure 44
00010000
00000000
00011000
00000000
00001000
00000010
00000100
00000000
,  // measure 45
00000100
00000010
00001000
00000000
00010000
01000000
00100000
00000000
,  // measure 46
10000000
00000000
01000000
00001000
00000000
00001000
01000000
00000000
,  // measure 47
10000000
00000000
00100000
00001000
00000000
00001000
00100000
00000000
,  // measure 48
00011000
01010000
00011000
00001100
,  // measure 49
00001001
00000010
00000000
00000000
00001001
00000100
00000010
00000100
,  // measure 50
00000002
00000010
00000100
00001003
,  // measure 51
00020000
00100000
01000000
10030000
,  // measure 52
00100000
01000000
02200000
03300000
,  // measure 53
10000000
01000000
00100000
00000000
00001000
00010000
00000010
00000100
,  // measure 54
00000001
00000010
00010000
00000010
00000100
00001000
00000001
00000000
,  // measure 55
00000100
00010000
00000100
00000010
00010000
00001000
01000000
00100000
,  // measure 56
10000000
01000000
00100000
00010000
10000000
00100000
00010000
00001000
,  // measure 57
00000100
00000110
00000000
00000010
00000110
00000002
00002003
00003000
,  // measure 58
00000001
00000010
00000100
00010000
00000010
00000100
00001000
00000000
,  // measure 59
00000100
00000001
00000100
00000001
00000010
00000100
00001000
00000010
,  // measure 60
00010000
00001000
01000000
00100000
01000000
10000000
01000000
00001000
,  // measure 61
01000000
00001000
00100000
00010000
00100000
00001000
00000010
00000100
,  // measure 62
00001000
00000000
00000001
00000010
00000100
00000010
00000001
00000100
,  // measure 63
00001000
00000000
00010000
01000000
00100000
01000000
10000000
00100000
,  // measure 64
00010000
00000000
00100000
10000000
00000000
11000000
00000000
00110000
,  // measure 65
00000000
00001000
00010000
00000000
00000010
00000100
00000010
00000000
,  // measure 66
00002001
00003010
00001002
00000013
,  // measure 67
00000200
00000320
00000230
00000320
,  // measure 68
00000031
00001000
00000001
00000000
00002002
00000000
00003003
00000000
,  // measure 69
00001000
00010000
00000000
00001000
00010000
00000000
00100000
01000000
,  // measure 70
00100000
00000000
00010000
10000000
00000000
10000000
00010000
10000000
,  // measure 71
00000000
00010000
00001000
00000000
00001000
00000010
00000001
00000000
,  // measure 72
00002002
00000000
00000000
00000000
00003003
00000000
00000010
00000100
,  // measure 73
00000010
00000010
00000100
00000010
00000000
00000010
00000100
00000010
,  // measure 74
00000001
00000000
00000000
00000001
00000010
00000000
00000000
00000001
00000010
00000000
00000000
00000001
00000010
00000000
00000000
00000010
,  // measure 75
00000100
00000000
00000000
00000010
00000100
00000000
00000000
00000010
00000100
00000000
00000000
00000100
00001000
00000000
00000000
00001000
,  // measure 76
00000010
00000000
00000000
00001000
00000010
00000000
00000000
00000010
00010000
00000000
00000000
00010000
01000000
00000000
00000000
01000000
,  // measure 77
00100000
00000000
00000000
01000000
00100000
00000000
00000000
01000000
00100000
00000000
00000000
00100000
00010000
00000000
00000000
00010000
,  // measure 78
10000000
00000000
00000000
10000000
00100000
00000000
00000000
10000000
00100000
00000000
00000000
10000000
00100000
00000000
00000000
00100000
,  // measure 79
01000000
00000000
00000000
01000000
00001000
00000000
00000000
00001000
00010000
00000000
00000000
00010000
00000100
00000000
00000000
00010000
,  // measure 80
00000100
00000000
00000000
00010000
00000100
00000000
00000000
00010000
00000100
00000000
00000000
00000100
00000010
00000000
00000000
00000010
,  // measure 81
00000100
00000000
00000000
00000010
00000100
00000000
00000000
00000100
00001000
00000000
00000000
00000100
00001000
00000000
00000000
00001000
,  // measure 82
00000010
00000000
00000000
00001000
00000010
00000000
00000000
00001000
00000010
00000000
00000000
00000010
00000001
00000000
00000000
00000001
,  // measure 83
00000010
00000000
00000000
00000010
00000100
00000000
00000000
00000010
00000100
00000000
00000000
00000100
00000001
00000000
00000000
00000001
,  // measure 84
00000010
00000000
00000000
00000010
00000100
00000000
00000000
00000100
00010000
00000000
00000000
00010000
00001000
00000000
00000000
00001000
,  // measure 85
01000000
00000000
00000000
00001000
01000000
00000000
00000000
01000000
00001000
00000000
00000000
01000000
00001000
00000000
00000000
00001000
,  // measure 86
00100000
00000000
00000000
00001000
00100000
00000000
00000000
00100000
01000000
00000000
00000000
01000000
10000000
00000000
00000000
10000000
,  // measure 87
00100000
00000000
00000000
10000000
00100000
00000000
00000000
00100000
01000000
00000000
00000000
00100000
01000000
00000000
00000000
01000000
,  // measure 88
00002000
00000000
00000000
00000000
00000000
00000000
00013000
00000100
00020000
00000000
00000000
00000000
00000000
00000000
00030010
00000001
,  // measure 89
00000010
00000000
00010000
00000000
00000100
00000000
00000010
00000000
00000001
00000000
00000100
00000000
,  // measure 90
00000010
00000000
00000000
00001000
00000100
00000000
00000000
00001000
00000010
00000000
00000000
00000010
00000100
00000000
00000000
00000100
,  // measure 91
00000001
00000000
00000000
00000001
00001000
00000000
00000000
00000010
00010000
00000000
00000000
00010000
00001000
00000000
00000000
00010000
,  // measure 92
00000100
00000000
00000000
00000100
00000010
00000000
00000000
00000100
00000001
00000000
00000000
00000100
00010000
00000000
00000000
00010000
,  // measure 93
00001000
00000000
00000000
00100000
00010000
00000000
00000000
10000000
01000000
00000000
00000000
10000000
00100000
00000000
00000000
00100000
,  // measure 94
00001000
00000000
00000000
00100000
01000000
00000000
00000000
00010000
10000000
00000000
00000000
10000000
00010000
00000000
00000000
00000000
,  // measure 95
02200000
00000000
00000000
00000000
,  // measure 96
00000000
00000000
00000000
00000000
00000000
00000000
00000000
00000000
00000000
00000000
00000000
00000000
00000000
00000000
00000000
00000000
00000000
00000000
00000000
00000000
00000000
00000000
00000000
00000000
00000000
00000000
00000000
00000000
00000000
00000000
00000000
03300000
;
